  0
SECTION
  2
HEADER
  9
$ACADVER
  1
AC1015
  9
$ACADMAINTVER
 70
     6
  9
$DWGCODEPAGE
  3
ANSI_1252
  9
$INSBASE
 10
0.0
 20
0.0
 30
0.0
  9
$EXTMIN
 10
-94.5
 20
-22.97044096548812
 30
0.0
  9
$EXTMAX
 10
123.6437462372299
 20
437.1082937066867
 30
0.0
  9
$LIMMIN
 10
0.0
 20
0.0
  9
$LIMMAX
 10
12.0
 20
9.0
  9
$ORTHOMODE
 70
     0
  9
$REGENMODE
 70
     1
  9
$FILLMODE
 70
     1
  9
$QTEXTMODE
 70
     0
  9
$MIRRTEXT
 70
     1
  9
$LTSCALE
 40
1.0
  9
$ATTMODE
 70
     1
  9
$TEXTSIZE
 40
0.2
  9
$TRACEWID
 40
0.05
  9
$TEXTSTYLE
  7
Standard
  9
$CLAYER
  8
0
  9
$CELTYPE
  6
ByLayer
  9
$CECOLOR
 62
   256
  9
$CELTSCALE
 40
1.0
  9
$DISPSILH
 70
     0
  9
$DIMSCALE
 40
1.0
  9
$DIMASZ
 40
0.18
  9
$DIMEXO
 40
0.0625
  9
$DIMDLI
 40
0.38
  9
$DIMRND
 40
0.0
  9
$DIMDLE
 40
0.0
  9
$DIMEXE
 40
0.18
  9
$DIMTP
 40
0.0
  9
$DIMTM
 40
0.0
  9
$DIMTXT
 40
0.18
  9
$DIMCEN
 40
0.09
  9
$DIMTSZ
 40
0.0
  9
$DIMTOL
 70
     0
  9
$DIMLIM
 70
     0
  9
$DIMTIH
 70
     1
  9
$DIMTOH
 70
     1
  9
$DIMSE1
 70
     0
  9
$DIMSE2
 70
     0
  9
$DIMTAD
 70
     0
  9
$DIMZIN
 70
     0
  9
$DIMBLK
  1

  9
$DIMASO
 70
     1
  9
$DIMSHO
 70
     1
  9
$DIMPOST
  1

  9
$DIMAPOST
  1

  9
$DIMALT
 70
     0
  9
$DIMALTD
 70
     2
  9
$DIMALTF
 40
25.4
  9
$DIMLFAC
 40
1.0
  9
$DIMTOFL
 70
     0
  9
$DIMTVP
 40
0.0
  9
$DIMTIX
 70
     0
  9
$DIMSOXD
 70
     0
  9
$DIMSAH
 70
     0
  9
$DIMBLK1
  1

  9
$DIMBLK2
  1

  9
$DIMSTYLE
  2
Standard
  9
$DIMCLRD
 70
     0
  9
$DIMCLRE
 70
     0
  9
$DIMCLRT
 70
     0
  9
$DIMTFAC
 40
1.0
  9
$DIMGAP
 40
0.09
  9
$DIMJUST
 70
     0
  9
$DIMSD1
 70
     0
  9
$DIMSD2
 70
     0
  9
$DIMTOLJ
 70
     1
  9
$DIMTZIN
 70
     0
  9
$DIMALTZ
 70
     0
  9
$DIMALTTZ
 70
     0
  9
$DIMUPT
 70
     0
  9
$DIMDEC
 70
     4
  9
$DIMTDEC
 70
     4
  9
$DIMALTU
 70
     2
  9
$DIMALTTD
 70
     2
  9
$DIMTXSTY
  7
Standard
  9
$DIMAUNIT
 70
     0
  9
$DIMADEC
 70
     0
  9
$DIMALTRND
 40
0.0
  9
$DIMAZIN
 70
     0
  9
$DIMDSEP
 70
    46
  9
$DIMATFIT
 70
     3
  9
$DIMFRAC
 70
     0
  9
$DIMLDRBLK
  1

  9
$DIMLUNIT
 70
     2
  9
$DIMLWD
 70
    -2
  9
$DIMLWE
 70
    -2
  9
$DIMTMOVE
 70
     0
  9
$LUNITS
 70
     2
  9
$LUPREC
 70
     4
  9
$SKETCHINC
 40
0.1
  9
$FILLETRAD
 40
0.5
  9
$AUNITS
 70
     0
  9
$AUPREC
 70
     0
  9
$MENU
  1
.
  9
$ELEVATION
 40
0.0
  9
$PELEVATION
 40
0.0
  9
$THICKNESS
 40
0.0
  9
$LIMCHECK
 70
     0
  9
$CHAMFERA
 40
0.5
  9
$CHAMFERB
 40
0.5
  9
$CHAMFERC
 40
1.0
  9
$CHAMFERD
 40
0.0
  9
$SKPOLY
 70
     0
  9
$TDCREATE
 40
2454447.463026215
  9
$TDUCREATE
 40
2454447.421359549
  9
$TDUPDATE
 40
2454447.463026227
  9
$TDUUPDATE
 40
2454447.42135956
  9
$TDINDWG
 40
0.0000000116
  9
$TDUSRTIMER
 40
0.0000000116
  9
$USRTIMER
 70
     1
  9
$ANGBASE
 50
0.0
  9
$ANGDIR
 70
     0
  9
$PDMODE
 70
     0
  9
$PDSIZE
 40
0.0
  9
$PLINEWID
 40
0.0
  9
$SPLFRAME
 70
     0
  9
$SPLINETYPE
 70
     6
  9
$SPLINESEGS
 70
     8
  9
$HANDSEED
  5
AB
  9
$SURFTAB1
 70
     6
  9
$SURFTAB2
 70
     6
  9
$SURFTYPE
 70
     6
  9
$SURFU
 70
     6
  9
$SURFV
 70
     6
  9
$UCSBASE
  2

  9
$UCSNAME
  2

  9
$UCSORG
 10
0.0
 20
0.0
 30
0.0
  9
$UCSXDIR
 10
1.0
 20
0.0
 30
0.0
  9
$UCSYDIR
 10
0.0
 20
1.0
 30
0.0
  9
$UCSORTHOREF
  2

  9
$UCSORTHOVIEW
 70
     0
  9
$UCSORGTOP
 10
0.0
 20
0.0
 30
0.0
  9
$UCSORGBOTTOM
 10
0.0
 20
0.0
 30
0.0
  9
$UCSORGLEFT
 10
0.0
 20
0.0
 30
0.0
  9
$UCSORGRIGHT
 10
0.0
 20
0.0
 30
0.0
  9
$UCSORGFRONT
 10
0.0
 20
0.0
 30
0.0
  9
$UCSORGBACK
 10
0.0
 20
0.0
 30
0.0
  9
$PUCSBASE
  2

  9
$PUCSNAME
  2

  9
$PUCSORG
 10
0.0
 20
0.0
 30
0.0
  9
$PUCSXDIR
 10
1.0
 20
0.0
 30
0.0
  9
$PUCSYDIR
 10
0.0
 20
1.0
 30
0.0
  9
$PUCSORTHOREF
  2

  9
$PUCSORTHOVIEW
 70
     0
  9
$PUCSORGTOP
 10
0.0
 20
0.0
 30
0.0
  9
$PUCSORGBOTTOM
 10
0.0
 20
0.0
 30
0.0
  9
$PUCSORGLEFT
 10
0.0
 20
0.0
 30
0.0
  9
$PUCSORGRIGHT
 10
0.0
 20
0.0
 30
0.0
  9
$PUCSORGFRONT
 10
0.0
 20
0.0
 30
0.0
  9
$PUCSORGBACK
 10
0.0
 20
0.0
 30
0.0
  9
$USERI1
 70
     0
  9
$USERI2
 70
     0
  9
$USERI3
 70
     0
  9
$USERI4
 70
     0
  9
$USERI5
 70
     0
  9
$USERR1
 40
14.0
  9
$USERR2
 40
0.0
  9
$USERR3
 40
0.0
  9
$USERR4
 40
0.0
  9
$USERR5
 40
0.0
  9
$WORLDVIEW
 70
     1
  9
$SHADEDGE
 70
     3
  9
$SHADEDIF
 70
    70
  9
$TILEMODE
 70
     1
  9
$MAXACTVP
 70
    64
  9
$PINSBASE
 10
0.0
 20
0.0
 30
0.0
  9
$PLIMCHECK
 70
     0
  9
$PEXTMIN
 10
1.00000000000000E+20
 20
1.00000000000000E+20
 30
1.00000000000000E+20
  9
$PEXTMAX
 10
-1.00000000000000E+20
 20
-1.00000000000000E+20
 30
-1.00000000000000E+20
  9
$PLIMMIN
 10
0.0
 20
0.0
  9
$PLIMMAX
 10
12.0
 20
9.0
  9
$UNITMODE
 70
     0
  9
$VISRETAIN
 70
     1
  9
$PLINEGEN
 70
     0
  9
$PSLTSCALE
 70
     1
  9
$TREEDEPTH
 70
  3020
  9
$CMLSTYLE
  2
Standard
  9
$CMLJUST
 70
     0
  9
$CMLSCALE
 40
1.0
  9
$PROXYGRAPHICS
 70
     1
  9
$MEASUREMENT
 70
     1
  9
$CELWEIGHT
370
    -1
  9
$ENDCAPS
280
     0
  9
$JOINSTYLE
280
     0
  9
$LWDISPLAY
290
     0
  9
$INSUNITS
 70
     1
  9
$HYPERLINKBASE
  1

  9
$STYLESHEET
  1

  9
$XEDIT
290
     1
  9
$CEPSNTYPE
380
     0
  9
$PSTYLEMODE
290
     1
  9
$FINGERPRINTGUID
  2
{EBEBEA93-6D89-4677-A666-3FEE7FF3ABB2}
  9
$VERSIONGUID
  2
{FAEB1C32-E019-11D5-929B-00C0DF256EC4}
  9
$EXTNAMES
290
     1
  9
$PSVPSCALE
 40
0.0
  9
$OLESTARTUP
290
     0
  0
ENDSEC
  0
SECTION
  2
CLASSES
  0
CLASS
  1
ACDBDICTIONARYWDFLT
  2
AcDbDictionaryWithDefault
  3
ObjectDBX Classes
 90
        0
280
     0
281
     0
  0
CLASS
  1
ACDBPLACEHOLDER
  2
AcDbPlaceHolder
  3
ObjectDBX Classes
 90
        0
280
     0
281
     0
  0
CLASS
  1
LAYOUT
  2
AcDbLayout
  3
ObjectDBX Classes
 90
        0
280
     0
281
     0
  0
ENDSEC
  0
SECTION
  2
TABLES
  0
TABLE
  2
VPORT
  5
8
330
0
100
AcDbSymbolTable
 70
     1
  0
VPORT
  5
29
330
8
100
AcDbSymbolTableRecord
100
AcDbViewportTableRecord
  2
*Active
 70
     0
 10
0.0
 20
0.0
 11
1.0
 21
1.0
 12
14.57187311861495
 22
207.0689263705993
 13
0.0
 23
0.0
 14
0.5
 24
0.5
 15
0.5
 25
0.5
 16
0.0
 26
0.0
 36
1.0
 17
0.0
 27
0.0
 37
0.0
 40
506.0866081393924
 41
1.60267857142857
 42
50.0
 43
0.0
 44
0.0
 50
0.0
 51
0.0
 71
     0
 72
   100
 73
     1
 74
     3
 75
     0
 76
     0
 77
     0
 78
     0
281
     0
 65
     1
110
0.0
120
0.0
130
0.0
111
1.0
121
0.0
131
0.0
112
0.0
122
1.0
132
0.0
 79
     0
146
0.0
  0
ENDTAB
  0
TABLE
  2
LTYPE
  5
5
330
0
100
AcDbSymbolTable
 70
     8
  0
LTYPE
  5
14
330
5
100
AcDbSymbolTableRecord
100
AcDbLinetypeTableRecord
  2
ByBlock
 70
     0
  3

 72
    65
 73
     0
 40
0.0
  0
LTYPE
  5
15
330
5
100
AcDbSymbolTableRecord
100
AcDbLinetypeTableRecord
  2
ByLayer
 70
     0
  3

 72
    65
 73
     0
 40
0.0
  0
LTYPE
  5
16
330
5
100
AcDbSymbolTableRecord
100
AcDbLinetypeTableRecord
  2
Continuous
 70
     0
  3
Solid line
 72
    65
 73
     0
 40
0.0
  0
LTYPE
  5
2A
330
5
100
AcDbSymbolTableRecord
100
AcDbLinetypeTableRecord
  2
DASHED
 70
     0
  3
Dashed
 72
    65
 73
     2
 40
15.0
 49
7.0
 74
     0
 49
-8.0
 74
     0
  0
LTYPE
  5
2B
330
5
100
AcDbSymbolTableRecord
100
AcDbLinetypeTableRecord
  2
DOTTED
 70
     0
  3
Dotted
 72
    65
 73
     2
 40
1.0
 49
0.0
 74
     0
 49
-1.0
 74
     0
  0
LTYPE
  5
2C
330
5
100
AcDbSymbolTableRecord
100
AcDbLinetypeTableRecord
  2
DOT_CENTER
 70
     0
  3
Dot_Center
 72
    65
 73
     4
 40
14.0
 49
12.0
 74
     0
 49
-1.0
 74
     0
 49
0.0
 74
     0
 49
-1.0
 74
     0
  0
LTYPE
  5
2D
330
5
100
AcDbSymbolTableRecord
100
AcDbLinetypeTableRecord
  2
LONG_DASHED
 70
     0
  3
Long_Dashed
 72
    65
 73
     2
 40
15.0
 49
10.0
 74
     0
 49
-5.0
 74
     0
  0
LTYPE
  5
2E
330
5
100
AcDbSymbolTableRecord
100
AcDbLinetypeTableRecord
  2
DASH_CENTER
 70
     0
  3
Dash_Center
 72
    65
 73
     4
 40
14.0
 49
11.0
 74
     0
 49
-1.0
 74
     0
 49
1.0
 74
     0
 49
-1.0
 74
     0
  0
LTYPE
  5
2F
330
5
100
AcDbSymbolTableRecord
100
AcDbLinetypeTableRecord
  2
PHANTOM
 70
     0
  3
Phantom
 72
    65
 73
     6
 40
13.0
 49
10.0
 74
     0
 49
-1.0
 74
     0
 49
0.0
 74
     0
 49
-1.0
 74
     0
 49
0.0
 74
     0
 49
-1.0
 74
     0
  0
LTYPE
  5
30
330
5
100
AcDbSymbolTableRecord
100
AcDbLinetypeTableRecord
  2
CENTER_DASH_DASH
 70
     0
  3
Center_Dash_Dash
 72
    65
 73
     6
 40
14.0
 49
9.0
 74
     0
 49
-1.0
 74
     0
 49
1.0
 74
     0
 49
-1.0
 74
     0
 49
1.0
 74
     0
 49
-1.0
 74
     0
  0
ENDTAB
  0
TABLE
  2
LAYER
  5
2
330
0
100
AcDbSymbolTable
 70
     2
  0
LAYER
  5
10
330
2
100
AcDbSymbolTableRecord
100
AcDbLayerTableRecord
  2
0
 70
     0
 62
     7
  6
Continuous
370
    -3
390
F
  0
LAYER
  5
31
330
2
100
AcDbSymbolTableRecord
100
AcDbLayerTableRecord
  2
1
 70
     0
 62
     7
  6
Continuous
370
    -3
390
F
  0
ENDTAB
  0
TABLE
  2
STYLE
  5
3
330
0
100
AcDbSymbolTable
 70
     2
  0
STYLE
  5
11
330
3
100
AcDbSymbolTableRecord
100
AcDbTextStyleTableRecord
  2
Standard
 70
     0
 40
0.0
 41
1.0
 50
0.0
 71
     0
 42
0.2
  3
txt
  4

  0
STYLE
  5
79
330
3
100
AcDbSymbolTableRecord
100
AcDbTextStyleTableRecord
  2
CONVERTER_1
 70
     0
 40
0.0
 41
0.9
 50
0.0
 71
     0
 42
0.2
  3
txt.shx
  4

  0
ENDTAB
  0
TABLE
  2
VIEW
  5
6
330
0
100
AcDbSymbolTable
 70
     0
  0
ENDTAB
  0
TABLE
  2
UCS
  5
7
330
0
100
AcDbSymbolTable
 70
     0
  0
ENDTAB
  0
TABLE
  2
APPID
  5
9
330
0
100
AcDbSymbolTable
 70
     1
  0
APPID
  5
12
330
9
100
AcDbSymbolTableRecord
100
AcDbRegAppTableRecord
  2
ACAD
 70
     0
  0
ENDTAB
  0
TABLE
  2
DIMSTYLE
  5
A
330
0
100
AcDbSymbolTable
 70
     6
100
AcDbDimStyleTable
  0
DIMSTYLE
105
27
330
A
100
AcDbSymbolTableRecord
100
AcDbDimStyleTableRecord
  2
Standard
 70
     0
340
11
  0
DIMSTYLE
105
7D
102
{ACAD_REACTORS
330
7E
102
}
330
A
100
AcDbSymbolTableRecord
100
AcDbDimStyleTableRecord
  2
ME10_DIM_0
 70
     0
  3
DN<>
 41
10.0
 42
0.0
 44
2.0
 73
     0
 74
     0
 77
     1
 78
     8
140
10.0
147
2.0
172
     1
173
     1
176
     4
177
     4
178
     1
271
     2
340
79
  0
DIMSTYLE
105
88
102
{ACAD_REACTORS
330
89
102
}
330
A
100
AcDbSymbolTableRecord
100
AcDbDimStyleTableRecord
  2
ME10_DIM_1
 70
     0
  3
DN<>
 41
10.0
 42
0.0
 44
2.0
 73
     0
 74
     0
 77
     1
 78
     8
140
10.0
147
2.0
172
     1
173
     1
176
     4
177
     4
178
     1
271
     2
340
79
  0
DIMSTYLE
105
93
102
{ACAD_REACTORS
330
94
102
}
330
A
100
AcDbSymbolTableRecord
100
AcDbDimStyleTableRecord
  2
ME10_DIM_2
 70
     0
 41
10.0
 42
0.0
 44
2.0
 73
     0
 74
     0
 77
     1
 78
     8
140
10.0
147
2.0
172
     1
173
     1
176
     4
177
     4
178
     1
271
     2
340
79
  0
DIMSTYLE
105
9E
102
{ACAD_REACTORS
330
9F
102
}
330
A
100
AcDbSymbolTableRecord
100
AcDbDimStyleTableRecord
  2
ME10_DIM_3
 70
     0
 41
10.0
 42
0.0
 44
2.0
 73
     0
 74
     0
 77
     1
 78
     8
140
10.0
147
2.0
172
     1
173
     1
176
     4
177
     4
178
     1
271
     2
340
79
  0
DIMSTYLE
105
A9
102
{ACAD_REACTORS
330
AA
102
}
330
A
100
AcDbSymbolTableRecord
100
AcDbDimStyleTableRecord
  2
ME10_DIM_4
 70
     0
 41
10.0
 42
0.0
 44
2.0
 73
     0
 74
     0
 77
     1
 78
     8
140
10.0
147
2.0
172
     1
173
     1
176
     4
177
     4
178
     1
271
     2
340
79
  0
ENDTAB
  0
TABLE
  2
BLOCK_RECORD
  5
1
330
0
100
AcDbSymbolTable
 70
     8
  0
BLOCK_RECORD
  5
1F
330
1
100
AcDbSymbolTableRecord
100
AcDbBlockTableRecord
  2
*Model_Space
340
22
  0
BLOCK_RECORD
  5
1B
330
1
100
AcDbSymbolTableRecord
100
AcDbBlockTableRecord
  2
*Paper_Space
340
1E
  0
BLOCK_RECORD
  5
23
330
1
100
AcDbSymbolTableRecord
100
AcDbBlockTableRecord
  2
*Paper_Space0
340
26
  0
BLOCK_RECORD
  5
32
330
1
100
AcDbSymbolTableRecord
100
AcDbBlockTableRecord
  2
HL_606_5_K_rper__1
340
0
102
{BLKREFS
331
38
102
}
  0
BLOCK_RECORD
  5
35
330
1
100
AcDbSymbolTableRecord
100
AcDbBlockTableRecord
  2
HL_606_5_K_rper__2
340
0
102
{BLKREFS
331
39
102
}
  0
BLOCK_RECORD
  5
73
330
1
100
AcDbSymbolTableRecord
100
AcDbBlockTableRecord
  2
*D03
340
0
  0
BLOCK_RECORD
  5
7F
330
1
100
AcDbSymbolTableRecord
100
AcDbBlockTableRecord
  2
*D14
340
0
  0
BLOCK_RECORD
  5
8A
330
1
100
AcDbSymbolTableRecord
100
AcDbBlockTableRecord
  2
*D25
340
0
  0
BLOCK_RECORD
  5
95
330
1
100
AcDbSymbolTableRecord
100
AcDbBlockTableRecord
  2
*D36
340
0
  0
BLOCK_RECORD
  5
A0
330
1
100
AcDbSymbolTableRecord
100
AcDbBlockTableRecord
  2
*D47
340
0
  0
ENDTAB
  0
ENDSEC
  0
SECTION
  2
BLOCKS
  0
BLOCK
  5
20
330
1F
100
AcDbEntity
  8
0
100
AcDbBlockBegin
  2
*Model_Space
 70
     0
 71
     0
 10
0.0
 20
0.0
 30
0.0
  3
*Model_Space
  1

  0
ENDBLK
  5
21
330
1F
100
AcDbEntity
  8
0
100
AcDbBlockEnd
  0
BLOCK
  5
1C
330
1B
100
AcDbEntity
 67
     1
  8
0
100
AcDbBlockBegin
  2
*Paper_Space
 70
     0
 71
     0
 10
0.0
 20
0.0
 30
0.0
  3
*Paper_Space
  1

  0
ENDBLK
  5
1D
330
1B
100
AcDbEntity
 67
     1
  8
0
100
AcDbBlockEnd
  0
BLOCK
  5
24
330
23
100
AcDbEntity
  8
0
100
AcDbBlockBegin
  2
*Paper_Space0
 70
     0
 71
     0
 10
0.0
 20
0.0
 30
0.0
  3
*Paper_Space0
  1

  0
ENDBLK
  5
25
330
23
100
AcDbEntity
  8
0
100
AcDbBlockEnd
  0
BLOCK
  5
33
330
32
100
AcDbEntity
  8
0
100
AcDbBlockBegin
  2
HL_606_5_K_rper__1
 70
     0
 71
     0
 10
-0.01093469196019
 20
2.66500000000011
 30
0.0
  3
HL_606_5_K_rper__1
  1

  0
POINT
  5
3A
330
32
100
AcDbEntity
  8
1
 62
     3
 60
     1
100
AcDbPoint
 10
-93.5
 20
207.997704406993
 30
0.0
  0
LINE
  5
3B
330
32
100
AcDbEntity
  8
1
  6
PHANTOM
 62
     2
100
AcDbLine
 10
-0.01093469196019
 20
-3.35010437594006
 30
0.0
 11
-0.0109346919601
 21
422.851638498732
 31
0.0
  0
LINE
  5
3C
330
32
100
AcDbEntity
  8
1
  6
Continuous
 62
     7
100
AcDbLine
 10
79.98906530803981
 20
2.5
 30
0.0
 11
-80.01093469196019
 21
2.5
 31
0.0
  0
LINE
  5
3D
330
32
100
AcDbEntity
  8
1
  6
Continuous
 62
     7
100
AcDbLine
 10
-80.01093469196019
 20
69.99809566112972
 30
0.0
 11
79.98906530803981
 21
69.99809566112981
 31
0.0
  0
LINE
  5
3E
330
32
100
AcDbEntity
  8
1
  6
Continuous
 62
     7
100
AcDbLine
 10
83.85607618014598
 20
73.865106533236
 30
0.0
 11
-83.87794556406624
 21
73.86510653323572
 31
0.0
  0
LINE
  5
3F
330
32
100
AcDbEntity
  8
1
  6
Continuous
 62
     7
100
AcDbLine
 10
89.48906530803981
 20
196.000000000001
 30
0.0
 11
-89.51093469196019
 21
196.000000000001
 31
0.0
  0
LINE
  5
40
330
32
100
AcDbEntity
  8
1
  6
Continuous
 62
     7
100
AcDbLine
 10
92.98906530803981
 20
204.9980956611298
 30
0.0
 11
-93.0109346919602
 21
204.9980956611298
 31
0.0
  0
LINE
  5
41
330
32
100
AcDbEntity
  8
1
  6
Continuous
 62
     7
100
AcDbLine
 10
-93.0109346919602
 20
204.9980956611298
 30
0.0
 11
-93.5
 21
204.9980956611298
 31
0.0
  0
LINE
  5
42
330
32
100
AcDbEntity
  8
1
  6
Continuous
 62
     7
100
AcDbLine
 10
-94.5
 20
205.9980956611298
 30
0.0
 11
-94.5
 21
207.9980956611298
 31
0.0
  0
LINE
  5
43
330
32
100
AcDbEntity
  8
1
  6
Continuous
 62
     7
100
AcDbLine
 10
93.49999999999999
 20
204.9980956611298
 30
0.0
 11
92.98906530803981
 21
204.9980956611298
 31
0.0
  0
LINE
  5
44
330
32
100
AcDbEntity
  8
1
  6
Continuous
 62
     7
100
AcDbLine
 10
94.49999999999999
 20
207.9980956611298
 30
0.0
 11
94.49999999999999
 21
205.9980956611298
 31
0.0
  0
LINE
  5
45
330
32
100
AcDbEntity
  8
1
  6
Continuous
 62
     7
100
AcDbLine
 10
92.98906530803981
 20
204.9980956611298
 30
0.0
 11
92.98906530803981
 21
200.7696960070849
 31
0.0
  0
LINE
  5
46
330
32
100
AcDbEntity
  8
1
  6
Continuous
 62
     7
100
AcDbLine
 10
-80.01093469196019
 20
2.5
 30
0.0
 11
-80.01093469196019
 21
69.99809566112972
 31
0.0
  0
LINE
  5
47
330
32
100
AcDbEntity
  8
1
  6
Continuous
 62
     7
100
AcDbLine
 10
-83.87794556406624
 20
73.86510653323572
 30
0.0
 11
-89.51093469196019
 21
196.000000000001
 31
0.0
  0
LINE
  5
48
330
32
100
AcDbEntity
  8
1
  6
Continuous
 62
     7
100
AcDbLine
 10
-80.01093469196019
 20
2.5
 30
0.0
 11
-78.80516332602008
 21
-2.0
 31
0.0
  0
LINE
  5
49
330
32
100
AcDbEntity
  8
1
  6
Continuous
 62
     7
100
AcDbLine
 10
-76.01093469196019
 20
-2.0
 30
0.0
 11
-78.80516332602008
 21
-2.0
 31
0.0
  0
LINE
  5
4A
330
32
100
AcDbEntity
  8
1
  6
Continuous
 62
     7
100
AcDbLine
 10
-93.01093469196019
 20
200.7696960070849
 30
0.0
 11
-93.0109346919602
 21
204.9980956611298
 31
0.0
  0
LINE
  5
4B
330
32
100
AcDbEntity
  8
1
  6
Continuous
 62
     7
100
AcDbLine
 10
89.48906530803981
 20
196.000000000001
 30
0.0
 11
83.85607618014598
 21
73.865106533236
 31
0.0
  0
LINE
  5
4C
330
32
100
AcDbEntity
  8
1
  6
Continuous
 62
     7
100
AcDbLine
 10
78.7832939420997
 20
-2.0
 30
0.0
 11
79.98906530803981
 21
2.5
 31
0.0
  0
LINE
  5
4D
330
32
100
AcDbEntity
  8
1
  6
Continuous
 62
     7
100
AcDbLine
 10
79.98906530803981
 20
69.99809566112981
 30
0.0
 11
83.85607618014598
 21
73.865106533236
 31
0.0
  0
LINE
  5
4E
330
32
100
AcDbEntity
  8
1
  6
Continuous
 62
     7
100
AcDbLine
 10
78.7832939420997
 20
-2.0
 30
0.0
 11
75.98906530803981
 21
-2.0
 31
0.0
  0
LINE
  5
4F
330
32
100
AcDbEntity
  8
0
  6
Continuous
 62
     7
100
AcDbLine
 10
-76.01093469196019
 20
-2.0
 30
0.0
 11
-0.01093469196019
 21
-2.0
 31
0.0
  0
LINE
  5
50
330
32
100
AcDbEntity
  8
0
  6
Continuous
 62
     7
100
AcDbLine
 10
-0.01093469196019
 20
-2.0
 30
0.0
 11
75.98906530803981
 21
-2.0
 31
0.0
  0
LINE
  5
51
330
32
100
AcDbEntity
  8
1
  6
Continuous
 62
     7
100
AcDbLine
 10
79.98906530803981
 20
2.5
 30
0.0
 11
79.98906530803981
 21
69.99809566112981
 31
0.0
  0
LINE
  5
52
330
32
100
AcDbEntity
  8
1
  6
Continuous
 62
     7
100
AcDbLine
 10
-83.87794556406624
 20
73.86510653323572
 30
0.0
 11
-80.01093469196019
 21
69.99809566112972
 31
0.0
  0
ARC
  5
53
330
32
100
AcDbEntity
  8
1
  6
Continuous
 62
     7
100
AcDbCircle
 10
-88.01093469196019
 20
200.7696960070849
 30
0.0
 40
5.0
100
AcDbArc
 50
180.0
 51
-107.457603123725
  0
ARC
  5
54
330
32
100
AcDbEntity
  8
1
  6
Continuous
 62
     7
100
AcDbCircle
 10
87.98906530803981
 20
200.7696960070849
 30
0.0
 40
4.999999999999204
100
AcDbArc
 50
-72.54239687627504
 51
0.0
  0
XLINE
  5
55
330
32
100
AcDbEntity
  8
1
  6
DOT_CENTER
 62
     3
 60
     1
100
AcDbXline
 10
-0.01093469196019
 20
-2.0
 30
0.0
 11
0.0
 21
1.0
 31
0.0
  0
ARC
  5
56
330
32
100
AcDbEntity
  8
1
  6
Continuous
 62
     7
100
AcDbCircle
 10
-93.5
 20
205.9980956611298
 30
0.0
 40
1.0
100
AcDbArc
 50
180.0
 51
-90.0
  0
ARC
  5
57
330
32
100
AcDbEntity
  8
1
  6
Continuous
 62
     7
100
AcDbCircle
 10
93.49999999999999
 20
205.9980956611298
 30
0.0
 40
1.0
100
AcDbArc
 50
-90.0
 51
0.0
  0
ENDBLK
  5
34
330
32
100
AcDbEntity
  8
0
100
AcDbBlockEnd
  0
BLOCK
  5
36
330
35
100
AcDbEntity
  8
0
100
AcDbBlockBegin
  2
HL_606_5_K_rper__2
 70
     0
 71
     0
 10
-0.01093469196019
 20
421.3304088139859
 30
0.0
  3
HL_606_5_K_rper__2
  1

  0
POINT
  5
58
330
35
100
AcDbEntity
  8
1
 62
     3
 60
     1
100
AcDbPoint
 10
79.98906530803981
 20
353.9973131528562
 30
0.0
  0
POINT
  5
59
330
35
100
AcDbEntity
  8
1
 62
     3
 60
     1
100
AcDbPoint
 10
-93.5
 20
215.997704406993
 30
0.0
  0
LINE
  5
5A
330
35
100
AcDbEntity
  8
1
  6
Continuous
 62
     7
100
AcDbLine
 10
-80.01093469196019
 20
408.4961913222596
 30
0.0
 11
79.98906530803981
 21
408.4961913222596
 31
0.0
  0
LINE
  5
5B
330
35
100
AcDbEntity
  8
1
  6
Continuous
 62
     7
100
AcDbLine
 10
83.85607618014598
 20
337.1310847890236
 30
0.0
 11
-83.87794556406624
 21
337.1310847890238
 31
0.0
  0
LINE
  5
5C
330
35
100
AcDbEntity
  8
1
  6
Continuous
 62
     7
100
AcDbLine
 10
-80.01093469196019
 20
340.9980956611298
 30
0.0
 11
79.98906530803981
 21
340.9980956611298
 31
0.0
  0
LINE
  5
5D
330
35
100
AcDbEntity
  8
1
  6
Continuous
 62
     7
100
AcDbLine
 10
89.48906530803981
 20
214.9961913222585
 30
0.0
 11
-89.51093469196019
 21
214.9961913222585
 31
0.0
  0
LINE
  5
5E
330
35
100
AcDbEntity
  8
1
  6
Continuous
 62
     7
100
AcDbLine
 10
92.98906530803981
 20
208.9980956611298
 30
0.0
 11
-93.0109346919602
 21
208.9980956611298
 31
0.0
  0
LINE
  5
5F
330
35
100
AcDbEntity
  8
1
  6
Continuous
 62
     7
100
AcDbLine
 10
-93.0109346919602
 20
208.9980956611298
 30
0.0
 11
-93.5
 21
208.9980956611298
 31
0.0
  0
LINE
  5
60
330
35
100
AcDbEntity
  8
1
  6
Continuous
 62
     7
100
AcDbLine
 10
93.49999999999999
 20
208.9980956611298
 30
0.0
 11
92.98906530803981
 21
208.9980956611298
 31
0.0
  0
LINE
  5
61
330
35
100
AcDbEntity
  8
1
  6
Continuous
 62
     7
100
AcDbLine
 10
-80.01093469196019
 20
340.9980956611298
 30
0.0
 11
-83.87794556406624
 21
337.1310847890238
 31
0.0
  0
LINE
  5
62
330
35
100
AcDbEntity
  8
1
  6
Continuous
 62
     7
100
AcDbLine
 10
79.98906530803981
 20
340.9980956611298
 30
0.0
 11
79.98906530803981
 21
408.4961913222596
 31
0.0
  0
LINE
  5
63
330
35
100
AcDbEntity
  8
0
  6
Continuous
 62
     7
100
AcDbLine
 10
75.98906530803981
 20
412.9961913222596
 30
0.0
 11
-0.01093469196019
 21
412.9961913222596
 31
0.0
  0
LINE
  5
64
330
35
100
AcDbEntity
  8
0
  6
Continuous
 62
     7
100
AcDbLine
 10
-0.01093469196019
 20
412.9961913222596
 30
0.0
 11
-76.01093469196019
 21
412.9961913222596
 31
0.0
  0
LINE
  5
65
330
35
100
AcDbEntity
  8
1
  6
Continuous
 62
     7
100
AcDbLine
 10
75.98906530803981
 20
412.9961913222596
 30
0.0
 11
78.7832939420997
 21
412.9961913222596
 31
0.0
  0
LINE
  5
66
330
35
100
AcDbEntity
  8
1
  6
Continuous
 62
     7
100
AcDbLine
 10
83.85607618014598
 20
337.1310847890236
 30
0.0
 11
79.98906530803981
 21
340.9980956611298
 31
0.0
  0
LINE
  5
67
330
35
100
AcDbEntity
  8
1
  6
Continuous
 62
     7
100
AcDbLine
 10
79.98906530803981
 20
408.4961913222596
 30
0.0
 11
78.7832939420997
 21
412.9961913222596
 31
0.0
  0
LINE
  5
68
330
35
100
AcDbEntity
  8
1
  6
Continuous
 62
     7
100
AcDbLine
 10
83.85607618014598
 20
337.1310847890236
 30
0.0
 11
89.48906530803981
 21
214.9961913222585
 31
0.0
  0
LINE
  5
69
330
35
100
AcDbEntity
  8
1
  6
Continuous
 62
     7
100
AcDbLine
 10
-93.0109346919602
 20
208.9980956611298
 30
0.0
 11
-93.01093469196019
 21
210.2264953151746
 31
0.0
  0
LINE
  5
6A
330
35
100
AcDbEntity
  8
1
  6
Continuous
 62
     7
100
AcDbLine
 10
-78.80516332602008
 20
412.9961913222596
 30
0.0
 11
-76.01093469196019
 21
412.9961913222596
 31
0.0
  0
LINE
  5
6B
330
35
100
AcDbEntity
  8
1
  6
Continuous
 62
     7
100
AcDbLine
 10
-78.80516332602008
 20
412.9961913222596
 30
0.0
 11
-80.01093469196019
 21
408.4961913222596
 31
0.0
  0
LINE
  5
6C
330
35
100
AcDbEntity
  8
1
  6
Continuous
 62
     7
100
AcDbLine
 10
-89.51093469196019
 20
214.9961913222585
 30
0.0
 11
-83.87794556406624
 21
337.1310847890238
 31
0.0
  0
LINE
  5
6D
330
35
100
AcDbEntity
  8
1
  6
Continuous
 62
     7
100
AcDbLine
 10
-80.01093469196019
 20
340.9980956611298
 30
0.0
 11
-80.01093469196019
 21
408.4961913222596
 31
0.0
  0
LINE
  5
6E
330
35
100
AcDbEntity
  8
1
  6
Continuous
 62
     7
100
AcDbLine
 10
92.98906530803981
 20
210.2264953151746
 30
0.0
 11
92.98906530803981
 21
208.9980956611298
 31
0.0
  0
ARC
  5
6F
330
35
100
AcDbEntity
  8
1
  6
Continuous
 62
     7
100
AcDbCircle
 10
87.98906530803981
 20
210.2264953151746
 30
0.0
 40
5.0
100
AcDbArc
 50
0.0
 51
72.54239687627515
  0
ARC
  5
70
330
35
100
AcDbEntity
  8
1
  6
Continuous
 62
     7
100
AcDbCircle
 10
-88.01093469196019
 20
210.2264953151746
 30
0.0
 40
4.999999999999231
100
AcDbArc
 50
107.4576031237249
 51
180.0
  0
ARC
  5
71
330
35
100
AcDbEntity
  8
1
  6
Continuous
 62
     7
100
AcDbCircle
 10
-93.5
 20
207.9980956611298
 30
0.0
 40
1.0
100
AcDbArc
 50
90.0
 51
180.0
  0
ARC
  5
72
330
35
100
AcDbEntity
  8
1
  6
Continuous
 62
     7
100
AcDbCircle
 10
93.49999999999999
 20
207.9980956611298
 30
0.0
 40
1.0
100
AcDbArc
 50
0.0
 51
90.0
  0
ENDBLK
  5
37
330
35
100
AcDbEntity
  8
0
100
AcDbBlockEnd
  0
BLOCK
  5
7B
330
73
100
AcDbEntity
  8
0
100
AcDbBlockBegin
  2
*D03
 70
     1
 71
     0
 10
0.0
 20
0.0
 30
0.0
  3
*D03
  1

  0
LINE
  5
74
330
73
100
AcDbEntity
  8
1
  6
Continuous
 62
     4
100
AcDbLine
 10
-80.01093469196019
 20
425.1082937066867
 30
0.0
 11
79.98906530803981
 21
425.1082937066867
 31
0.0
  0
LINE
  5
75
330
73
100
AcDbEntity
  8
1
  6
Continuous
 62
     4
100
AcDbLine
 10
-80.01093469196019
 20
408.4961913222597
 30
0.0
 11
-80.01093469196019
 21
427.1082937066867
 31
0.0
  0
LINE
  5
76
330
73
100
AcDbEntity
  8
1
  6
Continuous
 62
     4
100
AcDbLine
 10
79.98906530803981
 20
408.4961913222597
 30
0.0
 11
79.98906530803981
 21
427.1082937066867
 31
0.0
  0
SOLID
  5
77
330
73
100
AcDbEntity
  8
1
 62
     4
100
AcDbTrace
 10
-70.01093469196019
 20
426.4248186825607
 30
0.0
 11
-70.01093469196019
 21
423.7917687308128
 31
0.0
 12
-80.01093469196019
 22
425.1082937066867
 32
0.0
 13
-80.01093469196019
 23
425.1082937066867
 33
0.0
  0
SOLID
  5
78
330
73
100
AcDbEntity
  8
1
 62
     4
100
AcDbTrace
 10
69.98906530803981
 20
423.7917687308128
 30
0.0
 11
69.98906530803981
 21
426.4248186825607
 31
0.0
 12
79.98906530803981
 22
425.1082937066867
 32
0.0
 13
79.98906530803981
 23
425.1082937066867
 33
0.0
  0
MTEXT
  5
7A
330
73
100
AcDbEntity
  8
1
 62
     1
100
AcDbMText
 10
-16.28177680545842
 20
427.1082539519649
 30
0.0
 40
10.0
 41
0.0
 71
     7
 72
     1
  1
\C1;DN\C1;160
  7
CONVERTER_1
 11
0.9999999999970621
 21
2.424068405545307E-6
 31
0.0
 73
     1
 44
0.60024009603842
  0
ENDBLK
  5
7C
330
73
100
AcDbEntity
  8
0
100
AcDbBlockEnd
  0
BLOCK
  5
86
330
7F
100
AcDbEntity
  8
0
100
AcDbBlockBegin
  2
*D14
 70
     1
 71
     0
 10
0.0
 20
0.0
 30
0.0
  3
*D14
  1

  0
LINE
  5
80
330
7F
100
AcDbEntity
  8
1
  6
Continuous
 62
     4
100
AcDbLine
 10
-80.01093469196019
 20
-20.97044096548812
 30
0.0
 11
79.98906530803981
 21
-20.97044096548812
 31
0.0
  0
LINE
  5
81
330
7F
100
AcDbEntity
  8
1
  6
Continuous
 62
     4
100
AcDbLine
 10
-80.01093469196019
 20
2.5
 30
0.0
 11
-80.01093469196019
 21
-22.97044096548812
 31
0.0
  0
LINE
  5
82
330
7F
100
AcDbEntity
  8
1
  6
Continuous
 62
     4
100
AcDbLine
 10
79.98906530803981
 20
2.5
 30
0.0
 11
79.98906530803981
 21
-22.97044096548812
 31
0.0
  0
SOLID
  5
83
330
7F
100
AcDbEntity
  8
1
 62
     4
100
AcDbTrace
 10
-70.01093469196019
 20
-19.65391598961416
 30
0.0
 11
-70.01093469196019
 21
-22.28696594136208
 31
0.0
 12
-80.01093469196019
 22
-20.97044096548812
 32
0.0
 13
-80.01093469196019
 23
-20.97044096548812
 33
0.0
  0
SOLID
  5
84
330
7F
100
AcDbEntity
  8
1
 62
     4
100
AcDbTrace
 10
69.98906530803981
 20
-22.28696594136208
 30
0.0
 11
69.98906530803981
 21
-19.65391598961416
 31
0.0
 12
79.98906530803981
 22
-20.97044096548812
 32
0.0
 13
79.98906530803981
 23
-20.97044096548812
 33
0.0
  0
MTEXT
  5
85
330
7F
100
AcDbEntity
  8
1
 62
     1
100
AcDbMText
 10
-17.04533041647168
 20
-18.97048072020997
 30
0.0
 40
10.0
 41
0.0
 71
     7
 72
     1
  1
\C1;DN\C1;160
  7
CONVERTER_1
 11
0.9999999999970621
 21
2.424068405545307E-6
 31
0.0
 73
     1
 44
0.60024009603842
  0
ENDBLK
  5
87
330
7F
100
AcDbEntity
  8
0
100
AcDbBlockEnd
  0
BLOCK
  5
91
330
8A
100
AcDbEntity
  8
0
100
AcDbBlockBegin
  2
*D25
 70
     1
 71
     0
 10
0.0
 20
0.0
 30
0.0
  3
*D25
  1

  0
LINE
  5
8B
330
8A
100
AcDbEntity
  8
1
  6
Continuous
 62
     4
100
AcDbLine
 10
106.6437462372299
 20
412.9961913222596
 30
0.0
 11
106.6437462372299
 21
340.9980956611298
 31
0.0
  0
LINE
  5
8C
330
8A
100
AcDbEntity
  8
1
  6
Continuous
 62
     4
100
AcDbLine
 10
75.98906530803981
 20
412.9961913222596
 30
0.0
 11
108.6437462372299
 21
412.9961913222596
 31
0.0
  0
LINE
  5
8D
330
8A
100
AcDbEntity
  8
1
  6
Continuous
 62
     4
100
AcDbLine
 10
79.98906530803981
 20
340.9980956611298
 30
0.0
 11
108.6437462372299
 21
340.9980956611298
 31
0.0
  0
SOLID
  5
8E
330
8A
100
AcDbEntity
  8
1
 62
     4
100
AcDbTrace
 10
107.9602712131039
 20
402.9961913222596
 30
0.0
 11
105.3272212613559
 21
402.9961913222596
 31
0.0
 12
106.6437462372299
 22
412.9961913222596
 32
0.0
 13
106.6437462372299
 23
412.9961913222596
 33
0.0
  0
SOLID
  5
8F
330
8A
100
AcDbEntity
  8
1
 62
     4
100
AcDbTrace
 10
105.3272212613559
 20
350.9980956611298
 30
0.0
 11
107.9602712131039
 21
350.9980956611298
 31
0.0
 12
106.6437462372299
 22
340.9980956611298
 32
0.0
 13
106.6437462372299
 23
340.9980956611298
 33
0.0
  0
MTEXT
  5
90
330
8A
100
AcDbEntity
  8
1
 62
     1
100
AcDbMText
 10
104.6437462372299
 20
365.8146656586656
 30
0.0
 40
10.0
 41
0.0
 71
     7
 72
     1
  1
72
  7
CONVERTER_1
 11
0.0
 21
1.0
 31
0.0
 73
     1
 44
0.60024009603842
  0
ENDBLK
  5
92
330
8A
100
AcDbEntity
  8
0
100
AcDbBlockEnd
  0
BLOCK
  5
9C
330
95
100
AcDbEntity
  8
0
100
AcDbBlockBegin
  2
*D36
 70
     1
 71
     0
 10
0.0
 20
0.0
 30
0.0
  3
*D36
  1

  0
LINE
  5
96
330
95
100
AcDbEntity
  8
1
  6
Continuous
 62
     4
100
AcDbLine
 10
106.6437462372299
 20
-2.0
 30
0.0
 11
106.6437462372299
 21
69.99809566112981
 31
0.0
  0
LINE
  5
97
330
95
100
AcDbEntity
  8
1
  6
Continuous
 62
     4
100
AcDbLine
 10
75.98906530803981
 20
-2.0
 30
0.0
 11
108.6437462372299
 21
-2.0
 31
0.0
  0
LINE
  5
98
330
95
100
AcDbEntity
  8
1
  6
Continuous
 62
     4
100
AcDbLine
 10
79.98906530803981
 20
69.99809566112981
 30
0.0
 11
108.6437462372299
 21
69.99809566112981
 31
0.0
  0
SOLID
  5
99
330
95
100
AcDbEntity
  8
1
 62
     4
100
AcDbTrace
 10
105.3272212613559
 20
8.0
 30
0.0
 11
107.9602712131039
 21
8.0
 31
0.0
 12
106.6437462372299
 22
-2.0
 32
0.0
 13
106.6437462372299
 23
-2.0
 33
0.0
  0
SOLID
  5
9A
330
95
100
AcDbEntity
  8
1
 62
     4
100
AcDbTrace
 10
107.9602712131039
 20
59.99809566112981
 30
0.0
 11
105.3272212613559
 21
59.99809566112981
 31
0.0
 12
106.6437462372299
 22
69.99809566112981
 32
0.0
 13
106.6437462372299
 23
69.99809566112981
 33
0.0
  0
MTEXT
  5
9B
330
95
100
AcDbEntity
  8
1
 62
     1
100
AcDbMText
 10
104.6437462372299
 20
28.1605437503735
 30
0.0
 40
10.0
 41
0.0
 71
     7
 72
     1
  1
72
  7
CONVERTER_1
 11
0.0
 21
1.0
 31
0.0
 73
     1
 44
0.60024009603842
  0
ENDBLK
  5
9D
330
95
100
AcDbEntity
  8
0
100
AcDbBlockEnd
  0
BLOCK
  5
A7
330
A0
100
AcDbEntity
  8
0
100
AcDbBlockBegin
  2
*D47
 70
     1
 71
     0
 10
0.0
 20
0.0
 30
0.0
  3
*D47
  1

  0
LINE
  5
A1
330
A0
100
AcDbEntity
  8
1
  6
Continuous
 62
     4
100
AcDbLine
 10
121.6437462372299
 20
-2.0
 30
0.0
 11
121.6437462372299
 21
412.9961913222596
 31
0.0
  0
LINE
  5
A2
330
A0
100
AcDbEntity
  8
1
  6
Continuous
 62
     4
100
AcDbLine
 10
75.98906530803981
 20
-2.0
 30
0.0
 11
123.6437462372299
 21
-2.0
 31
0.0
  0
LINE
  5
A3
330
A0
100
AcDbEntity
  8
1
  6
Continuous
 62
     4
100
AcDbLine
 10
75.98906530803981
 20
412.9961913222596
 30
0.0
 11
123.6437462372299
 21
412.9961913222596
 31
0.0
  0
SOLID
  5
A4
330
A0
100
AcDbEntity
  8
1
 62
     4
100
AcDbTrace
 10
120.3272212613559
 20
8.0
 30
0.0
 11
122.9602712131039
 21
8.0
 31
0.0
 12
121.6437462372299
 22
-2.0
 32
0.0
 13
121.6437462372299
 23
-2.0
 33
0.0
  0
SOLID
  5
A5
330
A0
100
AcDbEntity
  8
1
 62
     4
100
AcDbTrace
 10
122.9602712131039
 20
402.9961913222596
 30
0.0
 11
120.3272212613559
 21
402.9961913222596
 31
0.0
 12
121.6437462372299
 22
412.9961913222596
 32
0.0
 13
121.6437462372299
 23
412.9961913222596
 33
0.0
  0
MTEXT
  5
A6
330
A0
100
AcDbEntity
  8
1
 62
     1
100
AcDbMText
 10
119.6437462372299
 20
194.9980956611298
 30
0.0
 40
10.0
 41
0.0
 71
     7
 72
     1
  1
415
  7
CONVERTER_1
 11
0.0
 21
1.0
 31
0.0
 73
     1
 44
0.60024009603842
  0
ENDBLK
  5
A8
330
A0
100
AcDbEntity
  8
0
100
AcDbBlockEnd
  0
ENDSEC
  0
SECTION
  2
ENTITIES
  0
INSERT
  5
38
330
1F
100
AcDbEntity
  8
1
100
AcDbBlockReference
  2
HL_606_5_K_rper__1
 10
-0.01093469196019
 20
2.66500000000011
 30
0.0
  0
INSERT
  5
39
330
1F
100
AcDbEntity
  8
1
100
AcDbBlockReference
  2
HL_606_5_K_rper__2
 10
-0.01093469196019
 20
421.3304088139859
 30
0.0
  0
DIMENSION
  5
7E
330
1F
100
AcDbEntity
  8
1
100
AcDbDimension
  2
*D03
 10
-80.01093469196019
 20
425.1082937066867
 30
0.0
 11
-0.3817768055066
 21
432.1082937066867
 31
0.0
 70
    32
  1
<>
 71
     5
 42
-1.0
 53
0.00013888888889
  3
ME10_DIM_0
100
AcDbAlignedDimension
 13
79.98906530803981
 23
408.4961913222596
 33
0.0
 14
-80.01093469196019
 24
408.4961913222596
 34
0.0
 50
-0.00000000000001
100
AcDbRotatedDimension
  0
DIMENSION
  5
89
330
1F
100
AcDbEntity
  8
1
100
AcDbDimension
  2
*D14
 10
-80.01093469196019
 20
-20.97044096548812
 30
0.0
 11
-1.14533041651987
 21
-13.97044096548812
 31
0.0
 70
    32
  1
<>
 71
     5
 42
-1.0
 53
0.00013888888889
  3
ME10_DIM_1
100
AcDbAlignedDimension
 13
79.98906530803981
 23
2.5
 33
0.0
 14
-80.01093469196019
 24
2.5
 34
0.0
 50
-0.00000000000001
100
AcDbRotatedDimension
  0
DIMENSION
  5
94
330
1F
100
AcDbEntity
  8
1
100
AcDbDimension
  2
*D25
 10
106.6437462372299
 20
412.9961913222596
 30
0.0
 11
99.64374623722989
 21
373.3146656586656
 31
0.0
 70
    32
  1
<>
 71
     5
 42
-1.0
 53
89.99999999999999
  3
ME10_DIM_2
100
AcDbAlignedDimension
 13
79.98906530803981
 23
340.9980956611298
 33
0.0
 14
75.98906530803981
 24
412.9961913222596
 34
0.0
 50
89.99999999999999
100
AcDbRotatedDimension
  0
DIMENSION
  5
9F
330
1F
100
AcDbEntity
  8
1
100
AcDbDimension
  2
*D36
 10
106.6437462372299
 20
-2.0
 30
0.0
 11
99.64374623722991
 21
35.6605437503735
 31
0.0
 70
    32
  1
<>
 71
     5
 42
-1.0
 53
89.99999999999999
  3
ME10_DIM_3
100
AcDbAlignedDimension
 13
79.98906530803981
 23
69.99809566112981
 33
0.0
 14
75.98906530803981
 24
-2.0
 34
0.0
 50
89.99999999999999
100
AcDbRotatedDimension
  0
DIMENSION
  5
AA
330
1F
100
AcDbEntity
  8
1
100
AcDbDimension
  2
*D47
 10
121.6437462372299
 20
-2.0
 30
0.0
 11
114.6437462372299
 21
205.4980956611298
 31
0.0
 70
    32
  1
<>
 71
     5
 42
-1.0
 53
89.99999999999999
  3
ME10_DIM_4
100
AcDbAlignedDimension
 13
75.98906530803981
 23
412.9961913222596
 33
0.0
 14
75.98906530803981
 24
-2.0
 34
0.0
 50
89.99999999999999
100
AcDbRotatedDimension
  0
ENDSEC
  0
SECTION
  2
OBJECTS
  0
DICTIONARY
  5
C
330
0
100
AcDbDictionary
281
     1
  3
ACAD_GROUP
350
D
  3
ACAD_LAYOUT
350
1A
  3
ACAD_MLINESTYLE
350
17
  3
ACAD_PLOTSETTINGS
350
19
  3
ACAD_PLOTSTYLENAME
350
E
  0
DICTIONARY
  5
D
102
{ACAD_REACTORS
330
C
102
}
330
C
100
AcDbDictionary
281
     1
  0
DICTIONARY
  5
1A
102
{ACAD_REACTORS
330
C
102
}
330
C
100
AcDbDictionary
281
     1
  3
Layout1
350
1E
  3
Layout2
350
26
  3
Model
350
22
  0
DICTIONARY
  5
17
102
{ACAD_REACTORS
330
C
102
}
330
C
100
AcDbDictionary
281
     1
  3
Standard
350
18
  0
DICTIONARY
  5
19
102
{ACAD_REACTORS
330
C
102
}
330
C
100
AcDbDictionary
281
     1
  0
ACDBDICTIONARYWDFLT
  5
E
102
{ACAD_REACTORS
330
C
102
}
330
C
100
AcDbDictionary
281
     1
  3
Normal
350
F
100
AcDbDictionaryWithDefault
340
F
  0
LAYOUT
  5
1E
102
{ACAD_REACTORS
330
1A
102
}
330
1A
100
AcDbPlotSettings
  1

  2

  4

  6

 40
0.0
 41
0.0
 42
0.0
 43
0.0
 44
0.0
 45
0.0
 46
0.0
 47
0.0
 48
0.0
 49
0.0
140
0.0
141
0.0
142
1.0
143
1.0
 70
   688
 72
     0
 73
     0
 74
     5
  7

 75
    16
147
1.0
148
0.0
149
0.0
100
AcDbLayout
  1
Layout1
 70
     1
 71
     1
 10
0.0
 20
0.0
 11
0.0
 21
0.0
 12
0.0
 22
0.0
 32
0.0
 14
0.0
 24
0.0
 34
0.0
 15
0.0
 25
0.0
 35
0.0
146
0.0
 13
0.0
 23
0.0
 33
0.0
 16
1.0
 26
0.0
 36
0.0
 17
0.0
 27
1.0
 37
0.0
 76
     0
330
1B
  0
LAYOUT
  5
26
102
{ACAD_REACTORS
330
1A
102
}
330
1A
100
AcDbPlotSettings
  1

  2

  4

  6

 40
0.0
 41
0.0
 42
0.0
 43
0.0
 44
0.0
 45
0.0
 46
0.0
 47
0.0
 48
0.0
 49
0.0
140
0.0
141
0.0
142
1.0
143
1.0
 70
   688
 72
     0
 73
     0
 74
     5
  7

 75
    16
147
1.0
148
0.0
149
0.0
100
AcDbLayout
  1
Layout2
 70
     1
 71
     2
 10
0.0
 20
0.0
 11
0.0
 21
0.0
 12
0.0
 22
0.0
 32
0.0
 14
0.0
 24
0.0
 34
0.0
 15
0.0
 25
0.0
 35
0.0
146
0.0
 13
0.0
 23
0.0
 33
0.0
 16
1.0
 26
0.0
 36
0.0
 17
0.0
 27
1.0
 37
0.0
 76
     0
330
23
  0
LAYOUT
  5
22
102
{ACAD_REACTORS
330
1A
102
}
330
1A
100
AcDbPlotSettings
  1

  2

  4

  6

 40
0.0
 41
0.0
 42
0.0
 43
0.0
 44
0.0
 45
0.0
 46
0.0
 47
0.0
 48
0.0
 49
0.0
140
0.0
141
0.0
142
1.0
143
1.0
 70
  1712
 72
     0
 73
     0
 74
     0
  7

 75
     0
147
1.0
148
0.0
149
0.0
100
AcDbLayout
  1
Model
 70
     1
 71
     0
 10
0.0
 20
0.0
 11
0.0
 21
0.0
 12
0.0
 22
0.0
 32
0.0
 14
-94.5
 24
-22.97044096548812
 34
0.0
 15
123.6437462372299
 25
437.1082937066867
 35
0.0
146
0.0
 13
0.0
 23
0.0
 33
0.0
 16
1.0
 26
0.0
 36
0.0
 17
0.0
 27
1.0
 37
0.0
 76
     0
330
1F
  0
MLINESTYLE
  5
18
102
{ACAD_REACTORS
330
17
102
}
330
17
100
AcDbMlineStyle
  2
Standard
 70
     0
  3

 62
   256
 51
90.0
 52
90.0
 71
     2
 49
0.5
 62
   256
  6
BYLAYER
 49
-0.5
 62
   256
  6
BYLAYER
  0
ACDBPLACEHOLDER
  5
F
102
{ACAD_REACTORS
330
E
102
}
330
E
  0
ENDSEC
  0
EOF
