  0
SECTION
  2
HEADER
  9
$ACADVER
  1
AC1032
  9
$ACADMAINTVER
 90
       55
  9
$DWGCODEPAGE
  3
ANSI_1252
  9
$LASTSAVEDBY
  1
SYSTEM
  9
$REQUIREDVERSIONS
160
                 0
  9
$INSBASE
 10
0.0
 20
0.0
 30
0.0
  9
$EXTMIN
 10
-448.904277192498
 20
215.25
 30
0.0
  9
$EXTMAX
 10
-263.644737672287
 20
655.771808763604
 30
0.0
  9
$LIMMIN
 10
0.0
 20
0.0
  9
$LIMMAX
 10
12.0
 20
9.0
  9
$ORTHOMODE
 70
     0
  9
$REGENMODE
 70
     1
  9
$FILLMODE
 70
     1
  9
$QTEXTMODE
 70
     0
  9
$MIRRTEXT
 70
     1
  9
$LTSCALE
 40
1.0
  9
$ATTMODE
 70
     1
  9
$TEXTSIZE
 40
0.2
  9
$TRACEWID
 40
0.05
  9
$TEXTSTYLE
  7
Standard
  9
$CLAYER
  8
0
  9
$CELTYPE
  6
ByLayer
  9
$CECOLOR
 62
   256
  9
$CELTSCALE
 40
1.0
  9
$DISPSILH
 70
     0
  9
$DIMSCALE
 40
1.0
  9
$DIMASZ
 40
0.18
  9
$DIMEXO
 40
0.0625
  9
$DIMDLI
 40
0.38
  9
$DIMRND
 40
0.0
  9
$DIMDLE
 40
0.0
  9
$DIMEXE
 40
0.18
  9
$DIMTP
 40
0.0
  9
$DIMTM
 40
0.0
  9
$DIMTXT
 40
0.18
  9
$DIMCEN
 40
0.09
  9
$DIMTSZ
 40
0.0
  9
$DIMTOL
 70
     0
  9
$DIMLIM
 70
     0
  9
$DIMTIH
 70
     1
  9
$DIMTOH
 70
     1
  9
$DIMSE1
 70
     0
  9
$DIMSE2
 70
     0
  9
$DIMTAD
 70
     0
  9
$DIMZIN
 70
     0
  9
$DIMBLK
  1

  9
$DIMASO
 70
     1
  9
$DIMSHO
 70
     1
  9
$DIMPOST
  1

  9
$DIMAPOST
  1

  9
$DIMALT
 70
     0
  9
$DIMALTD
 70
     2
  9
$DIMALTF
 40
25.4
  9
$DIMLFAC
 40
1.0
  9
$DIMTOFL
 70
     0
  9
$DIMTVP
 40
0.0
  9
$DIMTIX
 70
     0
  9
$DIMSOXD
 70
     0
  9
$DIMSAH
 70
     0
  9
$DIMBLK1
  1

  9
$DIMBLK2
  1

  9
$DIMSTYLE
  2
Standard
  9
$DIMCLRD
 70
     0
  9
$DIMCLRE
 70
     0
  9
$DIMCLRT
 70
     0
  9
$DIMTFAC
 40
1.0
  9
$DIMGAP
 40
0.09
  9
$DIMJUST
 70
     0
  9
$DIMSD1
 70
     0
  9
$DIMSD2
 70
     0
  9
$DIMTOLJ
 70
     1
  9
$DIMTZIN
 70
     0
  9
$DIMALTZ
 70
     0
  9
$DIMALTTZ
 70
     0
  9
$DIMUPT
 70
     0
  9
$DIMDEC
 70
     4
  9
$DIMTDEC
 70
     4
  9
$DIMALTU
 70
     2
  9
$DIMALTTD
 70
     2
  9
$DIMTXSTY
  7
Standard
  9
$DIMAUNIT
 70
     0
  9
$DIMADEC
 70
     0
  9
$DIMALTRND
 40
0.0
  9
$DIMAZIN
 70
     0
  9
$DIMDSEP
 70
    46
  9
$DIMATFIT
 70
     3
  9
$DIMFRAC
 70
     0
  9
$DIMLDRBLK
  1

  9
$DIMLUNIT
 70
     2
  9
$DIMLWD
 70
    -2
  9
$DIMLWE
 70
    -2
  9
$DIMTMOVE
 70
     0
  9
$DIMFXL
 40
1.0
  9
$DIMFXLON
 70
     0
  9
$DIMJOGANG
 40
0.78539816339745
  9
$DIMTFILL
 70
     0
  9
$DIMTFILLCLR
 70
     0
  9
$DIMARCSYM
 70
     0
  9
$DIMLTYPE
  6

  9
$DIMLTEX1
  6

  9
$DIMLTEX2
  6

  9
$DIMTXTDIRECTION
 70
     0
  9
$LUNITS
 70
     2
  9
$LUPREC
 70
     4
  9
$SKETCHINC
 40
0.1
  9
$FILLETRAD
 40
0.0
  9
$AUNITS
 70
     0
  9
$AUPREC
 70
     0
  9
$MENU
  1
.
  9
$ELEVATION
 40
0.0
  9
$PELEVATION
 40
0.0
  9
$THICKNESS
 40
0.0
  9
$LIMCHECK
 70
     0
  9
$CHAMFERA
 40
0.0
  9
$CHAMFERB
 40
0.0
  9
$CHAMFERC
 40
0.0
  9
$CHAMFERD
 40
0.0
  9
$SKPOLY
 70
     0
  9
$TDCREATE
 40
2460480.337691018
  9
$TDUCREATE
 40
2460480.254357685
  9
$TDUPDATE
 40
2460480.337691111
  9
$TDUUPDATE
 40
2460480.254357778
  9
$TDINDWG
 40
0.0000000116
  9
$TDUSRTIMER
 40
0.0000000116
  9
$USRTIMER
 70
     1
  9
$ANGBASE
 50
0.0
  9
$ANGDIR
 70
     0
  9
$PDMODE
 70
     0
  9
$PDSIZE
 40
0.0
  9
$PLINEWID
 40
0.0
  9
$SPLFRAME
 70
     0
  9
$SPLINETYPE
 70
     6
  9
$SPLINESEGS
 70
     8
  9
$HANDSEED
  5
2D4
  9
$SURFTAB1
 70
     6
  9
$SURFTAB2
 70
     6
  9
$SURFTYPE
 70
     6
  9
$SURFU
 70
     6
  9
$SURFV
 70
     6
  9
$UCSBASE
  2

  9
$UCSNAME
  2

  9
$UCSORG
 10
0.0
 20
0.0
 30
0.0
  9
$UCSXDIR
 10
1.0
 20
0.0
 30
0.0
  9
$UCSYDIR
 10
0.0
 20
1.0
 30
0.0
  9
$UCSORTHOREF
  2

  9
$UCSORTHOVIEW
 70
     0
  9
$UCSORGTOP
 10
0.0
 20
0.0
 30
0.0
  9
$UCSORGBOTTOM
 10
0.0
 20
0.0
 30
0.0
  9
$UCSORGLEFT
 10
0.0
 20
0.0
 30
0.0
  9
$UCSORGRIGHT
 10
0.0
 20
0.0
 30
0.0
  9
$UCSORGFRONT
 10
0.0
 20
0.0
 30
0.0
  9
$UCSORGBACK
 10
0.0
 20
0.0
 30
0.0
  9
$PUCSBASE
  2

  9
$PUCSNAME
  2

  9
$PUCSORG
 10
0.0
 20
0.0
 30
0.0
  9
$PUCSXDIR
 10
1.0
 20
0.0
 30
0.0
  9
$PUCSYDIR
 10
0.0
 20
1.0
 30
0.0
  9
$PUCSORTHOREF
  2

  9
$PUCSORTHOVIEW
 70
     0
  9
$PUCSORGTOP
 10
0.0
 20
0.0
 30
0.0
  9
$PUCSORGBOTTOM
 10
0.0
 20
0.0
 30
0.0
  9
$PUCSORGLEFT
 10
0.0
 20
0.0
 30
0.0
  9
$PUCSORGRIGHT
 10
0.0
 20
0.0
 30
0.0
  9
$PUCSORGFRONT
 10
0.0
 20
0.0
 30
0.0
  9
$PUCSORGBACK
 10
0.0
 20
0.0
 30
0.0
  9
$USERI1
 70
     0
  9
$USERI2
 70
     0
  9
$USERI3
 70
     0
  9
$USERI4
 70
     0
  9
$USERI5
 70
     0
  9
$USERR1
 40
20.7
  9
$USERR2
 40
0.0
  9
$USERR3
 40
0.0
  9
$USERR4
 40
0.0
  9
$USERR5
 40
0.0
  9
$WORLDVIEW
 70
     1
  9
$SHADEDGE
 70
     3
  9
$SHADEDIF
 70
    70
  9
$TILEMODE
 70
     1
  9
$MAXACTVP
 70
    64
  9
$PINSBASE
 10
0.0
 20
0.0
 30
0.0
  9
$PLIMCHECK
 70
     0
  9
$PEXTMIN
 10
1.00000000000000E+20
 20
1.00000000000000E+20
 30
1.00000000000000E+20
  9
$PEXTMAX
 10
-1.00000000000000E+20
 20
-1.00000000000000E+20
 30
-1.00000000000000E+20
  9
$PLIMMIN
 10
0.0
 20
0.0
  9
$PLIMMAX
 10
12.0
 20
9.0
  9
$UNITMODE
 70
     0
  9
$VISRETAIN
 70
     1
  9
$PLINEGEN
 70
     0
  9
$PSLTSCALE
 70
     1
  9
$TREEDEPTH
 70
  3020
  9
$CMLSTYLE
  2
Standard
  9
$CMLJUST
 70
     0
  9
$CMLSCALE
 40
1.0
  9
$PROXYGRAPHICS
 70
     1
  9
$MEASUREMENT
 70
     1
  9
$CELWEIGHT
370
    -1
  9
$ENDCAPS
280
     0
  9
$JOINSTYLE
280
     0
  9
$LWDISPLAY
290
     0
  9
$INSUNITS
 70
     4
  9
$HYPERLINKBASE
  1

  9
$STYLESHEET
  1

  9
$XEDIT
290
     1
  9
$CEPSNTYPE
380
     0
  9
$PSTYLEMODE
290
     1
  9
$FINGERPRINTGUID
  2
{8f45d53c-5158-4f9b-8887-28a0b395d3e0}
  9
$VERSIONGUID
  2
{FAEB1C32-E019-11D5-929B-00C0DF256EC4}
  9
$EXTNAMES
290
     1
  9
$PSVPSCALE
 40
0.0
  9
$OLESTARTUP
290
     0
  9
$SORTENTS
280
   127
  9
$INDEXCTL
280
     0
  9
$HIDETEXT
280
     1
  9
$XCLIPFRAME
280
     2
  9
$HALOGAP
280
     0
  9
$OBSCOLOR
 70
   257
  9
$OBSLTYPE
280
     0
  9
$INTERSECTIONDISPLAY
280
     0
  9
$INTERSECTIONCOLOR
 70
   257
  9
$DIMASSOC
280
     2
  9
$PROJECTNAME
  1

  9
$CAMERADISPLAY
290
     0
  9
$LENSLENGTH
 40
50.0
  9
$CAMERAHEIGHT
 40
0.0
  9
$STEPSPERSEC
 40
2.0
  9
$STEPSIZE
 40
6.0
  9
$3DDWFPREC
 40
2.0
  9
$PSOLWIDTH
 40
0.25
  9
$PSOLHEIGHT
 40
4.0
  9
$LOFTANG1
 40
1.5707963267949
  9
$LOFTANG2
 40
1.5707963267949
  9
$LOFTMAG1
 40
0.0
  9
$LOFTMAG2
 40
0.0
  9
$LOFTPARAM
 70
     7
  9
$LOFTNORMALS
280
     1
  9
$LATITUDE
 40
37.795
  9
$LONGITUDE
 40
-122.394
  9
$NORTHDIRECTION
 40
0.0
  9
$TIMEZONE
 70
 -8000
  9
$LIGHTGLYPHDISPLAY
280
     1
  9
$TILEMODELIGHTSYNCH
280
     1
  9
$CMATERIAL
347
44
  9
$SOLIDHIST
280
     0
  9
$SHOWHIST
280
     1
  9
$DWFFRAME
280
     2
  9
$DGNFRAME
280
     2
  9
$REALWORLDSCALE
290
     1
  9
$INTERFERECOLOR
 62
   256
  9
$CSHADOW
280
     0
  9
$SHADOWPLANELOCATION
 40
0.0
  0
ENDSEC
  0
SECTION
  2
CLASSES
  0
CLASS
  1
ACDBDICTIONARYWDFLT
  2
AcDbDictionaryWithDefault
  3
ObjectDBX Classes
 90
        0
 91
        3
280
     0
281
     0
  0
CLASS
  1
VISUALSTYLE
  2
AcDbVisualStyle
  3
ObjectDBX Classes
 90
     4095
 91
        3
280
     0
281
     0
  0
CLASS
  1
MATERIAL
  2
AcDbMaterial
  3
ObjectDBX Classes
 90
     1153
 91
        3
280
     0
281
     0
  0
CLASS
  1
SCALE
  2
AcDbScale
  3
ObjectDBX Classes
 90
     1153
 91
        3
280
     0
281
     0
  0
CLASS
  1
TABLESTYLE
  2
AcDbTableStyle
  3
ObjectDBX Classes
 90
     4095
 91
        3
280
     0
281
     0
  0
CLASS
  1
MLEADERSTYLE
  2
AcDbMLeaderStyle
  3
ACDB_MLEADERSTYLE_CLASS
 90
     4095
 91
        3
280
     0
281
     0
  0
CLASS
  1
SUN
  2
AcDbSun
  3
SCENEOE
 90
     1153
 91
        3
280
     0
281
     0
  0
CLASS
  1
DICTIONARYVAR
  2
AcDbDictionaryVar
  3
ObjectDBX Classes
 90
        0
 91
        3
280
     0
281
     0
  0
CLASS
  1
CELLSTYLEMAP
  2
AcDbCellStyleMap
  3
ObjectDBX Classes
 90
     1152
 91
        3
280
     0
281
     0
  0
ENDSEC
  0
SECTION
  2
TABLES
  0
TABLE
  2
VPORT
  5
8
330
0
100
AcDbSymbolTable
 70
     1
  0
VPORT
  5
29
330
8
100
AcDbSymbolTableRecord
100
AcDbViewportTableRecord
  2
*Active
 70
     0
 10
0.0
 20
0.0
 11
1.0
 21
1.0
 12
-356.2745074323925
 22
435.510904381802
 13
0.0
 23
0.0
 14
0.5
 24
0.5
 15
0.5
 25
0.5
 16
0.0
 26
0.0
 36
1.0
 17
0.0
 27
0.0
 37
0.0
 40
484.5739896399644
 41
1.60267857142857
 42
50.0
 43
0.0
 44
0.0
 50
0.0
 51
0.0
 71
     0
 72
   100
 73
     1
 74
     3
 75
     0
 76
     0
 77
     0
 78
     0
281
     0
 65
     1
110
0.0
120
0.0
130
0.0
111
1.0
121
0.0
131
0.0
112
0.0
122
1.0
132
0.0
 79
     0
146
0.0
348
2F
 60
     3
 61
     5
292
     1
282
     1
141
0.0
142
0.0
 63
   250
361
5D
  0
ENDTAB
  0
TABLE
  2
LTYPE
  5
5
330
0
100
AcDbSymbolTable
 70
     8
  0
LTYPE
  5
14
330
5
100
AcDbSymbolTableRecord
100
AcDbLinetypeTableRecord
  2
ByBlock
 70
     0
  3

 72
    65
 73
     0
 40
0.0
  0
LTYPE
  5
15
330
5
100
AcDbSymbolTableRecord
100
AcDbLinetypeTableRecord
  2
ByLayer
 70
     0
  3

 72
    65
 73
     0
 40
0.0
  0
LTYPE
  5
16
330
5
100
AcDbSymbolTableRecord
100
AcDbLinetypeTableRecord
  2
Continuous
 70
     0
  3
Solid line
 72
    65
 73
     0
 40
0.0
  0
LTYPE
  5
5E
330
5
100
AcDbSymbolTableRecord
100
AcDbLinetypeTableRecord
  2
DASHED
 70
     0
  3
Dashed
 72
    65
 73
     2
 40
15.0
 49
7.0
 74
     0
 49
-8.0
 74
     0
  0
LTYPE
  5
5F
330
5
100
AcDbSymbolTableRecord
100
AcDbLinetypeTableRecord
  2
DOTTED
 70
     0
  3
Dotted
 72
    65
 73
     2
 40
1.0
 49
0.0
 74
     0
 49
-1.0
 74
     0
  0
LTYPE
  5
60
330
5
100
AcDbSymbolTableRecord
100
AcDbLinetypeTableRecord
  2
DOT_CENTER
 70
     0
  3
Dot_Center
 72
    65
 73
     4
 40
14.0
 49
12.0
 74
     0
 49
-1.0
 74
     0
 49
0.0
 74
     0
 49
-1.0
 74
     0
  0
LTYPE
  5
61
330
5
100
AcDbSymbolTableRecord
100
AcDbLinetypeTableRecord
  2
LONG_DASHED
 70
     0
  3
Long_Dashed
 72
    65
 73
     2
 40
15.0
 49
10.0
 74
     0
 49
-5.0
 74
     0
  0
LTYPE
  5
62
330
5
100
AcDbSymbolTableRecord
100
AcDbLinetypeTableRecord
  2
DASH_CENTER
 70
     0
  3
Dash_Center
 72
    65
 73
     4
 40
14.0
 49
11.0
 74
     0
 49
-1.0
 74
     0
 49
1.0
 74
     0
 49
-1.0
 74
     0
  0
LTYPE
  5
63
330
5
100
AcDbSymbolTableRecord
100
AcDbLinetypeTableRecord
  2
PHANTOM
 70
     0
  3
Phantom
 72
    65
 73
     6
 40
13.0
 49
10.0
 74
     0
 49
-1.0
 74
     0
 49
0.0
 74
     0
 49
-1.0
 74
     0
 49
0.0
 74
     0
 49
-1.0
 74
     0
  0
LTYPE
  5
64
330
5
100
AcDbSymbolTableRecord
100
AcDbLinetypeTableRecord
  2
CENTER_DASH_DASH
 70
     0
  3
Center_Dash_Dash
 72
    65
 73
     6
 40
14.0
 49
9.0
 74
     0
 49
-1.0
 74
     0
 49
1.0
 74
     0
 49
-1.0
 74
     0
 49
1.0
 74
     0
 49
-1.0
 74
     0
  0
ENDTAB
  0
TABLE
  2
LAYER
  5
2
330
0
100
AcDbSymbolTable
 70
     2
  0
LAYER
  5
10
330
2
100
AcDbSymbolTableRecord
100
AcDbLayerTableRecord
  2
0
 70
     0
 62
     7
  6
Continuous
370
    -3
390
F
347
46
348
0
  0
LAYER
  5
65
330
2
100
AcDbSymbolTableRecord
100
AcDbLayerTableRecord
  2
1
 70
     0
 62
     7
  6
Continuous
370
    -3
390
F
347
46
348
0
  0
ENDTAB
  0
TABLE
  2
STYLE
  5
3
330
0
100
AcDbSymbolTable
 70
     2
  0
STYLE
  5
11
330
3
100
AcDbSymbolTableRecord
100
AcDbTextStyleTableRecord
  2
Standard
 70
     0
 40
0.0
 41
1.0
 50
0.0
 71
     0
 42
0.2
  3
txt
  4

  0
STYLE
  5
10F
330
3
100
AcDbSymbolTableRecord
100
AcDbTextStyleTableRecord
  2
CONVERTER_11
 70
     0
 40
0.0
 41
0.9
 50
0.0
 71
     0
 42
0.2
  3
txt.shx
  4

  0
ENDTAB
  0
TABLE
  2
VIEW
  5
6
330
0
100
AcDbSymbolTable
 70
     0
  0
ENDTAB
  0
TABLE
  2
UCS
  5
7
330
0
100
AcDbSymbolTable
 70
     0
  0
ENDTAB
  0
TABLE
  2
APPID
  5
9
330
0
100
AcDbSymbolTable
 70
     1
  0
APPID
  5
12
330
9
100
AcDbSymbolTableRecord
100
AcDbRegAppTableRecord
  2
ACAD
 70
     0
  0
ENDTAB
  0
TABLE
  2
DIMSTYLE
  5
A
330
0
100
AcDbSymbolTable
 70
     5
100
AcDbDimStyleTable
  0
DIMSTYLE
105
27
330
A
100
AcDbSymbolTableRecord
100
AcDbDimStyleTableRecord
  2
Standard
 70
     0
178
     0
340
11
  0
DIMSTYLE
105
11A
102
{ACAD_REACTORS
330
11B
102
}
330
A
100
AcDbSymbolTableRecord
100
AcDbDimStyleTableRecord
  2
ME10_DIM_10
 70
     0
  3
 {\Fgdt;n}<>
 41
5.0
 42
0.0
 44
2.0
 73
     0
 74
     0
 77
     1
 78
     8
140
5.0
147
2.0
172
     1
173
     1
174
     1
175
     1
176
     4
177
     4
271
     2
178
     1
271
     2
340
10F
  0
DIMSTYLE
105
125
102
{ACAD_REACTORS
330
126
102
}
330
A
100
AcDbSymbolTableRecord
100
AcDbDimStyleTableRecord
  2
ME10_DIM_11
 70
     0
 41
5.0
 42
0.0
 44
2.0
 73
     0
 74
     0
 77
     1
 78
     8
140
5.0
147
2.0
172
     1
173
     1
174
     1
175
     1
176
     4
177
     4
271
     0
178
     1
271
     0
340
10F
  0
DIMSTYLE
105
131
102
{ACAD_REACTORS
330
132
102
}
330
A
100
AcDbSymbolTableRecord
100
AcDbDimStyleTableRecord
  2
ME10_DIM_12
 70
     0
 41
5.0
 42
0.0
 44
2.0
 73
     0
 74
     0
 77
     1
 78
     8
140
5.0
147
2.0
172
     1
173
     1
174
     1
175
     1
176
     4
177
     4
271
     0
178
     1
271
     0
340
10F
  0
DIMSTYLE
105
13C
102
{ACAD_REACTORS
330
13D
102
}
330
A
100
AcDbSymbolTableRecord
100
AcDbDimStyleTableRecord
  2
ME10_DIM_13
 70
     0
  3
x150
 41
5.0
 42
0.0
 44
2.0
 73
     0
 74
     0
 77
     1
 78
     8
140
5.0
147
2.0
172
     1
173
     1
174
     1
175
     1
176
     4
177
     4
271
     2
178
     1
271
     2
340
10F
  0
ENDTAB
  0
TABLE
  2
BLOCK_RECORD
  5
1
330
0
100
AcDbSymbolTable
 70
    20
  0
BLOCK_RECORD
  5
1F
330
1
100
AcDbSymbolTableRecord
100
AcDbBlockTableRecord
  2
*Model_Space
340
22
 70
     0
280
     1
281
     0
  0
BLOCK_RECORD
  5
1B
330
1
100
AcDbSymbolTableRecord
100
AcDbBlockTableRecord
  2
*Paper_Space
340
1E
 70
     0
280
     1
281
     0
  0
BLOCK_RECORD
  5
23
330
1
100
AcDbSymbolTableRecord
100
AcDbBlockTableRecord
  2
*Paper_Space0
340
26
 70
     0
280
     1
281
     0
  0
BLOCK_RECORD
  5
66
330
1
100
AcDbSymbolTableRecord
100
AcDbBlockTableRecord
  2
395550955__1
340
0
102
{BLKREFS
331
73
102
}
 70
     0
280
     1
281
     0
  0
BLOCK_RECORD
  5
69
330
1
100
AcDbSymbolTableRecord
100
AcDbBlockTableRecord
  2
385490217
340
0
102
{BLKREFS
331
74
102
}
 70
     0
280
     1
281
     0
  0
BLOCK_RECORD
  5
6C
330
1
100
AcDbSymbolTableRecord
100
AcDbBlockTableRecord
  2
385490217_1
340
0
102
{BLKREFS
331
75
102
}
 70
     0
280
     1
281
     0
  0
BLOCK_RECORD
  5
6F
330
1
100
AcDbSymbolTableRecord
100
AcDbBlockTableRecord
  2
309020146__2
340
0
102
{BLKREFS
331
76
102
}
 70
     0
280
     1
281
     0
  0
BLOCK_RECORD
  5
72
330
1
100
AcDbSymbolTableRecord
100
AcDbBlockTableRecord
  2
HL066_3E__3
340
0
102
{BLKREFS
331
7A
102
}
 70
     0
280
     1
281
     0
  0
BLOCK_RECORD
  5
79
330
1
100
AcDbSymbolTableRecord
100
AcDbBlockTableRecord
  2
HL66-WEB-Zeichnung__4
340
0
102
{BLKREFS
331
7E
102
}
 70
     0
280
     1
281
     0
  0
BLOCK_RECORD
  5
7D
330
1
100
AcDbSymbolTableRecord
100
AcDbBlockTableRecord
  2
Untsicht1
340
0
102
{BLKREFS
331
A0
102
}
 70
     0
280
     1
281
     0
  0
BLOCK_RECORD
  5
81
330
1
100
AcDbSymbolTableRecord
100
AcDbBlockTableRecord
  2
HL066_1E
340
0
102
{BLKREFS
331
98
102
}
 70
     0
280
     1
281
     0
  0
BLOCK_RECORD
  5
84
330
1
100
AcDbSymbolTableRecord
100
AcDbBlockTableRecord
  2
995901889_1
340
0
102
{BLKREFS
331
91
102
}
 70
     0
280
     1
281
     0
  0
BLOCK_RECORD
  5
87
330
1
100
AcDbSymbolTableRecord
100
AcDbBlockTableRecord
  2
309020146__5
340
0
102
{BLKREFS
331
92
102
}
 70
     0
280
     1
281
     0
  0
BLOCK_RECORD
  5
8A
330
1
100
AcDbSymbolTableRecord
100
AcDbBlockTableRecord
  2
395550955__6
340
0
102
{BLKREFS
331
93
102
}
 70
     0
280
     1
281
     0
  0
BLOCK_RECORD
  5
8D
330
1
100
AcDbSymbolTableRecord
100
AcDbBlockTableRecord
  2
995901889
340
0
102
{BLKREFS
331
94
102
}
 70
     0
280
     1
281
     0
  0
BLOCK_RECORD
  5
90
330
1
100
AcDbSymbolTableRecord
100
AcDbBlockTableRecord
  2
HL066_3E__7
340
0
102
{BLKREFS
331
99
102
}
 70
     0
280
     1
281
     0
  0
BLOCK_RECORD
  5
97
330
1
100
AcDbSymbolTableRecord
100
AcDbBlockTableRecord
  2
HL66-WEB-Zeichnung__8
340
0
102
{BLKREFS
331
9D
102
}
 70
     0
280
     1
281
     0
  0
BLOCK_RECORD
  5
9C
330
1
100
AcDbSymbolTableRecord
100
AcDbBlockTableRecord
  2
Vordans2
340
0
102
{BLKREFS
331
A1
102
}
 70
     0
280
     1
281
     0
  0
BLOCK_RECORD
  5
111
330
1
100
AcDbSymbolTableRecord
100
AcDbBlockTableRecord
  2
*D16
340
0
 70
     0
280
     1
281
     0
  0
BLOCK_RECORD
  5
11C
330
1
100
AcDbSymbolTableRecord
100
AcDbBlockTableRecord
  2
*D17
340
0
 70
     0
280
     1
281
     0
  0
BLOCK_RECORD
  5
127
330
1
100
AcDbSymbolTableRecord
100
AcDbBlockTableRecord
  2
*D18
340
0
 70
     0
280
     1
281
     0
  0
BLOCK_RECORD
  5
133
330
1
100
AcDbSymbolTableRecord
100
AcDbBlockTableRecord
  2
*D19
340
0
 70
     0
280
     1
281
     0
  0
ENDTAB
  0
ENDSEC
  0
SECTION
  2
BLOCKS
  0
BLOCK
  5
20
330
1F
100
AcDbEntity
  8
0
100
AcDbBlockBegin
  2
*Model_Space
 70
     0
 10
0.0
 20
0.0
 30
0.0
  3
*Model_Space
  1

  0
ENDBLK
  5
21
330
1F
100
AcDbEntity
  8
0
100
AcDbBlockEnd
  0
BLOCK
  5
1C
330
1B
100
AcDbEntity
 67
     1
  8
0
100
AcDbBlockBegin
  2
*Paper_Space
 70
     0
 10
0.0
 20
0.0
 30
0.0
  3
*Paper_Space
  1

  0
ENDBLK
  5
1D
330
1B
100
AcDbEntity
 67
     1
  8
0
100
AcDbBlockEnd
  0
BLOCK
  5
24
330
23
100
AcDbEntity
  8
0
100
AcDbBlockBegin
  2
*Paper_Space0
 70
     0
 10
0.0
 20
0.0
 30
0.0
  3
*Paper_Space0
  1

  0
ENDBLK
  5
25
330
23
100
AcDbEntity
  8
0
100
AcDbBlockEnd
  0
BLOCK
  5
67
330
66
100
AcDbEntity
  8
0
100
AcDbBlockBegin
  2
395550955__1
 70
     0
 10
-444.3003945342106
 20
623.7500000013159
 30
0.0
  3
395550955__1
  1

  0
LINE
  5
A2
330
66
100
AcDbEntity
  8
0
  6
Continuous
 62
     7
100
AcDbLine
 10
-435.5
 20
634.2500000013158
 30
0.0
 11
-302.5
 21
634.2500000013158
 31
0.0
  0
LINE
  5
A3
330
66
100
AcDbEntity
  8
0
  6
Continuous
 62
     7
100
AcDbLine
 10
-296.1999999999995
 20
634.2500000013158
 30
0.0
 11
-296.6999999999995
 21
634.2500000013158
 31
0.0
  0
LINE
  5
A4
330
66
100
AcDbEntity
  8
0
  6
Continuous
 62
     7
100
AcDbLine
 10
-302.5
 20
634.2500000013158
 30
0.0
 11
-296.6999999999995
 21
634.2500000013158
 31
0.0
  0
LINE
  5
A5
330
66
100
AcDbEntity
  8
0
  6
Continuous
 62
     3
100
AcDbLine
 10
-296.6999999999995
 20
634.2500000013158
 30
0.0
 11
-296.7000000000007
 21
631.7500000013158
 31
0.0
  0
LINE
  5
A6
330
66
100
AcDbEntity
  8
0
  6
Continuous
 62
     3
100
AcDbLine
 10
-435.5
 20
633.2500000013159
 30
0.0
 11
-435.5
 21
634.2500000013158
 31
0.0
  0
LINE
  5
A7
330
66
100
AcDbEntity
  8
0
  6
Continuous
 62
     3
100
AcDbLine
 10
-302.5
 20
633.2500000013159
 30
0.0
 11
-302.5
 21
634.2500000013158
 31
0.0
  0
LINE
  5
A8
330
66
100
AcDbEntity
  8
0
  6
Continuous
 62
     3
100
AcDbLine
 10
-302.5
 20
633.2500000013159
 30
0.0
 11
-302.5
 21
631.7500000013159
 31
0.0
  0
LINE
  5
A9
330
66
100
AcDbEntity
  8
0
  6
Continuous
 62
     3
100
AcDbLine
 10
-296.6999999999995
 20
627.2500000013158
 30
0.0
 11
-296.7000000000007
 21
631.7500000013158
 31
0.0
  0
LINE
  5
AA
330
66
100
AcDbEntity
  8
0
  6
Continuous
 62
     3
100
AcDbLine
 10
-301.4999999999994
 20
631.7500000013158
 30
0.0
 11
-302.5
 21
631.7500000013159
 31
0.0
  0
LINE
  5
AB
330
66
100
AcDbEntity
  8
0
  6
Continuous
 62
     3
100
AcDbLine
 10
-296.7000000000007
 20
631.7500000013158
 30
0.0
 11
-298.5
 21
631.7500000013159
 31
0.0
  0
LINE
  5
AC
330
66
100
AcDbEntity
  8
0
  6
Continuous
 62
     7
100
AcDbLine
 10
-293.6999999999995
 20
627.2500000013158
 30
0.0
 11
-296.6999999999995
 21
627.2500000013158
 31
0.0
  0
LINE
  5
AD
330
66
100
AcDbEntity
  8
0
  6
Continuous
 62
     3
100
AcDbLine
 10
-443.3
 20
631.7500000013159
 30
0.0
 11
-444.2999999999998
 21
631.7500000013158
 31
0.0
  0
LINE
  5
AE
330
66
100
AcDbEntity
  8
0
  6
Continuous
 62
     7
100
AcDbLine
 10
-441.2999999999998
 20
627.2500000013158
 30
0.0
 11
-444.3003945342106
 21
627.2500676276028
 31
0.0
  0
LINE
  5
AF
330
66
100
AcDbEntity
  8
0
  6
Continuous
 62
     7
100
AcDbLine
 10
-434.1314067436484
 20
623.7500000013159
 30
0.0
 11
-439.0235891458424
 21
626.6327461274766
 31
0.0
  0
LINE
  5
B0
330
66
100
AcDbEntity
  8
0
  6
Continuous
 62
     7
100
AcDbLine
 10
-444.3003945342106
 20
627.2500676276028
 30
0.0
 11
-444.2999999999998
 21
631.7500000013158
 31
0.0
  0
LINE
  5
B1
330
66
100
AcDbEntity
  8
0
  6
Continuous
 62
     7
100
AcDbLine
 10
-444.3
 20
626.6327461274768
 30
0.0
 11
-444.3003945342106
 21
627.2500676276028
 31
0.0
  0
LINE
  5
B2
330
66
100
AcDbEntity
  8
0
  6
Continuous
 62
     7
100
AcDbLine
 10
-444.3
 20
623.7500000013159
 30
0.0
 11
-444.3
 21
626.6327461274768
 31
0.0
  0
LINE
  5
B3
330
66
100
AcDbEntity
  8
0
  6
Continuous
 62
     3
100
AcDbLine
 10
-294.7
 20
631.7500000013159
 30
0.0
 11
-296.7000000000007
 21
631.7500000013158
 31
0.0
  0
LINE
  5
B4
330
66
100
AcDbEntity
  8
0
  6
Continuous
 62
     7
100
AcDbLine
 10
-294.7000000000007
 20
626.9804939663318
 30
0.0
 11
-294.6999999999999
 21
626.2571129570525
 31
0.0
  0
LINE
  5
B5
330
66
100
AcDbEntity
  8
0
  6
Continuous
 62
     7
100
AcDbLine
 10
-294.6999999999999
 20
626.2571129570525
 30
0.0
 11
-294.6999999999999
 21
623.7500000013159
 31
0.0
  0
LINE
  5
B6
330
66
100
AcDbEntity
  8
0
  6
Continuous
 62
     3
100
AcDbLine
 10
-298.5
 20
631.7500000013159
 30
0.0
 11
-299.5000000000007
 21
631.7500000013158
 31
0.0
  0
LINE
  5
B7
330
66
100
AcDbEntity
  8
0
  6
Continuous
 62
     7
100
AcDbLine
 10
-293.6999999999995
 20
627.2500000013158
 30
0.0
 11
-293.6999999999995
 21
631.7500000013158
 31
0.0
  0
LINE
  5
B8
330
66
100
AcDbEntity
  8
0
  6
Continuous
 62
     7
100
AcDbLine
 10
-293.6999999999999
 20
623.7500000013159
 30
0.0
 11
-293.6999999999999
 21
626.6327461274766
 31
0.0
  0
LINE
  5
B9
330
66
100
AcDbEntity
  8
0
  6
Continuous
 62
     7
100
AcDbLine
 10
-293.6999999999995
 20
627.2500000013158
 30
0.0
 11
-293.6999999999999
 21
626.6327461274766
 31
0.0
  0
LINE
  5
BA
330
66
100
AcDbEntity
  8
0
  6
Continuous
 62
     3
100
AcDbLine
 10
-299.5000000000007
 20
631.7500000013158
 30
0.0
 11
-301.4999999999994
 21
631.7500000013158
 31
0.0
  0
LINE
  5
BB
330
66
100
AcDbEntity
  8
0
  6
Continuous
 62
     3
100
AcDbLine
 10
-293.6999999999995
 20
631.7500000013158
 30
0.0
 11
-294.7
 21
631.7500000013159
 31
0.0
  0
LINE
  5
BC
330
66
100
AcDbEntity
  8
0
  6
Continuous
 62
     3
100
AcDbLine
 10
-302.5
 20
631.7500000013159
 30
0.0
 11
-435.5
 21
631.7500000013159
 31
0.0
  0
LINE
  5
BD
330
66
100
AcDbEntity
  8
0
  6
Continuous
 62
     7
100
AcDbLine
 10
-298.6138814830668
 20
626.2571129570524
 30
0.0
 11
-302.8685932563515
 21
623.7500000013159
 31
0.0
  0
LINE
  5
BE
330
66
100
AcDbEntity
  8
0
  6
Continuous
 62
     7
100
AcDbLine
 10
-298.9764108541569
 20
626.6327461274769
 30
0.0
 11
-303.8685932563514
 21
623.7500000013159
 31
0.0
  0
LINE
  5
BF
330
66
100
AcDbEntity
  8
0
  6
Continuous
 62
     7
100
AcDbLine
 10
-441.2999999999997
 20
634.2500000013158
 30
0.0
 11
-441.7999999999998
 21
634.2500000013158
 31
0.0
  0
LINE
  5
C0
330
66
100
AcDbEntity
  8
0
  6
Continuous
 62
     7
100
AcDbLine
 10
-441.2999999999997
 20
634.2500000013158
 30
0.0
 11
-435.5
 21
634.2500000013158
 31
0.0
  0
LINE
  5
C1
330
66
100
AcDbEntity
  8
0
  6
Continuous
 62
     3
100
AcDbLine
 10
-441.2999999999997
 20
634.2500000013158
 30
0.0
 11
-441.3
 21
631.7500000013158
 31
0.0
  0
LINE
  5
C2
330
66
100
AcDbEntity
  8
0
  6
Continuous
 62
     3
100
AcDbLine
 10
-435.5
 20
633.2500000013159
 30
0.0
 11
-435.5
 21
631.7500000013159
 31
0.0
  0
LINE
  5
C3
330
66
100
AcDbEntity
  8
0
  6
Continuous
 62
     3
100
AcDbLine
 10
-441.2999999999998
 20
627.2500000013158
 30
0.0
 11
-441.3
 21
631.7500000013158
 31
0.0
  0
LINE
  5
C4
330
66
100
AcDbEntity
  8
0
  6
Continuous
 62
     7
100
AcDbLine
 10
-443.3
 20
626.9804939663318
 30
0.0
 11
-443.3
 21
626.2571129570528
 31
0.0
  0
LINE
  5
C5
330
66
100
AcDbEntity
  8
0
  6
Continuous
 62
     7
100
AcDbLine
 10
-443.3
 20
626.2571129570528
 30
0.0
 11
-443.3
 21
623.7500000013159
 31
0.0
  0
LINE
  5
C6
330
66
100
AcDbEntity
  8
0
  6
Continuous
 62
     3
100
AcDbLine
 10
-438.4999999999998
 20
631.7500000013158
 30
0.0
 11
-439.5
 21
631.7500000013159
 31
0.0
  0
LINE
  5
C7
330
66
100
AcDbEntity
  8
0
  6
Continuous
 62
     3
100
AcDbLine
 10
-435.5
 20
631.7500000013159
 30
0.0
 11
-436.4999999999998
 21
631.7500000013158
 31
0.0
  0
LINE
  5
C8
330
66
100
AcDbEntity
  8
0
  6
Continuous
 62
     3
100
AcDbLine
 10
-439.5
 20
631.7500000013159
 30
0.0
 11
-441.3
 21
631.7500000013158
 31
0.0
  0
LINE
  5
C9
330
66
100
AcDbEntity
  8
0
  6
Continuous
 62
     3
100
AcDbLine
 10
-441.3
 20
631.7500000013158
 30
0.0
 11
-443.3
 21
631.7500000013159
 31
0.0
  0
LINE
  5
CA
330
66
100
AcDbEntity
  8
0
  6
Continuous
 62
     3
100
AcDbLine
 10
-436.4999999999998
 20
631.7500000013158
 30
0.0
 11
-438.4999999999998
 21
631.7500000013158
 31
0.0
  0
LINE
  5
CB
330
66
100
AcDbEntity
  8
0
  6
Continuous
 62
     7
100
AcDbLine
 10
-435.1314067436486
 20
623.7500000013159
 30
0.0
 11
-439.3861185169335
 21
626.2571129570526
 31
0.0
  0
ARC
  5
CC
330
66
100
AcDbEntity
  8
0
  6
Continuous
 62
     7
100
AcDbCircle
 10
-296.1999999999995
 20
631.7500000013158
 30
0.0
 40
2.5
100
AcDbArc
 50
0.0
 51
90.0
  0
ARC
  5
CD
330
66
100
AcDbEntity
  8
0
  6
Continuous
 62
     3
100
AcDbCircle
 10
-442.1297454381538
 20
630.891433986908
 30
0.0
 40
4.779793630197988
100
AcDbArc
 50
242.996318237002
 51
255.8279938416956
  0
ARC
  5
CE
330
66
100
AcDbEntity
  8
0
  6
Continuous
 62
     3
100
AcDbCircle
 10
-295.8702545618461
 20
630.8914339869094
 30
0.0
 40
4.779793630199499
100
AcDbArc
 50
284.1720061582996
 51
297.0036817629893
  0
ARC
  5
CF
330
66
100
AcDbEntity
  8
0
  6
Continuous
 62
     7
100
AcDbCircle
 10
-441.7999999999998
 20
631.7500000013158
 30
0.0
 40
2.5
100
AcDbArc
 50
90.0
 51
180.0
  0
SPLINE
  5
D0
330
66
100
AcDbEntity
  8
0
  6
Continuous
 62
     7
100
AcDbSpline
210
0.0
220
0.0
230
1.0
 70
  1064
 71
     3
 72
    11
 73
     7
 74
     5
 42
0.0000000001
 43
0.0000000001
 44
0.00000001
 40
0.0
 40
0.0
 40
0.0
 40
0.0
 40
0.4488930661362694
 40
1.191449411726135
 40
1.694346653239675
 40
2.385419169268273
 40
2.385419169268273
 40
2.385419169268273
 40
2.385419169268273
 10
-441.2999999999998
 20
627.2500000013158
 30
0.0
 10
-441.150277168014
 20
627.2464748308669
 30
0.0
 10
-440.7528836835874
 20
627.2371183255524
 30
0.0
 10
-440.194995594705
 20
627.1290464906615
 30
0.0
 10
-439.5795116137576
 20
626.9286802713412
 30
0.0
 10
-439.2273950445008
 20
626.7412381039413
 30
0.0
 10
-439.0235891458424
 20
626.6327461274766
 30
0.0
 11
-441.2999999999998
 21
627.2500000013158
 31
0.0
 11
-440.8515542504431
 21
627.2299651487971
 31
0.0
 11
-440.1211471318415
 21
627.09619156974
 31
0.0
 11
-439.6441732926755
 21
626.9368127970195
 31
0.0
 11
-439.0235891458424
 21
626.6327461274766
 31
0.0
  0
SPLINE
  5
D1
330
66
100
AcDbEntity
  8
0
  6
Continuous
 62
     7
100
AcDbSpline
210
0.0
220
0.0
230
1.0
 70
  1064
 71
     3
 72
    16
 73
    12
 74
    10
 42
0.0000000001
 43
0.0000000001
 44
0.00000001
 40
0.0
 40
0.0
 40
0.0
 40
0.0
 40
0.2480347063601665
 40
0.6537845464644595
 40
1.077980252242187
 40
1.424928119587324
 40
1.6585904308615
 40
1.812876423891825
 40
1.907356702631413
 40
2.00195045649401
 40
2.06933970756976
 40
2.06933970756976
 40
2.06933970756976
 40
2.06933970756976
 10
-296.7000000000007
 20
626.9804939663316
 30
0.0
 10
-296.6191672483879
 20
626.9979371123272
 30
0.0
 10
-296.4061035036146
 20
627.0439147974258
 30
0.0
 10
-296.0497837045077
 20
627.0934234020112
 30
0.0
 10
-295.6589550809383
 20
627.1272985958558
 30
0.0
 10
-295.3236883254174
 20
627.1387192454667
 30
0.0
 10
-295.0794003837934
 20
627.1331372749177
 30
0.0
 10
-294.9175895977401
 20
627.1174135904075
 30
0.0
 10
-294.8087589594294
 20
627.0922721115858
 30
0.0
 10
-294.7201558240035
 20
627.0579982275167
 30
0.0
 10
-294.7059217576369
 20
627.0032646091806
 30
0.0
 10
-294.7000000000007
 20
626.9804939663318
 30
0.0
 11
-296.7000000000007
 21
626.9804939663316
 31
0.0
 11
-296.457064094245
 21
627.0305275259379
 31
0.0
 11
-296.0555751826517
 21
627.089175517289
 31
0.0
 11
-295.6329339698287
 21
627.125457771546
 31
0.0
 11
-295.2861486152733
 21
627.1360756990105
 31
0.0
 11
-295.0525929657545
 21
627.1290163688141
 31
0.0
 11
-294.8992957977972
 21
627.1115765924827
 31
0.0
 11
-294.8074483135762
 21
627.0894279449086
 31
0.0
 11
-294.7249874674856
 21
627.0430794087082
 31
0.0
 11
-294.7000000000007
 21
626.9804939663318
 31
0.0
  0
SPLINE
  5
D2
330
66
100
AcDbEntity
  8
0
  6
Continuous
 62
     7
100
AcDbSpline
210
0.0
220
0.0
230
1.0
 70
  1064
 71
     3
 72
     9
 73
     5
 74
     3
 42
0.0000000001
 43
0.0000000001
 44
0.00000001
 40
0.0
 40
0.0
 40
0.0
 40
0.0
 40
1.026000482362775
 40
2.052000964725448
 40
2.052000964725448
 40
2.052000964725448
 40
2.052000964725448
 10
-298.6138814830668
 20
626.2571129570524
 30
0.0
 10
-298.3087321504514
 20
626.414269527005
 30
0.0
 10
-297.6984334774797
 20
626.7285826485797
 30
0.0
 10
-297.0328111612666
 20
626.8965235333703
 30
0.0
 10
-296.7000000000007
 20
626.9804939663316
 30
0.0
 11
-298.6138814830668
 21
626.2571129570524
 31
0.0
 11
-297.6846025702048
 21
626.6919895987378
 31
0.0
 11
-296.7000000000007
 21
626.9804939663316
 31
0.0
  0
SPLINE
  5
D3
330
66
100
AcDbEntity
  8
0
  6
Continuous
 62
     7
100
AcDbSpline
210
0.0
220
0.0
230
1.0
 70
  1064
 71
     3
 72
    11
 73
     7
 74
     5
 42
0.0000000001
 43
0.0000000001
 44
0.00000001
 40
0.0
 40
0.0
 40
0.0
 40
0.0
 40
0.5957720868538847
 40
1.188672951504846
 40
1.934674785709708
 40
2.385518797615326
 40
2.385518797615326
 40
2.385518797615326
 40
2.385518797615326
 10
-298.9764108541569
 20
626.6327461274769
 30
0.0
 10
-298.8013748294552
 20
626.7272716570824
 30
0.0
 10
-298.4521463298191
 20
626.9158671530797
 30
0.0
 10
-297.8387005080034
 20
627.122290769991
 30
0.0
 10
-297.2495848313462
 20
627.2369894396334
 30
0.0
 10
-296.8503784401304
 20
627.2464400317971
 30
0.0
 10
-296.6999999999995
 20
627.2500000013158
 30
0.0
 11
-298.9764108541569
 21
626.6327461274769
 31
0.0
 11
-298.4443504645611
 21
626.900806049322
 31
0.0
 11
-297.8840735664284
 21
627.0947679892038
 31
0.0
 11
-297.1503902372083
 21
627.2297772926073
 31
0.0
 11
-296.6999999999995
 21
627.2500000013158
 31
0.0
  0
SPLINE
  5
D4
330
66
100
AcDbEntity
  8
0
  6
Continuous
 62
     3
100
AcDbSpline
210
0.0
220
0.0
230
1.0
 70
  1064
 71
     3
 72
    11
 73
     7
 74
     5
 42
0.0000000001
 43
0.0000000001
 44
0.00000001
 40
0.0
 40
0.0
 40
0.0
 40
0.0
 40
0.1459375323607874
 40
0.2814545949833442
 40
0.4102258257380709
 40
0.5397413403961316
 40
0.5397413403961316
 40
0.5397413403961316
 40
0.5397413403961316
 10
-298.6138814830668
 20
626.2571129570524
 30
0.0
 10
-298.6577737466393
 20
626.2784214287531
 30
0.0
 10
-298.7424241996966
 20
626.3195168826062
 30
0.0
 10
-298.8495106140178
 20
626.4061562419676
 30
0.0
 10
-298.9330911780213
 20
626.5100712329929
 30
0.0
 10
-298.9619432530255
 20
626.5917760133685
 30
0.0
 10
-298.9764108541569
 20
626.6327461274769
 30
0.0
 11
-298.6138814830668
 21
626.2571129570524
 31
0.0
 11
-298.7425527966218
 21
626.325971191761
 31
0.0
 11
-298.8478803107338
 21
626.4112412896159
 31
0.0
 11
-298.9264789614426
 21
626.5132426750722
 31
0.0
 11
-298.9764108541569
 21
626.6327461274769
 31
0.0
  0
SPLINE
  5
D5
330
66
100
AcDbEntity
  8
0
  6
Continuous
 62
     7
100
AcDbSpline
210
0.0
220
0.0
230
1.0
 70
  1064
 71
     3
 72
    17
 73
    13
 74
    11
 42
0.0000000001
 43
0.0000000001
 44
0.00000001
 40
0.0
 40
0.0
 40
0.0
 40
0.0
 40
0.0674843206096764
 40
0.161210683807747
 40
0.2305863764468591
 40
0.3806709455637666
 40
0.6437057802933253
 40
1.025900554527844
 40
1.413378692530277
 40
1.703221377046741
 40
1.92273933904461
 40
2.06941401549467
 40
2.06941401549467
 40
2.06941401549467
 40
2.06941401549467
 10
-443.3
 20
626.9804939663318
 30
0.0
 10
-443.2940826706189
 20
627.0033013470128
 30
0.0
 10
-443.2799470064675
 20
627.057785022601
 30
0.0
 10
-443.2000905303523
 20
627.0886780081084
 30
0.0
 10
-443.1011353387025
 20
627.114560012627
 30
0.0
 10
-442.9394392447674
 20
627.1323945286053
 30
0.0
 10
-442.6751138417668
 20
627.1394050858898
 30
0.0
 10
-442.3305280336697
 20
627.126559438534
 30
0.0
 10
-441.978660644838
 20
627.0957506996099
 30
0.0
 10
-441.6823281486855
 20
627.0555776611809
 30
0.0
 10
-441.4668655260007
 20
627.0177295292006
 30
0.0
 10
-441.3477217919832
 20
626.9911429445174
 30
0.0
 10
-441.3
 20
626.9804939663318
 30
0.0
 11
-443.3
 21
626.9804939663318
 31
0.0
 11
-443.2749416938244
 21
627.0431534810626
 31
0.0
 11
-443.19329242548
 21
627.0891755172896
 31
0.0
 11
-443.1262160473402
 21
627.1068883982275
 31
0.0
 11
-442.9774427886466
 21
627.126684741899
 31
0.0
 11
-442.7145756472895
 21
627.1360756990105
 31
0.0
 11
-442.3325889038952
 21
627.1234672436372
 31
0.0
 11
-441.9466088092036
 21
627.0894279449093
 31
0.0
 11
-441.6594193180516
 21
627.0503002314341
 31
0.0
 11
-441.443345923868
 21
627.011564922878
 31
0.0
 11
-441.3
 21
626.9804939663318
 31
0.0
  0
SPLINE
  5
D6
330
66
100
AcDbEntity
  8
0
  6
Continuous
 62
     3
100
AcDbSpline
210
0.0
220
0.0
230
1.0
 70
  1064
 71
     3
 72
     9
 73
     5
 74
     3
 42
0.0000000001
 43
0.0000000001
 44
0.00000001
 40
0.0
 40
0.0
 40
0.0
 40
0.0
 40
0.2566316027493579
 40
0.536070954544964
 40
0.536070954544964
 40
0.536070954544964
 40
0.536070954544964
 10
-439.0235891458424
 20
626.6327461274766
 30
0.0
 10
-439.0599354969357
 20
626.5524587903517
 30
0.0
 10
-439.1358584420603
 20
626.3847487106707
 30
0.0
 10
-439.3003654418043
 20
626.3008480857466
 30
0.0
 10
-439.3861185169335
 20
626.2571129570526
 30
0.0
 11
-439.0235891458424
 21
626.6327461274766
 31
0.0
 11
-439.152929853727
 21
626.4110915268449
 31
0.0
 11
-439.3861185169335
 21
626.2571129570526
 31
0.0
  0
SPLINE
  5
D7
330
66
100
AcDbEntity
  8
0
  6
Continuous
 62
     7
100
AcDbSpline
210
0.0
220
0.0
230
1.0
 70
  1064
 71
     3
 72
     9
 73
     5
 74
     3
 42
0.0000000001
 43
0.0000000001
 44
0.00000001
 40
0.0
 40
0.0
 40
0.0
 40
0.0
 40
1.026000482362838
 40
2.052000964725869
 40
2.052000964725869
 40
2.052000964725869
 40
2.052000964725869
 10
-441.3
 20
626.9804939663318
 30
0.0
 10
-440.967188838734
 20
626.8965235333704
 30
0.0
 10
-440.3015665225209
 20
626.7285826485797
 30
0.0
 10
-439.6912678495489
 20
626.4142695270053
 30
0.0
 10
-439.3861185169335
 20
626.2571129570526
 30
0.0
 11
-441.3
 21
626.9804939663318
 31
0.0
 11
-440.3153974297957
 21
626.691989598738
 31
0.0
 11
-439.3861185169335
 21
626.2571129570526
 31
0.0
  0
ENDBLK
  5
68
330
66
100
AcDbEntity
  8
0
100
AcDbBlockEnd
  0
BLOCK
  5
6A
330
69
100
AcDbEntity
  8
0
100
AcDbBlockBegin
  2
385490217
 70
     0
 10
-313.5
 20
618.7500000013159
 30
0.0
  3
385490217
  1

  0
LINE
  5
D8
330
69
100
AcDbEntity
  8
0
  6
Continuous
 62
     7
100
AcDbLine
 10
-306.5
 20
618.7500000013159
 30
0.0
 11
-313.5
 21
618.7500000013159
 31
0.0
  0
ENDBLK
  5
6B
330
69
100
AcDbEntity
  8
0
100
AcDbBlockEnd
  0
BLOCK
  5
6D
330
6C
100
AcDbEntity
  8
0
100
AcDbBlockBegin
  2
385490217_1
 70
     0
 10
-431.5000000000001
 20
618.7500000013159
 30
0.0
  3
385490217_1
  1

  0
LINE
  5
D9
330
6C
100
AcDbEntity
  8
0
  6
Continuous
 62
     7
100
AcDbLine
 10
-430.8090760787902
 20
618.7500000013159
 30
0.0
 11
-431.5000000000001
 21
618.7500000013159
 31
0.0
  0
LINE
  5
DA
330
6C
100
AcDbEntity
  8
0
  6
Continuous
 62
     7
100
AcDbLine
 10
-424.5
 20
618.7500000013159
 30
0.0
 11
-430.8090760787902
 21
618.7500000013159
 31
0.0
  0
ENDBLK
  5
6E
330
6C
100
AcDbEntity
  8
0
100
AcDbBlockEnd
  0
BLOCK
  5
70
330
6F
100
AcDbEntity
  8
0
100
AcDbBlockBegin
  2
309020146__2
 70
     0
 10
-445.5
 20
415.7500000013159
 30
0.0
  3
309020146__2
  1

  0
LINE
  5
DB
330
6F
100
AcDbEntity
  8
0
  6
Continuous
 62
     3
100
AcDbLine
 10
-302.5
 20
633.2500000013159
 30
0.0
 11
-302.5
 21
631.7500000013159
 31
0.0
  0
LINE
  5
DC
330
6F
100
AcDbEntity
  8
0
  6
Continuous
 62
     3
100
AcDbLine
 10
-301.4999999999994
 20
631.7500000013158
 30
0.0
 11
-302.5
 21
631.7500000013159
 31
0.0
  0
LINE
  5
DD
330
6F
100
AcDbEntity
  8
0
  6
Continuous
 62
     3
100
AcDbLine
 10
-296.7000000000007
 20
631.7500000013158
 30
0.0
 11
-298.5
 21
631.7500000013159
 31
0.0
  0
LINE
  5
DE
330
6F
100
AcDbEntity
  8
0
  6
Continuous
 62
     7
100
AcDbLine
 10
-292.5
 20
618.7500000013159
 30
0.0
 11
-294.0
 21
618.7500000013159
 31
0.0
  0
LINE
  5
DF
330
6F
100
AcDbEntity
  8
0
  6
Continuous
 62
     7
100
AcDbLine
 10
-294.0
 20
618.7500000013159
 30
0.0
 11
-296.5
 21
618.7500000013159
 31
0.0
  0
LINE
  5
E0
330
6F
100
AcDbEntity
  8
0
  6
Continuous
 62
     7
100
AcDbLine
 10
-296.5
 20
623.7500000013159
 30
0.0
 11
-292.5
 21
623.7500000013159
 31
0.0
  0
LINE
  5
E1
330
6F
100
AcDbEntity
  8
0
  6
Continuous
 62
     7
100
AcDbLine
 10
-292.5
 20
623.7500000013159
 30
0.0
 11
-292.5
 21
618.7500000013159
 31
0.0
  0
LINE
  5
E2
330
6F
100
AcDbEntity
  8
0
  6
Continuous
 62
     7
100
AcDbLine
 10
-441.5
 20
615.7500000013159
 30
0.0
 11
-444.0
 21
615.7500000013159
 31
0.0
  0
LINE
  5
E3
330
6F
100
AcDbEntity
  8
0
  6
Continuous
 62
     3
100
AcDbLine
 10
-441.5
 20
618.7500000013159
 30
0.0
 11
-441.5
 21
615.7500000013159
 31
0.0
  0
LINE
  5
E4
330
6F
100
AcDbEntity
  8
0
  6
Continuous
 62
     7
100
AcDbLine
 10
-444.0
 20
618.7500000013159
 30
0.0
 11
-444.0
 21
615.7500000013159
 31
0.0
  0
LINE
  5
E5
330
6F
100
AcDbEntity
  8
0
  6
Continuous
 62
     7
100
AcDbLine
 10
-441.5
 20
615.7500000013159
 30
0.0
 11
-441.5
 21
419.7500000013158
 31
0.0
  0
LINE
  5
E6
330
6F
100
AcDbEntity
  8
0
  6
Continuous
 62
     7
100
AcDbLine
 10
-440.4282032302755
 20
415.7500000013159
 30
0.0
 11
-441.5
 21
419.7500000013158
 31
0.0
  0
LINE
  5
E7
330
6F
100
AcDbEntity
  8
0
  6
Continuous
 62
     7
100
AcDbLine
 10
-445.5
 20
623.7500000013159
 30
0.0
 11
-441.5
 21
623.7500000013159
 31
0.0
  0
LINE
  5
E8
330
6F
100
AcDbEntity
  8
0
  6
Continuous
 62
     7
100
AcDbLine
 10
-445.5
 20
623.7500000013159
 30
0.0
 11
-445.5
 21
618.7500000013159
 31
0.0
  0
LINE
  5
E9
330
6F
100
AcDbEntity
  8
0
  6
Continuous
 62
     7
100
AcDbLine
 10
-444.0
 20
618.7500000013159
 30
0.0
 11
-445.5
 21
618.7500000013159
 31
0.0
  0
LINE
  5
EA
330
6F
100
AcDbEntity
  8
0
  6
Continuous
 62
     7
100
AcDbLine
 10
-441.5
 20
618.7500000013159
 30
0.0
 11
-444.0
 21
618.7500000013159
 31
0.0
  0
LINE
  5
EB
330
6F
100
AcDbEntity
  8
0
  6
Continuous
 62
     7
100
AcDbLine
 10
-430.8090760787902
 20
618.7500000013159
 30
0.0
 11
-431.5000000000001
 21
618.7500000013159
 31
0.0
  0
LINE
  5
EC
330
6F
100
AcDbEntity
  8
0
  6
Continuous
 62
     3
100
AcDbLine
 10
-294.7
 20
631.7500000013159
 30
0.0
 11
-296.7000000000007
 21
631.7500000013158
 31
0.0
  0
LINE
  5
ED
330
6F
100
AcDbEntity
  8
0
  6
Continuous
 62
     7
100
AcDbLine
 10
-294.7000000000007
 20
626.9804939663318
 30
0.0
 11
-294.6999999999999
 21
626.2571129570525
 31
0.0
  0
LINE
  5
EE
330
6F
100
AcDbEntity
  8
0
  6
Continuous
 62
     7
100
AcDbLine
 10
-294.6999999999999
 20
626.2571129570525
 30
0.0
 11
-294.6999999999999
 21
623.7500000013159
 31
0.0
  0
LINE
  5
EF
330
6F
100
AcDbEntity
  8
0
  6
Continuous
 62
     3
100
AcDbLine
 10
-298.5
 20
631.7500000013159
 30
0.0
 11
-299.5000000000007
 21
631.7500000013158
 31
0.0
  0
LINE
  5
F0
330
6F
100
AcDbEntity
  8
0
  6
Continuous
 62
     3
100
AcDbLine
 10
-299.5000000000007
 20
631.7500000013158
 30
0.0
 11
-301.4999999999994
 21
631.7500000013158
 31
0.0
  0
LINE
  5
F1
330
6F
100
AcDbEntity
  8
0
  6
Continuous
 62
     3
100
AcDbLine
 10
-302.5
 20
631.7500000013159
 30
0.0
 11
-435.5
 21
631.7500000013159
 31
0.0
  0
LINE
  5
F2
330
6F
100
AcDbEntity
  8
0
  6
Continuous
 62
     3
100
AcDbLine
 10
-435.5
 20
623.9671956605374
 30
0.0
 11
-435.5
 21
623.7500000013159
 31
0.0
  0
LINE
  5
F3
330
6F
100
AcDbEntity
  8
0
  6
Continuous
 62
     7
100
AcDbLine
 10
-297.5717967697245
 20
415.7500000013159
 30
0.0
 11
-296.5
 21
419.7500000013158
 31
0.0
  0
LINE
  5
F4
330
6F
100
AcDbEntity
  8
0
  6
Continuous
 62
     7
100
AcDbLine
 10
-297.5717967697245
 20
415.7500000013159
 30
0.0
 11
-440.4282032302755
 21
415.7500000013159
 31
0.0
  0
LINE
  5
F5
330
6F
100
AcDbEntity
  8
0
  6
Continuous
 62
     7
100
AcDbLine
 10
-441.5
 20
419.7500000013158
 30
0.0
 11
-296.5
 21
419.7500000013158
 31
0.0
  0
LINE
  5
F6
330
6F
100
AcDbEntity
  8
0
  6
Continuous
 62
     7
100
AcDbLine
 10
-296.5
 20
615.7500000013159
 30
0.0
 11
-296.5
 21
419.7500000013158
 31
0.0
  0
LINE
  5
F7
330
6F
100
AcDbEntity
  8
0
  6
Continuous
 62
     3
100
AcDbLine
 10
-302.5
 20
623.7500000013159
 30
0.0
 11
-302.5
 21
623.9671956605374
 31
0.0
  0
LINE
  5
F8
330
6F
100
AcDbEntity
  8
0
  6
Continuous
 62
     3
100
AcDbLine
 10
-435.5
 20
633.2500000013159
 30
0.0
 11
-435.5
 21
631.7500000013159
 31
0.0
  0
LINE
  5
F9
330
6F
100
AcDbEntity
  8
0
  6
Continuous
 62
     7
100
AcDbLine
 10
-443.3
 20
626.9804939663318
 30
0.0
 11
-443.3
 21
626.2571129570528
 31
0.0
  0
LINE
  5
FA
330
6F
100
AcDbEntity
  8
0
  6
Continuous
 62
     7
100
AcDbLine
 10
-443.3
 20
626.2571129570528
 30
0.0
 11
-443.3
 21
623.7500000013159
 31
0.0
  0
LINE
  5
FB
330
6F
100
AcDbEntity
  8
0
  6
Continuous
 62
     3
100
AcDbLine
 10
-438.4999999999998
 20
631.7500000013158
 30
0.0
 11
-439.5
 21
631.7500000013159
 31
0.0
  0
LINE
  5
FC
330
6F
100
AcDbEntity
  8
0
  6
Continuous
 62
     3
100
AcDbLine
 10
-435.5
 20
631.7500000013159
 30
0.0
 11
-436.4999999999998
 21
631.7500000013158
 31
0.0
  0
LINE
  5
FD
330
6F
100
AcDbEntity
  8
0
  6
Continuous
 62
     3
100
AcDbLine
 10
-439.5
 20
631.7500000013159
 30
0.0
 11
-441.3
 21
631.7500000013158
 31
0.0
  0
LINE
  5
FE
330
6F
100
AcDbEntity
  8
0
  6
Continuous
 62
     3
100
AcDbLine
 10
-441.3
 20
631.7500000013158
 30
0.0
 11
-443.3
 21
631.7500000013159
 31
0.0
  0
LINE
  5
FF
330
6F
100
AcDbEntity
  8
0
  6
Continuous
 62
     3
100
AcDbLine
 10
-436.4999999999998
 20
631.7500000013158
 30
0.0
 11
-438.4999999999998
 21
631.7500000013158
 31
0.0
  0
LINE
  5
100
330
6F
100
AcDbEntity
  8
0
  6
Continuous
 62
     7
100
AcDbLine
 10
-294.0
 20
618.7500000013159
 30
0.0
 11
-294.0
 21
615.7500000013159
 31
0.0
  0
LINE
  5
101
330
6F
100
AcDbEntity
  8
0
  6
Continuous
 62
     7
100
AcDbLine
 10
-294.0
 20
615.7500000013159
 30
0.0
 11
-296.5
 21
615.7500000013159
 31
0.0
  0
LINE
  5
102
330
6F
100
AcDbEntity
  8
0
  6
Continuous
 62
     7
100
AcDbLine
 10
-296.5
 20
615.7500000013159
 30
0.0
 11
-441.5
 21
615.7500000013159
 31
0.0
  0
LINE
  5
103
330
6F
100
AcDbEntity
  8
0
  6
Continuous
 62
     3
100
AcDbLine
 10
-296.5
 20
615.7500000013159
 30
0.0
 11
-296.5
 21
618.7500000013159
 31
0.0
  0
LINE
  5
104
330
6F
100
AcDbEntity
  8
0
  6
Continuous
 62
     7
100
AcDbLine
 10
-302.5
 20
623.7500000013159
 30
0.0
 11
-296.5
 21
623.7500000013159
 31
0.0
  0
LINE
  5
105
330
6F
100
AcDbEntity
  8
0
  6
Continuous
 62
     7
100
AcDbLine
 10
-441.5
 20
623.7500000013159
 30
0.0
 11
-435.5
 21
623.7500000013159
 31
0.0
  0
LINE
  5
106
330
6F
100
AcDbEntity
  8
0
  6
Continuous
 62
     7
100
AcDbLine
 10
-435.5
 20
623.7500000013159
 30
0.0
 11
-302.5
 21
623.7500000013159
 31
0.0
  0
LINE
  5
107
330
6F
100
AcDbEntity
  8
0
  6
Continuous
 62
     7
100
AcDbLine
 10
-296.5
 20
618.7500000013159
 30
0.0
 11
-306.5
 21
618.7500000013159
 31
0.0
  0
LINE
  5
108
330
6F
100
AcDbEntity
  8
0
  6
Continuous
 62
     7
100
AcDbLine
 10
-306.5
 20
618.7500000013159
 30
0.0
 11
-313.5
 21
618.7500000013159
 31
0.0
  0
LINE
  5
109
330
6F
100
AcDbEntity
  8
0
  6
Continuous
 62
     7
100
AcDbLine
 10
-313.5
 20
618.7500000013159
 30
0.0
 11
-424.5
 21
618.7500000013159
 31
0.0
  0
LINE
  5
10A
330
6F
100
AcDbEntity
  8
0
  6
Continuous
 62
     3
100
AcDbLine
 10
-441.5
 20
623.7500000013159
 30
0.0
 11
-441.5
 21
618.7500000013159
 31
0.0
  0
LINE
  5
10B
330
6F
100
AcDbEntity
  8
0
  6
Continuous
 62
     3
100
AcDbLine
 10
-296.5
 20
618.7500000013159
 30
0.0
 11
-296.5
 21
623.7500000013159
 31
0.0
  0
LINE
  5
10C
330
6F
100
AcDbEntity
  8
0
  6
Continuous
 62
     7
100
AcDbLine
 10
-431.5000000000001
 20
618.7500000013159
 30
0.0
 11
-441.5
 21
618.7500000013159
 31
0.0
  0
LINE
  5
10D
330
6F
100
AcDbEntity
  8
0
  6
Continuous
 62
     7
100
AcDbLine
 10
-424.5
 20
618.7500000013159
 30
0.0
 11
-430.8090760787902
 21
618.7500000013159
 31
0.0
  0
LINE
  5
10E
330
6F
100
AcDbEntity
  8
1
  6
DOT_CENTER
 62
     2
100
AcDbLine
 10
-369.0
 20
639.245278978027
 30
0.0
 11
-368.9999999999999
 21
410.8827568514051
 31
0.0
  0
ENDBLK
  5
71
330
6F
100
AcDbEntity
  8
0
100
AcDbBlockEnd
  0
BLOCK
  5
77
330
72
100
AcDbEntity
  8
0
100
AcDbBlockBegin
  2
HL066_3E__3
 70
     0
 10
-445.5
 20
415.7500000013159
 30
0.0
  3
HL066_3E__3
  1

  0
INSERT
  5
73
330
72
100
AcDbEntity
  8
0
100
AcDbBlockReference
  2
395550955__1
 10
-444.3003945342106
 20
623.7500000013159
 30
0.0
  0
INSERT
  5
74
330
72
100
AcDbEntity
  8
0
100
AcDbBlockReference
  2
385490217
 10
-313.5
 20
618.7500000013159
 30
0.0
  0
INSERT
  5
75
330
72
100
AcDbEntity
  8
0
100
AcDbBlockReference
  2
385490217_1
 10
-431.5000000000001
 20
618.7500000013159
 30
0.0
  0
INSERT
  5
76
330
72
100
AcDbEntity
  8
0
100
AcDbBlockReference
  2
309020146__2
 10
-445.5
 20
415.7500000013159
 30
0.0
  0
ENDBLK
  5
78
330
72
100
AcDbEntity
  8
0
100
AcDbBlockEnd
  0
BLOCK
  5
7B
330
79
100
AcDbEntity
  8
0
100
AcDbBlockBegin
  2
HL66-WEB-Zeichnung__4
 70
     0
 10
-445.5
 20
415.7500000013159
 30
0.0
  3
HL66-WEB-Zeichnung__4
  1

  0
INSERT
  5
7A
330
79
100
AcDbEntity
  8
0
100
AcDbBlockReference
  2
HL066_3E__3
 10
-445.5
 20
415.7500000013159
 30
0.0
  0
ENDBLK
  5
7C
330
79
100
AcDbEntity
  8
0
100
AcDbBlockEnd
  0
BLOCK
  5
7F
330
7D
100
AcDbEntity
  8
0
100
AcDbBlockBegin
  2
Untsicht1
 70
     0
 10
-369.0
 20
525.0000000006598
 30
0.0
  3
Untsicht1
  1

  0
INSERT
  5
7E
330
7D
100
AcDbEntity
  8
0
100
AcDbBlockReference
  2
HL66-WEB-Zeichnung__4
 10
-445.5
 20
415.7500000013159
 30
0.0
  0
MTEXT
  5
110
330
7D
100
AcDbEntity
  8
1
 62
     1
100
AcDbMText
 10
-369.0
 20
410.7500000006598
 30
0.0
 40
3.5
 41
0.0
 46
0.0
 71
     2
 72
     1
  1
 
  7
CONVERTER_11
 73
     1
 44
1.32052821128451
  0
DIMENSION
  5
11B
330
7D
100
AcDbEntity
  8
1
100
AcDbDimension
280
     0
  2
*D16
 10
-441.5
 20
398.50974730015
 30
0.0
 11
-353.844597020939
 21
403.00974730015
 31
0.0
 70
    32
  1
<>
 71
     5
 42
-1.0
 73
     0
 74
     0
 75
     0
 53
0.00013888888889
  3
ME10_DIM_10
100
AcDbAlignedDimension
 13
-296.5
 23
419.7500000013158
 33
0.0
 14
-441.5
 24
419.7500000013158
 34
0.0
100
AcDbRotatedDimension
  0
DIMENSION
  5
126
330
7D
100
AcDbEntity
  8
1
100
AcDbDimension
280
     0
  2
*D17
 10
-265.644737672287
 20
415.7500000013159
 30
0.0
 11
-270.144737672287
 21
525.502777574967
 31
0.0
 70
    32
  1
<>
 71
     5
 42
-1.0
 73
     0
 74
     0
 75
     0
 53
90.0
  3
ME10_DIM_11
100
AcDbAlignedDimension
 13
-296.6999999999995
 23
634.2500000013158
 33
0.0
 14
-297.5717967697245
 24
415.7500000013159
 34
0.0
 50
90.0
100
AcDbRotatedDimension
  0
DIMENSION
  5
132
330
7D
100
AcDbEntity
  8
1
100
AcDbDimension
280
     0
  2
*D18
 10
-279.240803059305
 20
615.7500000013159
 30
0.0
 11
-283.740803059305
 21
603.2796998855
 31
0.0
 70
    32
  1
<>
 71
     5
 42
-1.0
 73
     0
 74
     0
 75
     0
 53
90.0
  3
ME10_DIM_12
100
AcDbAlignedDimension
 13
-296.6999999999995
 23
634.2500000013158
 33
0.0
 14
-294.0
 24
615.7500000013159
 34
0.0
 50
90.0
100
AcDbRotatedDimension
  0
DIMENSION
  5
13D
330
7D
100
AcDbEntity
  8
1
100
AcDbDimension
280
     0
  2
*D19
 10
-444.2999999999998
 20
648.771808763604
 30
0.0
 11
-369.502599181455
 21
653.271808763604
 31
0.0
 70
    32
  1
150x150
 71
     5
 42
-1.0
 73
     0
 74
     0
 75
     0
 53
0.00013888888889
  3
ME10_DIM_13
100
AcDbAlignedDimension
 13
-293.6999999999995
 23
631.7500000013158
 33
0.0
 14
-444.2999999999998
 24
631.7500000013158
 34
0.0
100
AcDbRotatedDimension
  0
ENDBLK
  5
80
330
7D
100
AcDbEntity
  8
0
100
AcDbBlockEnd
  0
BLOCK
  5
82
330
81
100
AcDbEntity
  8
0
100
AcDbBlockBegin
  2
HL066_1E
 70
     0
 10
-438.0000000000001
 20
231.2499999999999
 30
0.0
  3
HL066_1E
  1

  0
LINE
  5
13E
330
81
100
AcDbEntity
  8
0
  6
Continuous
 62
     7
100
AcDbLine
 10
-368.6450323958445
 20
296.3594984899116
 30
0.0
 11
-366.8786796564405
 21
294.5931457505076
 31
0.0
  0
LINE
  5
13F
330
81
100
AcDbEntity
  8
0
  6
Continuous
 62
     7
100
AcDbLine
 10
-374.05
 20
277.2499999999999
 30
0.0
 11
-363.9499999999999
 21
277.25
 31
0.0
  0
LINE
  5
140
330
81
100
AcDbEntity
  8
0
  6
Continuous
 62
     7
100
AcDbLine
 10
-363.9499999999999
 20
284.75
 30
0.0
 11
-374.05
 21
284.7499999999999
 31
0.0
  0
LINE
  5
141
330
81
100
AcDbEntity
  8
0
  6
Continuous
 62
     7
100
AcDbLine
 10
-367.585786437627
 20
293.8860389693211
 30
0.0
 11
-369.7071067811866
 21
296.0073593128807
 31
0.0
  0
LINE
  5
142
330
81
100
AcDbEntity
  8
0
  6
Continuous
 62
     7
100
AcDbLine
 10
-345.9999999999999
 20
295.2000000000002
 30
0.0
 11
-346.0000000000001
 21
305.3000000000001
 31
0.0
  0
LINE
  5
143
330
81
100
AcDbEntity
  8
0
  6
Continuous
 62
     7
100
AcDbLine
 10
-353.5000000000001
 20
305.3000000000001
 30
0.0
 11
-353.4999999999999
 21
295.2000000000001
 31
0.0
  0
LINE
  5
144
330
81
100
AcDbEntity
  8
0
  6
Continuous
 62
     7
100
AcDbLine
 10
-329.4999999999999
 20
279.1000000000003
 30
0.0
 11
-329.5000000000001
 21
321.4000000000003
 31
0.0
  0
LINE
  5
145
330
81
100
AcDbEntity
  8
0
  6
Continuous
 62
     7
100
AcDbLine
 10
-337.0000000000001
 20
321.4000000000002
 30
0.0
 11
-336.9999999999999
 21
279.1000000000002
 31
0.0
  0
LINE
  5
146
330
81
100
AcDbEntity
  8
0
  6
Continuous
 62
     7
100
AcDbLine
 10
-320.5000000000002
 20
337.5000000000003
 30
0.0
 11
-320.4999999999998
 21
263.0000000000003
 31
0.0
  0
LINE
  5
147
330
81
100
AcDbEntity
  8
0
  6
Continuous
 62
     7
100
AcDbLine
 10
-347.8499999999999
 20
268.2500000000001
 30
0.0
 11
-390.1499999999999
 21
268.2499999999999
 31
0.0
  0
LINE
  5
148
330
81
100
AcDbEntity
  8
0
  6
Continuous
 62
     7
100
AcDbLine
 10
-390.1499999999999
 20
260.7499999999999
 30
0.0
 11
-347.8499999999999
 21
260.7500000000001
 31
0.0
  0
LINE
  5
149
330
81
100
AcDbEntity
  8
0
  6
Continuous
 62
     7
100
AcDbLine
 10
-406.2499999999998
 20
244.2499999999998
 30
0.0
 11
-331.7499999999998
 21
244.2500000000001
 31
0.0
  0
LINE
  5
14A
330
81
100
AcDbEntity
  8
0
  6
Continuous
 62
     7
100
AcDbLine
 10
-331.7499999999999
 20
251.7500000000001
 30
0.0
 11
-406.2499999999999
 21
251.7499999999998
 31
0.0
  0
LINE
  5
14B
330
81
100
AcDbEntity
  8
0
  6
Continuous
 62
     7
100
AcDbLine
 10
-390.1500000000003
 20
332.2499999999998
 30
0.0
 11
-347.8500000000004
 21
332.2500000000002
 31
0.0
  0
LINE
  5
14C
330
81
100
AcDbEntity
  8
0
  6
Continuous
 62
     7
100
AcDbLine
 10
-347.8500000000005
 20
339.7500000000002
 30
0.0
 11
-390.1500000000004
 21
339.7499999999998
 31
0.0
  0
LINE
  5
14D
330
81
100
AcDbEntity
  8
0
  6
Continuous
 62
     7
100
AcDbLine
 10
-312.9999999999998
 20
263.0000000000004
 30
0.0
 11
-313.0000000000002
 21
337.5000000000004
 31
0.0
  0
LINE
  5
14E
330
81
100
AcDbEntity
  8
0
  6
Continuous
 62
     3
100
AcDbLine
 10
-301.0000000000001
 20
234.25
 30
0.0
 11
-301.0000000000001
 21
366.25
 31
0.0
  0
LINE
  5
14F
330
81
100
AcDbEntity
  8
0
  6
Continuous
 62
     7
100
AcDbLine
 10
-300.0000000000001
 20
366.25
 30
0.0
 11
-300.0000000000001
 21
234.25
 31
0.0
  0
LINE
  5
150
330
81
100
AcDbEntity
  8
0
  6
Continuous
 62
     3
100
AcDbLine
 10
-301.0000000000001
 20
234.25
 30
0.0
 11
-300.0000000000001
 21
234.25
 31
0.0
  0
LINE
  5
151
330
81
100
AcDbEntity
  8
0
  6
Continuous
 62
     7
100
AcDbLine
 10
-438.0000000000001
 20
234.2499999999999
 30
0.0
 11
-438.0000000000001
 21
366.25
 31
0.0
  0
LINE
  5
152
330
81
100
AcDbEntity
  8
0
  6
Continuous
 62
     3
100
AcDbLine
 10
-437.0000000000001
 20
366.2499999999999
 30
0.0
 11
-437.0000000000001
 21
234.2499999999999
 31
0.0
  0
LINE
  5
153
330
81
100
AcDbEntity
  8
0
  6
Continuous
 62
     3
100
AcDbLine
 10
-435.0000000000001
 20
232.2499999999999
 30
0.0
 11
-303.0000000000001
 21
232.25
 31
0.0
  0
LINE
  5
154
330
81
100
AcDbEntity
  8
0
  6
Continuous
 62
     7
100
AcDbLine
 10
-303.0000000000001
 20
231.25
 30
0.0
 11
-435.0000000000001
 21
231.2499999999999
 31
0.0
  0
LINE
  5
155
330
81
100
AcDbEntity
  8
0
  6
Continuous
 62
     3
100
AcDbLine
 10
-303.0000000000001
 20
231.25
 30
0.0
 11
-303.0000000000001
 21
232.25
 31
0.0
  0
LINE
  5
156
330
81
100
AcDbEntity
  8
0
  6
Continuous
 62
     3
100
AcDbLine
 10
-435.0000000000001
 20
231.2499999999999
 30
0.0
 11
-435.0000000000001
 21
232.2499999999999
 31
0.0
  0
LINE
  5
157
330
81
100
AcDbEntity
  8
0
  6
Continuous
 62
     7
100
AcDbLine
 10
-371.8284271247462
 20
298.8357864376269
 30
0.0
 11
-370.4142135623731
 21
300.25
 31
0.0
  0
LINE
  5
158
330
81
100
AcDbEntity
  8
0
  6
Continuous
 62
     7
100
AcDbLine
 10
-370.97848477376
 20
302.9355915549465
 30
0.0
 11
-369.7071067811866
 21
301.6642135623731
 31
0.0
  0
LINE
  5
159
330
81
100
AcDbEntity
  8
0
  6
Continuous
 62
     7
100
AcDbLine
 10
-369.5642712113869
 20
305.0569118985062
 30
0.0
 11
-370.97848477376
 21
303.6426983361331
 31
0.0
  0
LINE
  5
15A
330
81
100
AcDbEntity
  8
0
  6
Continuous
 62
     7
100
AcDbLine
 10
-374.5154328932551
 20
301.5227922061358
 30
0.0
 11
-370.2727922061358
 21
305.7654328932551
 31
0.0
  0
LINE
  5
15B
330
81
100
AcDbEntity
  8
0
  6
Continuous
 62
     7
100
AcDbLine
 10
-370.4142135623731
 20
300.9571067811866
 30
0.0
 11
-371.6855915549465
 21
302.22848477376
 31
0.0
  0
LINE
  5
15C
330
81
100
AcDbEntity
  8
0
  6
Continuous
 62
     7
100
AcDbLine
 10
-372.3926983361332
 20
302.22848477376
 30
0.0
 11
-373.8069118985063
 21
300.8142712113869
 31
0.0
  0
LINE
  5
15D
330
81
100
AcDbEntity
  8
0
  6
Continuous
 62
     7
100
AcDbLine
 10
-369.0000000000001
 20
301.6642135623731
 30
0.0
 11
-367.585786437627
 21
303.0784271247462
 31
0.0
  0
LINE
  5
15E
330
81
100
AcDbEntity
  8
0
  6
Continuous
 62
     7
100
AcDbLine
 10
-369.7071067811866
 20
296.7144660940673
 30
0.0
 11
-365.4644660940673
 21
300.9571067811866
 31
0.0
  0
LINE
  5
15F
330
81
100
AcDbEntity
  8
0
  6
Continuous
 62
     7
100
AcDbLine
 10
-364.7559450993184
 20
300.2485857864377
 30
0.0
 11
-368.6450323958445
 21
296.3594984899116
 31
0.0
  0
LINE
  5
160
330
81
100
AcDbEntity
  8
0
  6
Continuous
 62
     7
100
AcDbLine
 10
-384.5000000000001
 20
295.2
 30
0.0
 11
-384.5000000000001
 21
305.3
 31
0.0
  0
LINE
  5
161
330
81
100
AcDbEntity
  8
0
  6
Continuous
 62
     7
100
AcDbLine
 10
-374.0500000000002
 20
315.7499999999999
 30
0.0
 11
-363.9500000000002
 21
315.7500000000001
 31
0.0
  0
LINE
  5
162
330
81
100
AcDbEntity
  8
0
  6
Continuous
 62
     7
100
AcDbLine
 10
-363.9500000000003
 20
323.2500000000001
 30
0.0
 11
-374.0500000000002
 21
323.2499999999999
 31
0.0
  0
LINE
  5
163
330
81
100
AcDbEntity
  8
0
  6
Continuous
 62
     7
100
AcDbLine
 10
-366.8786796564405
 20
302.3713203435597
 30
0.0
 11
-371.1213203435597
 21
298.1286796564404
 31
0.0
  0
LINE
  5
164
330
81
100
AcDbEntity
  8
0
  6
Continuous
 62
     7
100
AcDbLine
 10
-406.2500000000006
 20
348.7499999999996
 30
0.0
 11
-331.7500000000006
 21
348.7500000000004
 31
0.0
  0
LINE
  5
165
330
81
100
AcDbEntity
  8
0
  6
Continuous
 62
     7
100
AcDbLine
 10
-331.7500000000007
 20
356.2500000000004
 30
0.0
 11
-406.2500000000007
 21
356.2499999999996
 31
0.0
  0
LINE
  5
166
330
81
100
AcDbEntity
  8
0
  6
Continuous
 62
     3
100
AcDbLine
 10
-438.0000000000001
 20
366.25
 30
0.0
 11
-437.0000000000001
 21
366.2499999999999
 31
0.0
  0
LINE
  5
167
330
81
100
AcDbEntity
  8
0
  6
Continuous
 62
     3
100
AcDbLine
 10
-301.0000000000001
 20
366.25
 30
0.0
 11
-300.0000000000001
 21
366.25
 31
0.0
  0
LINE
  5
168
330
81
100
AcDbEntity
  8
0
  6
Continuous
 62
     3
100
AcDbLine
 10
-435.0000000000001
 20
368.25
 30
0.0
 11
-435.0000000000001
 21
369.25
 31
0.0
  0
LINE
  5
169
330
81
100
AcDbEntity
  8
0
  6
Continuous
 62
     3
100
AcDbLine
 10
-303.0000000000001
 20
368.25
 30
0.0
 11
-435.0000000000001
 21
368.25
 31
0.0
  0
LINE
  5
16A
330
81
100
AcDbEntity
  8
0
  6
Continuous
 62
     3
100
AcDbLine
 10
-303.0000000000001
 20
368.25
 30
0.0
 11
-303.0000000000001
 21
369.25
 31
0.0
  0
LINE
  5
16B
330
81
100
AcDbEntity
  8
0
  6
Continuous
 62
     7
100
AcDbLine
 10
-435.0000000000001
 20
369.25
 30
0.0
 11
-303.0000000000001
 21
369.25
 31
0.0
  0
LINE
  5
16C
330
81
100
AcDbEntity
  8
0
  6
Continuous
 62
     7
100
AcDbLine
 10
-392.0000000000001
 20
305.3
 30
0.0
 11
-392.0000000000001
 21
295.2
 31
0.0
  0
LINE
  5
16D
330
81
100
AcDbEntity
  8
0
  6
Continuous
 62
     7
100
AcDbLine
 10
-401.0000000000001
 20
279.1
 30
0.0
 11
-401.0000000000001
 21
321.4
 31
0.0
  0
LINE
  5
16E
330
81
100
AcDbEntity
  8
0
  6
Continuous
 62
     7
100
AcDbLine
 10
-408.5000000000001
 20
321.4
 30
0.0
 11
-408.5000000000001
 21
279.1
 31
0.0
  0
LINE
  5
16F
330
81
100
AcDbEntity
  8
0
  6
Continuous
 62
     3
100
AcDbLine
 10
-438.0000000000001
 20
234.2499999999999
 30
0.0
 11
-437.0000000000001
 21
234.2499999999999
 31
0.0
  0
LINE
  5
170
330
81
100
AcDbEntity
  8
0
  6
Continuous
 62
     7
100
AcDbLine
 10
-425.0000000000001
 20
337.4999999999999
 30
0.0
 11
-425.0000000000001
 21
262.9999999999999
 31
0.0
  0
LINE
  5
171
330
81
100
AcDbEntity
  8
0
  6
Continuous
 62
     7
100
AcDbLine
 10
-417.5000000000001
 20
262.9999999999999
 30
0.0
 11
-417.5000000000001
 21
337.4999999999999
 31
0.0
  0
LINE
  5
172
330
81
100
AcDbEntity
  8
1
  6
DOT_CENTER
 62
     2
100
AcDbLine
 10
-421.95
 20
359.2499999999999
 30
0.0
 11
-434.0500000000001
 21
359.2499999999999
 31
0.0
  0
LINE
  5
173
330
81
100
AcDbEntity
  8
1
  6
DOT_CENTER
 62
     2
100
AcDbLine
 10
-428.0000000000001
 20
365.3
 30
0.0
 11
-428.0000000000001
 21
353.1999999999999
 31
0.0
  0
LINE
  5
174
330
81
100
AcDbEntity
  8
1
  6
DOT_CENTER
 62
     2
100
AcDbLine
 10
-303.9499999999996
 20
241.2500000000004
 30
0.0
 11
-316.0499999999997
 21
241.2500000000004
 31
0.0
  0
LINE
  5
175
330
81
100
AcDbEntity
  8
1
  6
DOT_CENTER
 62
     2
100
AcDbLine
 10
-309.9999999999997
 20
247.3000000000004
 30
0.0
 11
-309.9999999999997
 21
235.2000000000004
 31
0.0
  0
ARC
  5
176
330
81
100
AcDbEntity
  8
0
  6
Continuous
 62
     7
100
AcDbCircle
 10
-367.2322330470337
 20
294.2395923599144
 30
0.0
 40
0.5000000000000844
100
AcDbArc
 50
225.0
 51
45.0
  0
ARC
  5
177
330
81
100
AcDbEntity
  8
0
  6
Continuous
 62
     7
100
AcDbCircle
 10
-388.2500000000001
 20
295.2
 30
0.0
 40
3.75
100
AcDbArc
 50
180.0
 51
0.0
  0
ARC
  5
178
330
81
100
AcDbEntity
  8
0
  6
Continuous
 62
     7
100
AcDbCircle
 10
-363.9499999999999
 20
281.0
 30
0.0
 40
3.75
100
AcDbArc
 50
270.0
 51
90.0
  0
ARC
  5
179
330
81
100
AcDbEntity
  8
0
  6
Continuous
 62
     7
100
AcDbCircle
 10
-374.05
 20
280.9999999999999
 30
0.0
 40
3.75
100
AcDbArc
 50
90.0
 51
270.0
  0
ARC
  5
17A
330
81
100
AcDbEntity
  8
0
  6
Continuous
 62
     7
100
AcDbCircle
 10
-349.7499999999999
 20
295.2000000000001
 30
0.0
 40
3.75
100
AcDbArc
 50
180.0
 51
0.00000000000174
  0
ARC
  5
17B
330
81
100
AcDbEntity
  8
0
  6
Continuous
 62
     7
100
AcDbCircle
 10
-333.2500000000001
 20
321.4000000000002
 30
0.0
 40
3.75
100
AcDbArc
 50
0.00000000000174
 51
180.0
  0
ARC
  5
17C
330
81
100
AcDbEntity
  8
0
  6
Continuous
 62
     7
100
AcDbCircle
 10
-349.7500000000001
 20
305.3000000000001
 30
0.0
 40
3.75
100
AcDbArc
 50
0.0
 51
180.0
  0
ARC
  5
17D
330
81
100
AcDbEntity
  8
0
  6
Continuous
 62
     7
100
AcDbCircle
 10
-347.8499999999999
 20
264.5000000000001
 30
0.0
 40
3.75
100
AcDbArc
 50
270.0
 51
90.0
  0
ARC
  5
17E
330
81
100
AcDbEntity
  8
0
  6
Continuous
 62
     7
100
AcDbCircle
 10
-333.2499999999999
 20
279.1000000000003
 30
0.0
 40
3.75
100
AcDbArc
 50
180.0000000000017
 51
0.0
  0
ARC
  5
17F
330
81
100
AcDbEntity
  8
0
  6
Continuous
 62
     7
100
AcDbCircle
 10
-331.7499999999999
 20
248.0000000000001
 30
0.0
 40
3.75
100
AcDbArc
 50
270.0000000000017
 51
90.0
  0
ARC
  5
180
330
81
100
AcDbEntity
  8
0
  6
Continuous
 62
     7
100
AcDbCircle
 10
-316.7499999999998
 20
263.0000000000003
 30
0.0
 40
3.75
100
AcDbArc
 50
180.0
 51
0.00000000000174
  0
ARC
  5
181
330
81
100
AcDbEntity
  8
0
  6
Continuous
 62
     7
100
AcDbCircle
 10
-316.7500000000002
 20
337.5000000000003
 30
0.0
 40
3.75
100
AcDbArc
 50
0.00000000000174
 51
180.0
  0
ARC
  5
182
330
81
100
AcDbEntity
  8
0
  6
Continuous
 62
     7
100
AcDbCircle
 10
-331.7500000000006
 20
352.5000000000004
 30
0.0
 40
3.75
100
AcDbArc
 50
270.0
 51
90.00000000000088
  0
ARC
  5
183
330
81
100
AcDbEntity
  8
0
  6
Continuous
 62
     7
100
AcDbCircle
 10
-347.8500000000004
 20
336.0000000000002
 30
0.0
 40
3.75
100
AcDbArc
 50
270.0
 51
90.00000000000088
  0
ARC
  5
184
330
81
100
AcDbEntity
  8
0
  6
Continuous
 62
     3
100
AcDbCircle
 10
-303.0000000000001
 20
234.25
 30
0.0
 40
2.0
100
AcDbArc
 50
270.0
 51
0.0
  0
ARC
  5
185
330
81
100
AcDbEntity
  8
0
  6
Continuous
 62
     7
100
AcDbCircle
 10
-303.0000000000001
 20
234.25
 30
0.0
 40
3.0
100
AcDbArc
 50
270.0
 51
0.0
  0
ARC
  5
186
330
81
100
AcDbEntity
  8
0
  6
Continuous
 62
     3
100
AcDbCircle
 10
-435.0000000000001
 20
234.2499999999999
 30
0.0
 40
2.0
100
AcDbArc
 50
180.0
 51
270.0
  0
ARC
  5
187
330
81
100
AcDbEntity
  8
0
  6
Continuous
 62
     7
100
AcDbCircle
 10
-435.0000000000001
 20
234.2499999999999
 30
0.0
 40
3.0
100
AcDbArc
 50
180.0
 51
270.0
  0
ARC
  5
188
330
81
100
AcDbEntity
  8
0
  6
Continuous
 62
     7
100
AcDbCircle
 10
-369.9192374041546
 20
305.4104652919166
 30
0.0
 40
0.5010000000000143
100
AcDbArc
 50
315.1142485469273
 51
45.11447681604902
  0
ARC
  5
189
330
81
100
AcDbEntity
  8
0
  6
Continuous
 62
     7
100
AcDbCircle
 10
-369.3535533905933
 20
296.360912703474
 30
0.0
 40
0.5000000000000442
100
AcDbArc
 50
135.0000000000046
 51
225.0
  0
ARC
  5
18A
330
81
100
AcDbEntity
  8
0
  6
Continuous
 62
     7
100
AcDbCircle
 10
-374.1604652919166
 20
301.1692374041546
 30
0.0
 40
0.5009999999999885
100
AcDbArc
 50
224.885523183951
 51
314.8857514530634
  0
ARC
  5
18B
330
81
100
AcDbEntity
  8
0
  6
Continuous
 62
     7
100
AcDbCircle
 10
-371.4748737341529
 20
298.4822330470336
 30
0.0
 40
0.5000000000000442
100
AcDbArc
 50
135.0000000000046
 51
314.9999999999953
  0
ARC
  5
18C
330
81
100
AcDbEntity
  8
0
  6
Continuous
 62
     7
100
AcDbCircle
 10
-372.0391449455399
 20
301.8749313831667
 30
0.0
 40
0.5000000000000844
100
AcDbArc
 50
44.99999999999078
 51
135.0000000000046
  0
ARC
  5
18D
330
81
100
AcDbEntity
  8
0
  6
Continuous
 62
     7
100
AcDbCircle
 10
-370.6249313831668
 20
303.2891449455398
 30
0.0
 40
0.4999999999999237
100
AcDbArc
 50
134.9999999999908
 51
225.0000000000138
  0
ARC
  5
18E
330
81
100
AcDbEntity
  8
0
  6
Continuous
 62
     7
100
AcDbCircle
 10
-370.7677669529664
 20
300.6035533905933
 30
0.0
 40
0.500000000000004
100
AcDbArc
 50
315.0
 51
45.0000000000046
  0
ARC
  5
18F
330
81
100
AcDbEntity
  8
0
  6
Continuous
 62
     7
100
AcDbCircle
 10
-369.3535533905933
 20
302.0177669529664
 30
0.0
 40
0.5000000000000442
100
AcDbArc
 50
224.9999999999954
 51
314.9999999999908
  0
ARC
  5
190
330
81
100
AcDbEntity
  8
0
  6
Continuous
 62
     7
100
AcDbCircle
 10
-374.1618795026618
 20
301.1692388155425
 30
0.0
 40
0.5000000000000442
100
AcDbArc
 50
134.9999999999954
 51
224.9999999999908
  0
ARC
  5
191
330
81
100
AcDbEntity
  8
0
  6
Continuous
 62
     7
100
AcDbCircle
 10
-367.2322330470337
 20
302.7248737341529
 30
0.0
 40
0.4999999999998432
100
AcDbArc
 50
315.0
 51
135.0
  0
ARC
  5
192
330
81
100
AcDbEntity
  8
0
  6
Continuous
 62
     7
100
AcDbCircle
 10
-365.1109127006569
 20
300.6021405884189
 30
0.0
 40
0.5010000000000286
100
AcDbArc
 50
44.88552318395559
 51
134.8857514530727
  0
ARC
  5
193
330
81
100
AcDbEntity
  8
0
  6
Continuous
 62
     7
100
AcDbCircle
 10
-365.1094984899116
 20
300.6021391770309
 30
0.0
 40
0.4999999999998834
100
AcDbArc
 50
314.9999999999953
 51
45.00000000001382
  0
ARC
  5
194
330
81
100
AcDbEntity
  8
0
  6
Continuous
 62
     7
100
AcDbCircle
 10
-369.9192388155425
 20
305.4118795026618
 30
0.0
 40
0.4999999999999237
100
AcDbArc
 50
45.00000000000922
 51
135.0000000000046
  0
ARC
  5
195
330
81
100
AcDbEntity
  8
0
  6
Continuous
 62
     7
100
AcDbCircle
 10
-363.9500000000002
 20
319.5000000000001
 30
0.0
 40
3.75
100
AcDbArc
 50
270.0
 51
90.00000000000088
  0
ARC
  5
196
330
81
100
AcDbEntity
  8
0
  6
Continuous
 62
     7
100
AcDbCircle
 10
-374.0500000000002
 20
319.4999999999999
 30
0.0
 40
3.75
100
AcDbArc
 50
90.0
 51
270.0
  0
ARC
  5
197
330
81
100
AcDbEntity
  8
0
  6
Continuous
 62
     7
100
AcDbCircle
 10
-388.2500000000001
 20
305.3
 30
0.0
 40
3.75
100
AcDbArc
 50
0.0
 51
180.0
  0
ARC
  5
198
330
81
100
AcDbEntity
  8
0
  6
Continuous
 62
     7
100
AcDbCircle
 10
-435.0000000000001
 20
366.2499999999999
 30
0.0
 40
3.000000000000114
100
AcDbArc
 50
90.0
 51
179.9999999999978
  0
ARC
  5
199
330
81
100
AcDbEntity
  8
0
  6
Continuous
 62
     3
100
AcDbCircle
 10
-303.0000000000001
 20
366.25
 30
0.0
 40
2.0
100
AcDbArc
 50
0.0
 51
90.0
  0
ARC
  5
19A
330
81
100
AcDbEntity
  8
0
  6
Continuous
 62
     7
100
AcDbCircle
 10
-303.0000000000001
 20
366.25
 30
0.0
 40
3.0
100
AcDbArc
 50
0.0
 51
90.0
  0
ARC
  5
19B
330
81
100
AcDbEntity
  8
0
  6
Continuous
 62
     3
100
AcDbCircle
 10
-435.0000000000001
 20
366.2499999999999
 30
0.0
 40
2.000000000000114
100
AcDbArc
 50
90.0
 51
180.0
  0
ARC
  5
19C
330
81
100
AcDbEntity
  8
0
  6
Continuous
 62
     7
100
AcDbCircle
 10
-404.7500000000001
 20
321.4
 30
0.0
 40
3.75
100
AcDbArc
 50
0.0
 51
180.0
  0
ARC
  5
19D
330
81
100
AcDbEntity
  8
0
  6
Continuous
 62
     7
100
AcDbCircle
 10
-406.2499999999999
 20
247.9999999999998
 30
0.0
 40
3.75
100
AcDbArc
 50
90.0
 51
270.0000000000017
  0
ARC
  5
19E
330
81
100
AcDbEntity
  8
0
  6
Continuous
 62
     7
100
AcDbCircle
 10
-406.2500000000006
 20
352.4999999999996
 30
0.0
 40
3.75
100
AcDbArc
 50
90.00000000000088
 51
270.0
  0
ARC
  5
19F
330
81
100
AcDbEntity
  8
0
  6
Continuous
 62
     7
100
AcDbCircle
 10
-390.1500000000003
 20
335.9999999999998
 30
0.0
 40
3.75
100
AcDbArc
 50
90.00000000000088
 51
270.0
  0
ARC
  5
1A0
330
81
100
AcDbEntity
  8
0
  6
Continuous
 62
     7
100
AcDbCircle
 10
-404.7500000000001
 20
279.1
 30
0.0
 40
3.75
100
AcDbArc
 50
180.0
 51
0.0
  0
ARC
  5
1A1
330
81
100
AcDbEntity
  8
0
  6
Continuous
 62
     7
100
AcDbCircle
 10
-390.1499999999999
 20
264.4999999999999
 30
0.0
 40
3.75
100
AcDbArc
 50
90.0
 51
270.0
  0
ARC
  5
1A2
330
81
100
AcDbEntity
  8
0
  6
Continuous
 62
     7
100
AcDbCircle
 10
-421.2500000000001
 20
262.9999999999999
 30
0.0
 40
3.75
100
AcDbArc
 50
180.0
 51
0.0
  0
ARC
  5
1A3
330
81
100
AcDbEntity
  8
0
  6
Continuous
 62
     7
100
AcDbCircle
 10
-421.2500000000001
 20
337.4999999999999
 30
0.0
 40
3.75
100
AcDbArc
 50
0.0
 51
180.0
  0
CIRCLE
  5
1A4
330
81
100
AcDbEntity
  8
0
  6
Continuous
 62
     7
100
AcDbCircle
 10
-309.9999999999997
 20
241.2500000000004
 30
0.0
 40
5.5
  0
CIRCLE
  5
1A5
330
81
100
AcDbEntity
  8
0
  6
Continuous
 62
     7
100
AcDbCircle
 10
-428.0000000000001
 20
359.2499999999999
 30
0.0
 40
5.5
  0
ENDBLK
  5
83
330
81
100
AcDbEntity
  8
0
100
AcDbBlockEnd
  0
BLOCK
  5
85
330
84
100
AcDbEntity
  8
0
100
AcDbBlockBegin
  2
995901889_1
 70
     0
 10
-315.6500000000004
 20
235.5999999999996
 30
0.0
  3
995901889_1
  1

  0
LINE
  5
1A6
330
84
100
AcDbEntity
  8
0
  6
Continuous
 62
     7
100
AcDbLine
 10
-309.2900000000004
 20
237.9499999999996
 30
0.0
 11
-310.7100000000004
 21
237.9499999999996
 31
0.0
  0
LINE
  5
1A7
330
84
100
AcDbEntity
  8
0
  6
Continuous
 62
     7
100
AcDbLine
 10
-310.7100000000004
 20
244.5499999999996
 30
0.0
 11
-309.2900000000004
 21
244.5499999999996
 31
0.0
  0
LINE
  5
1A8
330
84
100
AcDbEntity
  8
0
  6
Continuous
 62
     7
100
AcDbLine
 10
-309.2900000000004
 20
239.670106260128
 30
0.0
 11
-310.7100000000004
 21
239.670106260128
 31
0.0
  0
LINE
  5
1A9
330
84
100
AcDbEntity
  8
0
  6
Continuous
 62
     7
100
AcDbLine
 10
-310.7100000000004
 20
242.8298937398712
 30
0.0
 11
-309.2900000000004
 21
242.8298937398712
 31
0.0
  0
LINE
  5
1AA
330
84
100
AcDbEntity
  8
0
  6
Continuous
 62
     7
100
AcDbLine
 10
-313.3000000000004
 20
241.9599999999997
 30
0.0
 11
-311.579893739872
 21
241.9599999999996
 31
0.0
  0
LINE
  5
1AB
330
84
100
AcDbEntity
  8
0
  6
Continuous
 62
     7
100
AcDbLine
 10
-310.7100000000004
 20
242.8298937398712
 30
0.0
 11
-310.7100000000004
 21
244.5499999999996
 31
0.0
  0
LINE
  5
1AC
330
84
100
AcDbEntity
  8
0
  6
Continuous
 62
     7
100
AcDbLine
 10
-310.7100000000004
 20
242.5959626508276
 30
0.0
 11
-310.7100000000004
 21
242.8298937398712
 31
0.0
  0
LINE
  5
1AD
330
84
100
AcDbEntity
  8
0
  6
Continuous
 62
     7
100
AcDbLine
 10
-310.7100000000004
 20
242.3156360776547
 30
0.0
 11
-310.7100000000004
 21
242.5959626508276
 31
0.0
  0
LINE
  5
1AE
330
84
100
AcDbEntity
  8
0
  6
Continuous
 62
     7
100
AcDbLine
 10
-311.3459626508285
 20
241.9599999999996
 30
0.0
 11
-311.0656360776554
 21
241.9599999999996
 31
0.0
  0
LINE
  5
1AF
330
84
100
AcDbEntity
  8
0
  6
Continuous
 62
     7
100
AcDbLine
 10
-310.7100000000004
 20
239.9040373491717
 30
0.0
 11
-310.7100000000004
 21
240.1843639223446
 31
0.0
  0
LINE
  5
1B0
330
84
100
AcDbEntity
  8
0
  6
Continuous
 62
     7
100
AcDbLine
 10
-310.7100000000004
 20
239.670106260128
 30
0.0
 11
-310.7100000000004
 21
239.9040373491717
 31
0.0
  0
LINE
  5
1B1
330
84
100
AcDbEntity
  8
0
  6
Continuous
 62
     7
100
AcDbLine
 10
-310.7100000000004
 20
237.9499999999996
 30
0.0
 11
-310.7100000000004
 21
239.670106260128
 31
0.0
  0
LINE
  5
1B2
330
84
100
AcDbEntity
  8
0
  6
Continuous
 62
     7
100
AcDbLine
 10
-311.579893739872
 20
240.5399999999996
 30
0.0
 11
-313.3000000000004
 21
240.5399999999997
 31
0.0
  0
LINE
  5
1B3
330
84
100
AcDbEntity
  8
0
  6
Continuous
 62
     7
100
AcDbLine
 10
-311.0656360776554
 20
240.5399999999996
 30
0.0
 11
-311.3459626508285
 21
240.5399999999996
 31
0.0
  0
LINE
  5
1B4
330
84
100
AcDbEntity
  8
0
  6
Continuous
 62
     7
100
AcDbLine
 10
-311.3459626508285
 20
240.5399999999996
 30
0.0
 11
-311.579893739872
 21
240.5399999999996
 31
0.0
  0
LINE
  5
1B5
330
84
100
AcDbEntity
  8
0
  6
Continuous
 62
     7
100
AcDbLine
 10
-311.579893739872
 20
241.9599999999996
 30
0.0
 11
-311.3459626508285
 21
241.9599999999996
 31
0.0
  0
LINE
  5
1B6
330
84
100
AcDbEntity
  8
0
  6
Continuous
 62
     7
100
AcDbLine
 10
-311.579893739872
 20
240.5399999999996
 30
0.0
 11
-311.579893739872
 21
241.9599999999996
 31
0.0
  0
LINE
  5
1B7
330
84
100
AcDbEntity
  8
0
  6
Continuous
 62
     7
100
AcDbLine
 10
-313.3000000000004
 20
240.5399999999997
 30
0.0
 11
-313.3000000000004
 21
241.9599999999997
 31
0.0
  0
LINE
  5
1B8
330
84
100
AcDbEntity
  8
0
  6
Continuous
 62
     7
100
AcDbLine
 10
-309.2900000000004
 20
242.5959626508276
 30
0.0
 11
-309.2900000000004
 21
242.3156360776546
 31
0.0
  0
LINE
  5
1B9
330
84
100
AcDbEntity
  8
0
  6
Continuous
 62
     7
100
AcDbLine
 10
-309.2900000000004
 20
239.670106260128
 30
0.0
 11
-309.2900000000004
 21
237.9499999999996
 31
0.0
  0
LINE
  5
1BA
330
84
100
AcDbEntity
  8
0
  6
Continuous
 62
     7
100
AcDbLine
 10
-309.2900000000004
 20
242.8298937398712
 30
0.0
 11
-309.2900000000004
 21
242.5959626508276
 31
0.0
  0
LINE
  5
1BB
330
84
100
AcDbEntity
  8
0
  6
Continuous
 62
     7
100
AcDbLine
 10
-309.2900000000004
 20
244.5499999999996
 30
0.0
 11
-309.2900000000004
 21
242.8298937398712
 31
0.0
  0
LINE
  5
1BC
330
84
100
AcDbEntity
  8
0
  6
Continuous
 62
     7
100
AcDbLine
 10
-309.2900000000004
 20
239.9040373491716
 30
0.0
 11
-309.2900000000004
 21
239.670106260128
 31
0.0
  0
LINE
  5
1BD
330
84
100
AcDbEntity
  8
0
  6
Continuous
 62
     7
100
AcDbLine
 10
-309.2900000000004
 20
240.1843639223446
 30
0.0
 11
-309.2900000000004
 21
239.9040373491716
 31
0.0
  0
LINE
  5
1BE
330
84
100
AcDbEntity
  8
0
  6
Continuous
 62
     7
100
AcDbLine
 10
-308.9343639223454
 20
241.9599999999996
 30
0.0
 11
-308.6540373491724
 21
241.9599999999996
 31
0.0
  0
LINE
  5
1BF
330
84
100
AcDbEntity
  8
0
  6
Continuous
 62
     7
100
AcDbLine
 10
-308.6540373491724
 20
240.5399999999996
 30
0.0
 11
-308.9343639223454
 21
240.5399999999996
 31
0.0
  0
LINE
  5
1C0
330
84
100
AcDbEntity
  8
0
  6
Continuous
 62
     7
100
AcDbLine
 10
-308.4201062601288
 20
240.5399999999996
 30
0.0
 11
-308.6540373491724
 21
240.5399999999996
 31
0.0
  0
LINE
  5
1C1
330
84
100
AcDbEntity
  8
0
  6
Continuous
 62
     7
100
AcDbLine
 10
-308.6540373491724
 20
241.9599999999996
 30
0.0
 11
-308.4201062601288
 21
241.9599999999996
 31
0.0
  0
LINE
  5
1C2
330
84
100
AcDbEntity
  8
0
  6
Continuous
 62
     7
100
AcDbLine
 10
-308.4201062601288
 20
241.9599999999996
 30
0.0
 11
-306.7000000000004
 21
241.9599999999996
 31
0.0
  0
LINE
  5
1C3
330
84
100
AcDbEntity
  8
0
  6
Continuous
 62
     7
100
AcDbLine
 10
-306.7000000000004
 20
240.5399999999996
 30
0.0
 11
-308.4201062601288
 21
240.5399999999996
 31
0.0
  0
LINE
  5
1C4
330
84
100
AcDbEntity
  8
0
  6
Continuous
 62
     7
100
AcDbLine
 10
-308.4201062601288
 20
241.9599999999996
 30
0.0
 11
-308.4201062601288
 21
240.5399999999996
 31
0.0
  0
LINE
  5
1C5
330
84
100
AcDbEntity
  8
0
  6
Continuous
 62
     7
100
AcDbLine
 10
-306.7000000000004
 20
241.9599999999996
 30
0.0
 11
-306.7000000000004
 21
240.5399999999996
 31
0.0
  0
LINE
  5
1C6
330
84
100
AcDbEntity
  8
1
  6
DOT_CENTER
 62
     2
100
AcDbLine
 10
-303.7850000000005
 20
241.2499999999996
 30
0.0
 11
-316.2150000000004
 21
241.2499999999996
 31
0.0
  0
LINE
  5
1C7
330
84
100
AcDbEntity
  8
1
  6
DOT_CENTER
 62
     2
100
AcDbLine
 10
-310.0000000000005
 20
247.4649999999996
 30
0.0
 11
-310.0000000000005
 21
235.0349999999997
 31
0.0
  0
ARC
  5
1C8
330
84
100
AcDbEntity
  8
0
  6
Continuous
 62
     7
100
AcDbCircle
 10
-310.0000000000005
 20
241.2499999999996
 30
0.0
 40
1.280500000000026
100
AcDbArc
 50
56.32571990678031
 51
123.6742800932091
  0
ARC
  5
1C9
330
84
100
AcDbEntity
  8
0
  6
Continuous
 62
     7
100
AcDbCircle
 10
-310.0000000000005
 20
241.2499999999996
 30
0.0
 40
1.2804999999999
100
AcDbArc
 50
236.3257199067887
 51
303.6742800932197
  0
ARC
  5
1CA
330
84
100
AcDbEntity
  8
0
  6
Continuous
 62
     7
100
AcDbCircle
 10
-310.0000000000005
 20
241.2499999999996
 30
0.0
 40
1.280499999999971
100
AcDbArc
 50
123.6742800932091
 51
146.3257199067814
  0
ARC
  5
1CB
330
84
100
AcDbEntity
  8
0
  6
Continuous
 62
     7
100
AcDbCircle
 10
-310.0000000000005
 20
241.2499999999996
 30
0.0
 40
1.521747501205027
100
AcDbArc
 50
117.8118034455334
 51
152.1881965544614
  0
ARC
  5
1CC
330
84
100
AcDbEntity
  8
0
  6
Continuous
 62
     7
100
AcDbCircle
 10
-310.0000000000005
 20
241.2499999999996
 30
0.0
 40
1.280499999999908
100
AcDbArc
 50
213.6742800932186
 51
236.3257199067887
  0
ARC
  5
1CD
330
84
100
AcDbEntity
  8
0
  6
Continuous
 62
     7
100
AcDbCircle
 10
-310.0000000000005
 20
241.2499999999996
 30
0.0
 40
1.521747501205069
100
AcDbArc
 50
207.8118034455386
 51
242.1881965544651
  0
ARC
  5
1CE
330
84
100
AcDbEntity
  8
0
  6
Continuous
 62
     7
100
AcDbCircle
 10
-310.0000000000005
 20
241.2499999999996
 30
0.0
 40
1.280499999999908
100
AcDbArc
 50
146.3257199067814
 51
213.6742800932186
  0
ARC
  5
1CF
330
84
100
AcDbEntity
  8
0
  6
Continuous
 62
     7
100
AcDbCircle
 10
-310.0000000000005
 20
241.2499999999996
 30
0.0
 40
1.280500000000049
100
AcDbArc
 50
33.6742800932144
 51
56.32571990678031
  0
ARC
  5
1D0
330
84
100
AcDbEntity
  8
0
  6
Continuous
 62
     7
100
AcDbCircle
 10
-310.0000000000005
 20
241.2499999999996
 30
0.0
 40
1.521747501205169
100
AcDbArc
 50
27.81180344553664
 51
62.18819655445903
  0
ARC
  5
1D1
330
84
100
AcDbEntity
  8
0
  6
Continuous
 62
     7
100
AcDbCircle
 10
-310.0000000000005
 20
241.2499999999996
 30
0.0
 40
1.280500000000026
100
AcDbArc
 50
303.6742800932197
 51
326.3257199067856
  0
ARC
  5
1D2
330
84
100
AcDbEntity
  8
0
  6
Continuous
 62
     7
100
AcDbCircle
 10
-310.0000000000005
 20
241.2499999999996
 30
0.0
 40
1.521747501205134
100
AcDbArc
 50
297.811803445541
 51
332.1881965544633
  0
ARC
  5
1D3
330
84
100
AcDbEntity
  8
0
  6
Continuous
 62
     7
100
AcDbCircle
 10
-310.0000000000005
 20
241.2499999999996
 30
0.0
 40
1.280500000000049
100
AcDbArc
 50
326.3257199067856
 51
33.6742800932144
  0
CIRCLE
  5
1D4
330
84
100
AcDbEntity
  8
0
  6
Continuous
 62
     7
100
AcDbCircle
 10
-310.0000000000005
 20
241.2499999999996
 30
0.0
 40
5.649999999999864
  0
ENDBLK
  5
86
330
84
100
AcDbEntity
  8
0
100
AcDbBlockEnd
  0
BLOCK
  5
88
330
87
100
AcDbEntity
  8
0
100
AcDbBlockBegin
  2
309020146__5
 70
     0
 10
-445.5000000000001
 20
223.75
 30
0.0
  3
309020146__5
  1

  0
LINE
  5
1D5
330
87
100
AcDbEntity
  8
0
  6
Continuous
 62
     3
100
AcDbLine
 10
-298.5000000000001
 20
233.75
 30
0.0
 11
-297.0000000000001
 21
233.75
 31
0.0
  0
LINE
  5
1D6
330
87
100
AcDbEntity
  8
0
  6
Continuous
 62
     3
100
AcDbLine
 10
-296.2
 20
233.75
 30
0.0
 11
-294.7
 21
233.75
 31
0.0
  0
LINE
  5
1D7
330
87
100
AcDbEntity
  8
0
  6
Continuous
 62
     3
100
AcDbLine
 10
-302.5000000000001
 20
229.75
 30
0.0
 11
-302.5000000000001
 21
228.25
 31
0.0
  0
LINE
  5
1D8
330
87
100
AcDbEntity
  8
0
  6
Continuous
 62
     3
100
AcDbLine
 10
-302.5000000000001
 20
227.45
 30
0.0
 11
-302.5000000000001
 21
225.95
 31
0.0
  0
LINE
  5
1D9
330
87
100
AcDbEntity
  8
0
  6
Continuous
 62
     3
100
AcDbLine
 10
-302.5000000000001
 20
372.25
 30
0.0
 11
-302.5000000000001
 21
370.75
 31
0.0
  0
LINE
  5
1DA
330
87
100
AcDbEntity
  8
0
  6
Continuous
 62
     3
100
AcDbLine
 10
-296.2
 20
233.75
 30
0.0
 11
-296.2
 21
366.75
 31
0.0
  0
LINE
  5
1DB
330
87
100
AcDbEntity
  8
0
  6
Continuous
 62
     3
100
AcDbLine
 10
-297.0000000000001
 20
366.75
 30
0.0
 11
-297.0000000000001
 21
233.75
 31
0.0
  0
LINE
  5
1DC
330
87
100
AcDbEntity
  8
0
  6
Continuous
 62
     7
100
AcDbLine
 10
-292.5000000000001
 20
227.75
 30
0.0
 11
-292.5000000000001
 21
372.75
 31
0.0
  0
LINE
  5
1DD
330
87
100
AcDbEntity
  8
0
  6
Continuous
 62
     7
100
AcDbLine
 10
-293.6999999999999
 20
233.75
 30
0.0
 11
-293.7
 21
366.75
 31
0.0
  0
LINE
  5
1DE
330
87
100
AcDbEntity
  8
0
  6
Continuous
 62
     3
100
AcDbLine
 10
-296.2
 20
366.75
 30
0.0
 11
-294.7
 21
366.75
 31
0.0
  0
LINE
  5
1DF
330
87
100
AcDbEntity
  8
0
  6
Continuous
 62
     3
100
AcDbLine
 10
-298.5000000000001
 20
366.75
 30
0.0
 11
-297.0000000000001
 21
366.75
 31
0.0
  0
LINE
  5
1E0
330
87
100
AcDbEntity
  8
0
  6
Continuous
 62
     3
100
AcDbLine
 10
-441.8000000000001
 20
366.75
 30
0.0
 11
-441.8000000000001
 21
233.75
 31
0.0
  0
LINE
  5
1E1
330
87
100
AcDbEntity
  8
0
  6
Continuous
 62
     7
100
AcDbLine
 10
-445.5000000000001
 20
372.7499999999999
 30
0.0
 11
-445.5000000000001
 21
227.7499999999999
 31
0.0
  0
LINE
  5
1E2
330
87
100
AcDbEntity
  8
0
  6
Continuous
 62
     3
100
AcDbLine
 10
-441.0000000000001
 20
233.75
 30
0.0
 11
-441.0000000000001
 21
366.75
 31
0.0
  0
LINE
  5
1E3
330
87
100
AcDbEntity
  8
0
  6
Continuous
 62
     7
100
AcDbLine
 10
-444.3000000000001
 20
366.7499999999999
 30
0.0
 11
-444.3000000000001
 21
233.75
 31
0.0
  0
LINE
  5
1E4
330
87
100
AcDbEntity
  8
0
  6
Continuous
 62
     7
100
AcDbLine
 10
-441.5000000000001
 20
223.75
 30
0.0
 11
-296.5000000000001
 21
223.75
 31
0.0
  0
LINE
  5
1E5
330
87
100
AcDbEntity
  8
0
  6
Continuous
 62
     3
100
AcDbLine
 10
-441.0000000000001
 20
233.75
 30
0.0
 11
-439.5000000000001
 21
233.75
 31
0.0
  0
LINE
  5
1E6
330
87
100
AcDbEntity
  8
0
  6
Continuous
 62
     3
100
AcDbLine
 10
-443.3000000000001
 20
233.75
 30
0.0
 11
-441.8000000000001
 21
233.75
 31
0.0
  0
LINE
  5
1E7
330
87
100
AcDbEntity
  8
0
  6
Continuous
 62
     3
100
AcDbLine
 10
-435.5000000000001
 20
229.75
 30
0.0
 11
-435.5000000000001
 21
228.25
 31
0.0
  0
LINE
  5
1E8
330
87
100
AcDbEntity
  8
0
  6
Continuous
 62
     3
100
AcDbLine
 10
-435.5000000000001
 20
227.45
 30
0.0
 11
-302.5000000000001
 21
227.45
 31
0.0
  0
LINE
  5
1E9
330
87
100
AcDbEntity
  8
0
  6
Continuous
 62
     3
100
AcDbLine
 10
-302.5000000000001
 20
228.25
 30
0.0
 11
-435.5000000000001
 21
228.25
 31
0.0
  0
LINE
  5
1EA
330
87
100
AcDbEntity
  8
0
  6
Continuous
 62
     7
100
AcDbLine
 10
-435.5000000000001
 20
224.95
 30
0.0
 11
-302.5000000000001
 21
224.95
 31
0.0
  0
LINE
  5
1EB
330
87
100
AcDbEntity
  8
0
  6
Continuous
 62
     3
100
AcDbLine
 10
-435.5000000000001
 20
227.45
 30
0.0
 11
-435.5000000000001
 21
225.95
 31
0.0
  0
LINE
  5
1EC
330
87
100
AcDbEntity
  8
0
  6
Continuous
 62
     3
100
AcDbLine
 10
-443.3000000000001
 20
366.7499999999999
 30
0.0
 11
-441.8000000000001
 21
366.75
 31
0.0
  0
LINE
  5
1ED
330
87
100
AcDbEntity
  8
0
  6
Continuous
 62
     3
100
AcDbLine
 10
-435.5000000000001
 20
374.55
 30
0.0
 11
-435.5000000000001
 21
373.05
 31
0.0
  0
LINE
  5
1EE
330
87
100
AcDbEntity
  8
0
  6
Continuous
 62
     3
100
AcDbLine
 10
-441.0000000000001
 20
366.75
 30
0.0
 11
-439.5000000000001
 21
366.75
 31
0.0
  0
LINE
  5
1EF
330
87
100
AcDbEntity
  8
0
  6
Continuous
 62
     3
100
AcDbLine
 10
-435.5000000000001
 20
372.25
 30
0.0
 11
-435.5000000000001
 21
370.75
 31
0.0
  0
LINE
  5
1F0
330
87
100
AcDbEntity
  8
0
  6
Continuous
 62
     3
100
AcDbLine
 10
-302.5000000000001
 20
374.55
 30
0.0
 11
-302.5000000000001
 21
373.05
 31
0.0
  0
LINE
  5
1F1
330
87
100
AcDbEntity
  8
0
  6
Continuous
 62
     7
100
AcDbLine
 10
-296.5000000000001
 20
376.75
 30
0.0
 11
-441.5000000000001
 21
376.75
 31
0.0
  0
LINE
  5
1F2
330
87
100
AcDbEntity
  8
0
  6
Continuous
 62
     3
100
AcDbLine
 10
-302.5000000000001
 20
373.05
 30
0.0
 11
-435.5000000000001
 21
373.05
 31
0.0
  0
LINE
  5
1F3
330
87
100
AcDbEntity
  8
0
  6
Continuous
 62
     3
100
AcDbLine
 10
-435.5000000000001
 20
372.25
 30
0.0
 11
-302.5000000000001
 21
372.25
 31
0.0
  0
LINE
  5
1F4
330
87
100
AcDbEntity
  8
0
  6
Continuous
 62
     7
100
AcDbLine
 10
-302.5000000000001
 20
375.55
 30
0.0
 11
-435.5000000000001
 21
375.55
 31
0.0
  0
LINE
  5
1F5
330
87
100
AcDbEntity
  8
1
  6
DOT_CENTER
 62
     2
100
AcDbLine
 10
-289.792941851581
 20
300.25
 30
0.0
 11
-448.904277192498
 21
300.25
 31
0.0
  0
LINE
  5
1F6
330
87
100
AcDbEntity
  8
1
  6
DOT_CENTER
 62
     2
100
AcDbLine
 10
-369.0000000000001
 20
219.232341779785
 30
0.0
 11
-369.0000000000001
 21
379.667924964805
 31
0.0
  0
ARC
  5
1F7
330
87
100
AcDbEntity
  8
0
  6
Continuous
 62
     7
100
AcDbCircle
 10
-296.5000000000001
 20
227.75
 30
0.0
 40
4.0
100
AcDbArc
 50
270.0
 51
0.0
  0
ARC
  5
1F8
330
87
100
AcDbEntity
  8
0
  6
Continuous
 62
     3
100
AcDbCircle
 10
-302.5000000000001
 20
233.75
 30
0.0
 40
5.5
100
AcDbArc
 50
270.0
 51
0.0
  0
ARC
  5
1F9
330
87
100
AcDbEntity
  8
0
  6
Continuous
 62
     7
100
AcDbCircle
 10
-296.5000000000001
 20
372.75
 30
0.0
 40
4.0
100
AcDbArc
 50
0.0
 51
90.0
  0
ARC
  5
1FA
330
87
100
AcDbEntity
  8
0
  6
Continuous
 62
     3
100
AcDbCircle
 10
-302.5000000000001
 20
366.75
 30
0.0
 40
5.5
100
AcDbArc
 50
0.0
 51
90.0
  0
ARC
  5
1FB
330
87
100
AcDbEntity
  8
0
  6
Continuous
 62
     7
100
AcDbCircle
 10
-369.0000000000001
 20
300.25
 30
0.0
 40
69.49999999999999
100
AcDbArc
 50
353.1231279721642
 51
0.0
  0
ARC
  5
1FC
330
87
100
AcDbEntity
  8
0
  6
Continuous
 62
     7
100
AcDbCircle
 10
-369.0000000000001
 20
300.25
 30
0.0
 40
69.5
100
AcDbArc
 50
0.0
 51
6.87687202783579
  0
ARC
  5
1FD
330
87
100
AcDbEntity
  8
0
  6
Continuous
 62
     7
100
AcDbCircle
 10
-441.5000000000001
 20
227.75
 30
0.0
 40
4.0
100
AcDbArc
 50
180.0000000000016
 51
270.0
  0
ARC
  5
1FE
330
87
100
AcDbEntity
  8
0
  6
Continuous
 62
     3
100
AcDbCircle
 10
-435.5000000000001
 20
233.75
 30
0.0
 40
5.5
100
AcDbArc
 50
180.0
 51
270.0
  0
ARC
  5
1FF
330
87
100
AcDbEntity
  8
0
  6
Continuous
 62
     7
100
AcDbCircle
 10
-369.0000000000001
 20
300.25
 30
0.0
 40
69.5
100
AcDbArc
 50
270.0
 51
276.8768720278356
  0
ARC
  5
200
330
87
100
AcDbEntity
  8
0
  6
Continuous
 62
     7
100
AcDbCircle
 10
-369.0000000000001
 20
300.25
 30
0.0
 40
69.50000000000004
100
AcDbArc
 50
263.1231279721646
 51
270.0
  0
ARC
  5
201
330
87
100
AcDbEntity
  8
0
  6
Continuous
 62
     7
100
AcDbCircle
 10
-441.5000000000001
 20
372.75
 30
0.0
 40
4.0
100
AcDbArc
 50
90.0
 51
180.0000000000016
  0
ARC
  5
202
330
87
100
AcDbEntity
  8
0
  6
Continuous
 62
     3
100
AcDbCircle
 10
-435.5000000000001
 20
366.75
 30
0.0
 40
5.5
100
AcDbArc
 50
90.0
 51
180.0
  0
ARC
  5
203
330
87
100
AcDbEntity
  8
0
  6
Continuous
 62
     7
100
AcDbCircle
 10
-369.0000000000001
 20
300.25
 30
0.0
 40
69.5
100
AcDbArc
 50
90.0
 51
96.87687202783584
  0
ARC
  5
204
330
87
100
AcDbEntity
  8
0
  6
Continuous
 62
     7
100
AcDbCircle
 10
-369.0000000000001
 20
300.25
 30
0.0
 40
69.5
100
AcDbArc
 50
83.12312797216407
 51
90.0
  0
ARC
  5
205
330
87
100
AcDbEntity
  8
0
  6
Continuous
 62
     7
100
AcDbCircle
 10
-369.0000000000001
 20
300.25
 30
0.0
 40
69.5
100
AcDbArc
 50
173.1231279721641
 51
180.0
  0
ARC
  5
206
330
87
100
AcDbEntity
  8
0
  6
Continuous
 62
     7
100
AcDbCircle
 10
-369.0000000000001
 20
300.25
 30
0.0
 40
69.5
100
AcDbArc
 50
180.0
 51
186.8768720278359
  0
ENDBLK
  5
89
330
87
100
AcDbEntity
  8
0
100
AcDbBlockEnd
  0
BLOCK
  5
8B
330
8A
100
AcDbEntity
  8
0
100
AcDbBlockBegin
  2
395550955__6
 70
     0
 10
-444.3000000000001
 20
224.9499999999995
 30
0.0
  3
395550955__6
  1

  0
LINE
  5
207
330
8A
100
AcDbEntity
  8
0
  6
Continuous
 62
     3
100
AcDbLine
 10
-298.5000000000001
 20
233.75
 30
0.0
 11
-297.0000000000001
 21
233.75
 31
0.0
  0
LINE
  5
208
330
8A
100
AcDbEntity
  8
0
  6
Continuous
 62
     3
100
AcDbLine
 10
-300.0419601084503
 20
233.75
 30
0.0
 11
-299.4999999999999
 21
233.75
 31
0.0
  0
LINE
  5
209
330
8A
100
AcDbEntity
  8
0
  6
Continuous
 62
     3
100
AcDbLine
 10
-302.4999999999999
 20
231.2919601084502
 30
0.0
 11
-302.5000000000001
 21
230.75
 31
0.0
  0
LINE
  5
20A
330
8A
100
AcDbEntity
  8
0
  6
Continuous
 62
     3
100
AcDbLine
 10
-302.5000000000001
 20
230.75
 30
0.0
 11
-302.5000000000001
 21
229.75
 31
0.0
  0
LINE
  5
20B
330
8A
100
AcDbEntity
  8
0
  6
Continuous
 62
     3
100
AcDbLine
 10
-299.4999999999999
 20
233.75
 30
0.0
 11
-298.5000000000001
 21
233.75
 31
0.0
  0
LINE
  5
20C
330
8A
100
AcDbEntity
  8
0
  6
Continuous
 62
     3
100
AcDbLine
 10
-296.2
 20
233.75
 30
0.0
 11
-294.7
 21
233.75
 31
0.0
  0
LINE
  5
20D
330
8A
100
AcDbEntity
  8
0
  6
Continuous
 62
     3
100
AcDbLine
 10
-296.1999999999994
 20
227.9500000000005
 30
0.0
 11
-296.2
 21
233.75
 31
0.0
  0
LINE
  5
20E
330
8A
100
AcDbEntity
  8
0
  6
Continuous
 62
     3
100
AcDbLine
 10
-302.5000000000001
 20
225.95
 30
0.0
 11
-302.5000000000001
 21
224.95
 31
0.0
  0
LINE
  5
20F
330
8A
100
AcDbEntity
  8
0
  6
Continuous
 62
     7
100
AcDbLine
 10
-302.5000000000001
 20
224.95
 30
0.0
 11
-296.6999999999994
 21
224.95
 31
0.0
  0
LINE
  5
210
330
8A
100
AcDbEntity
  8
0
  6
Continuous
 62
     3
100
AcDbLine
 10
-296.6999999999994
 20
227.4500000000005
 30
0.0
 11
-296.6999999999994
 21
224.95
 31
0.0
  0
LINE
  5
211
330
8A
100
AcDbEntity
  8
0
  6
Continuous
 62
     3
100
AcDbLine
 10
-302.5000000000001
 20
229.75
 30
0.0
 11
-302.5000000000001
 21
228.25
 31
0.0
  0
LINE
  5
212
330
8A
100
AcDbEntity
  8
0
  6
Continuous
 62
     3
100
AcDbLine
 10
-302.5000000000001
 20
227.45
 30
0.0
 11
-302.5000000000001
 21
225.95
 31
0.0
  0
LINE
  5
213
330
8A
100
AcDbEntity
  8
0
  6
Continuous
 62
     3
100
AcDbLine
 10
-302.5000000000001
 20
227.45
 30
0.0
 11
-296.6999999999994
 21
227.4500000000005
 31
0.0
  0
LINE
  5
214
330
8A
100
AcDbEntity
  8
0
  6
Continuous
 62
     7
100
AcDbLine
 10
-299.4999999999999
 20
233.75
 30
0.0
 11
-299.5000000000001
 21
279.7560984680807
 31
0.0
  0
LINE
  5
215
330
8A
100
AcDbEntity
  8
0
  6
Continuous
 62
     3
100
AcDbLine
 10
-296.1999999999994
 20
227.9500000000005
 30
0.0
 11
-293.6999999999994
 21
227.9500000000005
 31
0.0
  0
LINE
  5
216
330
8A
100
AcDbEntity
  8
0
  6
Continuous
 62
     3
100
AcDbLine
 10
-294.7
 20
233.75
 30
0.0
 11
-293.6999999999999
 21
233.75
 31
0.0
  0
LINE
  5
217
330
8A
100
AcDbEntity
  8
0
  6
Continuous
 62
     7
100
AcDbLine
 10
-293.6999999999994
 20
227.9500000000005
 30
0.0
 11
-293.6999999999999
 21
233.75
 31
0.0
  0
LINE
  5
218
330
8A
100
AcDbEntity
  8
0
  6
Continuous
 62
     7
100
AcDbLine
 10
-299.5000000000001
 20
279.7560984680807
 30
0.0
 11
-299.5000000000001
 21
283.6987681981774
 31
0.0
  0
LINE
  5
219
330
8A
100
AcDbEntity
  8
0
  6
Continuous
 62
     3
100
AcDbLine
 10
-300.0000000000001
 20
279.7560984680807
 30
0.0
 11
-299.5000000000001
 21
279.7560984680807
 31
0.0
  0
LINE
  5
21A
330
8A
100
AcDbEntity
  8
0
  6
Continuous
 62
     7
100
AcDbLine
 10
-348.5060984680807
 20
369.75
 30
0.0
 11
-352.4487681981773
 21
369.75
 31
0.0
  0
LINE
  5
21B
330
8A
100
AcDbEntity
  8
0
  6
Continuous
 62
     7
100
AcDbLine
 10
-302.5000000000001
 20
369.7500000000001
 30
0.0
 11
-348.5060984680807
 21
369.75
 31
0.0
  0
LINE
  5
21C
330
8A
100
AcDbEntity
  8
0
  6
Continuous
 62
     3
100
AcDbLine
 10
-348.5060984680807
 20
369.25
 30
0.0
 11
-348.5060984680807
 21
369.75
 31
0.0
  0
LINE
  5
21D
330
8A
100
AcDbEntity
  8
0
  6
Continuous
 62
     7
100
AcDbLine
 10
-296.7000000000007
 20
375.5500000000008
 30
0.0
 11
-302.5000000000001
 21
375.55
 31
0.0
  0
LINE
  5
21E
330
8A
100
AcDbEntity
  8
0
  6
Continuous
 62
     3
100
AcDbLine
 10
-296.7000000000007
 20
373.0500000000008
 30
0.0
 11
-296.7000000000007
 21
375.5500000000008
 31
0.0
  0
LINE
  5
21F
330
8A
100
AcDbEntity
  8
0
  6
Continuous
 62
     3
100
AcDbLine
 10
-296.2000000000007
 20
372.5500000000008
 30
0.0
 11
-293.6999999999999
 21
372.5500000000008
 31
0.0
  0
LINE
  5
220
330
8A
100
AcDbEntity
  8
0
  6
Continuous
 62
     7
100
AcDbLine
 10
-293.7
 20
366.75
 30
0.0
 11
-293.6999999999999
 21
372.5500000000008
 31
0.0
  0
LINE
  5
221
330
8A
100
AcDbEntity
  8
0
  6
Continuous
 62
     3
100
AcDbLine
 10
-302.5000000000001
 20
369.2080398915498
 30
0.0
 11
-302.5000000000001
 21
369.7500000000001
 31
0.0
  0
LINE
  5
222
330
8A
100
AcDbEntity
  8
0
  6
Continuous
 62
     3
100
AcDbLine
 10
-300.0419601084503
 20
366.7500000000001
 30
0.0
 11
-299.5000000000001
 21
366.75
 31
0.0
  0
LINE
  5
223
330
8A
100
AcDbEntity
  8
0
  6
Continuous
 62
     3
100
AcDbLine
 10
-302.5000000000001
 20
372.25
 30
0.0
 11
-302.5000000000001
 21
370.75
 31
0.0
  0
LINE
  5
224
330
8A
100
AcDbEntity
  8
0
  6
Continuous
 62
     3
100
AcDbLine
 10
-296.2
 20
233.75
 30
0.0
 11
-296.2
 21
366.75
 31
0.0
  0
LINE
  5
225
330
8A
100
AcDbEntity
  8
0
  6
Continuous
 62
     3
100
AcDbLine
 10
-296.2
 20
366.75
 30
0.0
 11
-296.2000000000007
 21
372.5500000000008
 31
0.0
  0
LINE
  5
226
330
8A
100
AcDbEntity
  8
0
  6
Continuous
 62
     7
100
AcDbLine
 10
-299.5000000000001
 20
283.6987681981774
 30
0.0
 11
-299.5000000000001
 21
300.25
 31
0.0
  0
LINE
  5
227
330
8A
100
AcDbEntity
  8
0
  6
Continuous
 62
     7
100
AcDbLine
 10
-299.5000000000001
 20
320.7439015319193
 30
0.0
 11
-299.5000000000001
 21
366.75
 31
0.0
  0
LINE
  5
228
330
8A
100
AcDbEntity
  8
0
  6
Continuous
 62
     3
100
AcDbLine
 10
-302.5000000000001
 20
369.7500000000001
 30
0.0
 11
-302.5000000000001
 21
370.75
 31
0.0
  0
LINE
  5
229
330
8A
100
AcDbEntity
  8
0
  6
Continuous
 62
     3
100
AcDbLine
 10
-294.7
 20
366.75
 30
0.0
 11
-293.7
 21
366.75
 31
0.0
  0
LINE
  5
22A
330
8A
100
AcDbEntity
  8
0
  6
Continuous
 62
     3
100
AcDbLine
 10
-297.0000000000001
 20
366.75
 30
0.0
 11
-297.0000000000001
 21
233.75
 31
0.0
  0
LINE
  5
22B
330
8A
100
AcDbEntity
  8
0
  6
Continuous
 62
     3
100
AcDbLine
 10
-299.5000000000001
 20
366.75
 30
0.0
 11
-298.5000000000001
 21
366.75
 31
0.0
  0
LINE
  5
22C
330
8A
100
AcDbEntity
  8
0
  6
Continuous
 62
     7
100
AcDbLine
 10
-293.6999999999999
 20
233.75
 30
0.0
 11
-293.7
 21
366.75
 31
0.0
  0
LINE
  5
22D
330
8A
100
AcDbEntity
  8
0
  6
Continuous
 62
     3
100
AcDbLine
 10
-296.2
 20
366.75
 30
0.0
 11
-294.7
 21
366.75
 31
0.0
  0
LINE
  5
22E
330
8A
100
AcDbEntity
  8
0
  6
Continuous
 62
     3
100
AcDbLine
 10
-298.5000000000001
 20
366.75
 30
0.0
 11
-297.0000000000001
 21
366.75
 31
0.0
  0
LINE
  5
22F
330
8A
100
AcDbEntity
  8
0
  6
Continuous
 62
     7
100
AcDbLine
 10
-299.5000000000001
 20
316.8012318018223
 30
0.0
 11
-299.5000000000001
 21
320.7439015319193
 31
0.0
  0
LINE
  5
230
330
8A
100
AcDbEntity
  8
0
  6
Continuous
 62
     3
100
AcDbLine
 10
-300.0000000000001
 20
320.7439015319193
 30
0.0
 11
-299.5000000000001
 21
320.7439015319193
 31
0.0
  0
LINE
  5
231
330
8A
100
AcDbEntity
  8
0
  6
Continuous
 62
     7
100
AcDbLine
 10
-299.5000000000001
 20
300.25
 30
0.0
 11
-299.5000000000001
 21
316.8012318018223
 31
0.0
  0
LINE
  5
232
330
8A
100
AcDbEntity
  8
0
  6
Continuous
 62
     7
100
AcDbLine
 10
-438.5000000000001
 20
320.7439015319193
 30
0.0
 11
-438.5000000000001
 21
366.75
 31
0.0
  0
LINE
  5
233
330
8A
100
AcDbEntity
  8
0
  6
Continuous
 62
     3
100
AcDbLine
 10
-441.8000000000001
 20
366.75
 30
0.0
 11
-441.8000000000001
 21
233.75
 31
0.0
  0
LINE
  5
234
330
8A
100
AcDbEntity
  8
0
  6
Continuous
 62
     3
100
AcDbLine
 10
-441.0000000000001
 20
233.75
 30
0.0
 11
-441.0000000000001
 21
366.75
 31
0.0
  0
LINE
  5
235
330
8A
100
AcDbEntity
  8
0
  6
Continuous
 62
     7
100
AcDbLine
 10
-444.3000000000001
 20
366.7499999999999
 30
0.0
 11
-444.3000000000001
 21
233.75
 31
0.0
  0
LINE
  5
236
330
8A
100
AcDbEntity
  8
0
  6
Continuous
 62
     7
100
AcDbLine
 10
-438.5000000000001
 20
300.25
 30
0.0
 11
-438.5000000000001
 21
316.8012318018226
 31
0.0
  0
LINE
  5
237
330
8A
100
AcDbEntity
  8
0
  6
Continuous
 62
     7
100
AcDbLine
 10
-441.2999999999997
 20
224.9499999999998
 30
0.0
 11
-435.5000000000001
 21
224.95
 31
0.0
  0
LINE
  5
238
330
8A
100
AcDbEntity
  8
0
  6
Continuous
 62
     3
100
AcDbLine
 10
-441.2999999999997
 20
227.4499999999998
 30
0.0
 11
-441.2999999999997
 21
224.9499999999998
 31
0.0
  0
LINE
  5
239
330
8A
100
AcDbEntity
  8
0
  6
Continuous
 62
     3
100
AcDbLine
 10
-443.3000000000001
 20
233.75
 30
0.0
 11
-444.3000000000001
 21
233.75
 31
0.0
  0
LINE
  5
23A
330
8A
100
AcDbEntity
  8
0
  6
Continuous
 62
     3
100
AcDbLine
 10
-435.5000000000001
 20
225.95
 30
0.0
 11
-435.5000000000001
 21
224.95
 31
0.0
  0
LINE
  5
23B
330
8A
100
AcDbEntity
  8
0
  6
Continuous
 62
     7
100
AcDbLine
 10
-444.3000000000001
 20
227.9499999999997
 30
0.0
 11
-444.3000000000001
 21
233.75
 31
0.0
  0
LINE
  5
23C
330
8A
100
AcDbEntity
  8
0
  6
Continuous
 62
     3
100
AcDbLine
 10
-441.7999999999997
 20
227.9499999999998
 30
0.0
 11
-444.3000000000001
 21
227.9499999999997
 31
0.0
  0
LINE
  5
23D
330
8A
100
AcDbEntity
  8
0
  6
Continuous
 62
     3
100
AcDbLine
 10
-441.2999999999997
 20
227.4499999999998
 30
0.0
 11
-435.5000000000001
 21
227.45
 31
0.0
  0
LINE
  5
23E
330
8A
100
AcDbEntity
  8
0
  6
Continuous
 62
     3
100
AcDbLine
 10
-438.5000000000001
 20
233.75
 30
0.0
 11
-439.5000000000001
 21
233.75
 31
0.0
  0
LINE
  5
23F
330
8A
100
AcDbEntity
  8
0
  6
Continuous
 62
     7
100
AcDbLine
 10
-348.5060984680807
 20
230.75
 30
0.0
 11
-302.5000000000001
 21
230.75
 31
0.0
  0
LINE
  5
240
330
8A
100
AcDbEntity
  8
0
  6
Continuous
 62
     7
100
AcDbLine
 10
-385.5512318018226
 20
230.75
 30
0.0
 11
-369.0000000000001
 21
230.75
 31
0.0
  0
LINE
  5
241
330
8A
100
AcDbEntity
  8
0
  6
Continuous
 62
     7
100
AcDbLine
 10
-435.5000000000001
 20
230.75
 30
0.0
 11
-389.4939015319193
 21
230.75
 31
0.0
  0
LINE
  5
242
330
8A
100
AcDbEntity
  8
0
  6
Continuous
 62
     3
100
AcDbLine
 10
-441.8000000000001
 20
233.75
 30
0.0
 11
-441.7999999999997
 21
227.9499999999998
 31
0.0
  0
LINE
  5
243
330
8A
100
AcDbEntity
  8
0
  6
Continuous
 62
     3
100
AcDbLine
 10
-441.0000000000001
 20
233.75
 30
0.0
 11
-439.5000000000001
 21
233.75
 31
0.0
  0
LINE
  5
244
330
8A
100
AcDbEntity
  8
0
  6
Continuous
 62
     3
100
AcDbLine
 10
-443.3000000000001
 20
233.75
 30
0.0
 11
-441.8000000000001
 21
233.75
 31
0.0
  0
LINE
  5
245
330
8A
100
AcDbEntity
  8
0
  6
Continuous
 62
     3
100
AcDbLine
 10
-348.5060984680807
 20
231.2499999999999
 30
0.0
 11
-348.5060984680807
 21
230.75
 31
0.0
  0
LINE
  5
246
330
8A
100
AcDbEntity
  8
0
  6
Continuous
 62
     7
100
AcDbLine
 10
-369.0000000000001
 20
230.75
 30
0.0
 11
-352.4487681981776
 21
230.75
 31
0.0
  0
LINE
  5
247
330
8A
100
AcDbEntity
  8
0
  6
Continuous
 62
     7
100
AcDbLine
 10
-352.4487681981776
 20
230.75
 30
0.0
 11
-348.5060984680807
 21
230.75
 31
0.0
  0
LINE
  5
248
330
8A
100
AcDbEntity
  8
0
  6
Continuous
 62
     3
100
AcDbLine
 10
-435.5000000000001
 20
230.75
 30
0.0
 11
-435.5000000000001
 21
229.75
 31
0.0
  0
LINE
  5
249
330
8A
100
AcDbEntity
  8
0
  6
Continuous
 62
     3
100
AcDbLine
 10
-435.5000000000001
 20
229.75
 30
0.0
 11
-435.5000000000001
 21
228.25
 31
0.0
  0
LINE
  5
24A
330
8A
100
AcDbEntity
  8
0
  6
Continuous
 62
     7
100
AcDbLine
 10
-389.4939015319193
 20
230.75
 30
0.0
 11
-385.5512318018226
 21
230.75
 31
0.0
  0
LINE
  5
24B
330
8A
100
AcDbEntity
  8
0
  6
Continuous
 62
     3
100
AcDbLine
 10
-389.4939015319193
 20
231.2499999999999
 30
0.0
 11
-389.4939015319193
 21
230.75
 31
0.0
  0
LINE
  5
24C
330
8A
100
AcDbEntity
  8
0
  6
Continuous
 62
     3
100
AcDbLine
 10
-435.5000000000001
 20
231.2919601084502
 30
0.0
 11
-435.5000000000001
 21
230.75
 31
0.0
  0
LINE
  5
24D
330
8A
100
AcDbEntity
  8
0
  6
Continuous
 62
     3
100
AcDbLine
 10
-435.5000000000001
 20
227.45
 30
0.0
 11
-302.5000000000001
 21
227.45
 31
0.0
  0
LINE
  5
24E
330
8A
100
AcDbEntity
  8
0
  6
Continuous
 62
     3
100
AcDbLine
 10
-302.5000000000001
 20
228.25
 30
0.0
 11
-435.5000000000001
 21
228.25
 31
0.0
  0
LINE
  5
24F
330
8A
100
AcDbEntity
  8
0
  6
Continuous
 62
     7
100
AcDbLine
 10
-435.5000000000001
 20
224.95
 30
0.0
 11
-302.5000000000001
 21
224.95
 31
0.0
  0
LINE
  5
250
330
8A
100
AcDbEntity
  8
0
  6
Continuous
 62
     3
100
AcDbLine
 10
-435.5000000000001
 20
227.45
 30
0.0
 11
-435.5000000000001
 21
225.95
 31
0.0
  0
LINE
  5
251
330
8A
100
AcDbEntity
  8
0
  6
Continuous
 62
     7
100
AcDbLine
 10
-438.5000000000001
 20
316.8012318018226
 30
0.0
 11
-438.5000000000001
 21
320.7439015319193
 31
0.0
  0
LINE
  5
252
330
8A
100
AcDbEntity
  8
0
  6
Continuous
 62
     3
100
AcDbLine
 10
-441.3
 20
373.05
 30
0.0
 11
-441.3000000000001
 21
375.55
 31
0.0
  0
LINE
  5
253
330
8A
100
AcDbEntity
  8
0
  6
Continuous
 62
     3
100
AcDbLine
 10
-443.3000000000001
 20
366.7499999999999
 30
0.0
 11
-444.3000000000001
 21
366.7499999999999
 31
0.0
  0
LINE
  5
254
330
8A
100
AcDbEntity
  8
0
  6
Continuous
 62
     3
100
AcDbLine
 10
-435.5000000000001
 20
374.55
 30
0.0
 11
-435.5000000000001
 21
375.55
 31
0.0
  0
LINE
  5
255
330
8A
100
AcDbEntity
  8
0
  6
Continuous
 62
     7
100
AcDbLine
 10
-435.5000000000001
 20
375.55
 30
0.0
 11
-441.3000000000001
 21
375.55
 31
0.0
  0
LINE
  5
256
330
8A
100
AcDbEntity
  8
0
  6
Continuous
 62
     3
100
AcDbLine
 10
-441.8000000000001
 20
372.55
 30
0.0
 11
-444.3000000000001
 21
372.55
 31
0.0
  0
LINE
  5
257
330
8A
100
AcDbEntity
  8
0
  6
Continuous
 62
     3
100
AcDbLine
 10
-443.3000000000001
 20
366.7499999999999
 30
0.0
 11
-441.8000000000001
 21
366.75
 31
0.0
  0
LINE
  5
258
330
8A
100
AcDbEntity
  8
0
  6
Continuous
 62
     3
100
AcDbLine
 10
-435.5000000000001
 20
374.55
 30
0.0
 11
-435.5000000000001
 21
373.05
 31
0.0
  0
LINE
  5
259
330
8A
100
AcDbEntity
  8
0
  6
Continuous
 62
     7
100
AcDbLine
 10
-389.4939015319192
 20
369.75
 30
0.0
 11
-435.4999999999999
 21
369.7500000000001
 31
0.0
  0
LINE
  5
25A
330
8A
100
AcDbEntity
  8
0
  6
Continuous
 62
     3
100
AcDbLine
 10
-441.8000000000001
 20
372.55
 30
0.0
 11
-441.8000000000001
 21
366.75
 31
0.0
  0
LINE
  5
25B
330
8A
100
AcDbEntity
  8
0
  6
Continuous
 62
     3
100
AcDbLine
 10
-435.5000000000001
 20
373.05
 30
0.0
 11
-441.3
 21
373.05
 31
0.0
  0
LINE
  5
25C
330
8A
100
AcDbEntity
  8
0
  6
Continuous
 62
     3
100
AcDbLine
 10
-435.4999999999999
 20
369.7500000000001
 30
0.0
 11
-435.5000000000001
 21
370.75
 31
0.0
  0
LINE
  5
25D
330
8A
100
AcDbEntity
  8
0
  6
Continuous
 62
     3
100
AcDbLine
 10
-441.0000000000001
 20
366.75
 30
0.0
 11
-439.5000000000001
 21
366.75
 31
0.0
  0
LINE
  5
25E
330
8A
100
AcDbEntity
  8
0
  6
Continuous
 62
     3
100
AcDbLine
 10
-438.5000000000001
 20
366.75
 30
0.0
 11
-439.5000000000001
 21
366.75
 31
0.0
  0
LINE
  5
25F
330
8A
100
AcDbEntity
  8
0
  6
Continuous
 62
     3
100
AcDbLine
 10
-435.5000000000001
 20
372.25
 30
0.0
 11
-435.5000000000001
 21
370.75
 31
0.0
  0
LINE
  5
260
330
8A
100
AcDbEntity
  8
0
  6
Continuous
 62
     7
100
AcDbLine
 10
-444.3000000000001
 20
366.7499999999999
 30
0.0
 11
-444.3000000000001
 21
372.55
 31
0.0
  0
LINE
  5
261
330
8A
100
AcDbEntity
  8
0
  6
Continuous
 62
     7
100
AcDbLine
 10
-385.5512318018224
 20
369.75
 30
0.0
 11
-389.4939015319192
 21
369.75
 31
0.0
  0
LINE
  5
262
330
8A
100
AcDbEntity
  8
0
  6
Continuous
 62
     7
100
AcDbLine
 10
-369.0000000000001
 20
369.75
 30
0.0
 11
-385.5512318018224
 21
369.75
 31
0.0
  0
LINE
  5
263
330
8A
100
AcDbEntity
  8
0
  6
Continuous
 62
     3
100
AcDbLine
 10
-438.5000000000001
 20
366.75
 30
0.0
 11
-437.9580398915498
 21
366.75
 31
0.0
  0
LINE
  5
264
330
8A
100
AcDbEntity
  8
0
  6
Continuous
 62
     3
100
AcDbLine
 10
-302.5000000000001
 20
374.55
 30
0.0
 11
-302.5000000000001
 21
375.55
 31
0.0
  0
LINE
  5
265
330
8A
100
AcDbEntity
  8
0
  6
Continuous
 62
     3
100
AcDbLine
 10
-302.5000000000001
 20
374.55
 30
0.0
 11
-302.5000000000001
 21
373.05
 31
0.0
  0
LINE
  5
266
330
8A
100
AcDbEntity
  8
0
  6
Continuous
 62
     7
100
AcDbLine
 10
-352.4487681981773
 20
369.75
 30
0.0
 11
-369.0000000000001
 21
369.75
 31
0.0
  0
LINE
  5
267
330
8A
100
AcDbEntity
  8
0
  6
Continuous
 62
     3
100
AcDbLine
 10
-296.7000000000007
 20
373.0500000000008
 30
0.0
 11
-302.5000000000001
 21
373.05
 31
0.0
  0
LINE
  5
268
330
8A
100
AcDbEntity
  8
0
  6
Continuous
 62
     3
100
AcDbLine
 10
-302.5000000000001
 20
373.05
 30
0.0
 11
-435.5000000000001
 21
373.05
 31
0.0
  0
LINE
  5
269
330
8A
100
AcDbEntity
  8
0
  6
Continuous
 62
     3
100
AcDbLine
 10
-435.5000000000001
 20
372.25
 30
0.0
 11
-302.5000000000001
 21
372.25
 31
0.0
  0
LINE
  5
26A
330
8A
100
AcDbEntity
  8
0
  6
Continuous
 62
     3
100
AcDbLine
 10
-435.4999999999999
 20
369.7500000000001
 30
0.0
 11
-435.4999999999999
 21
369.2080398915498
 31
0.0
  0
LINE
  5
26B
330
8A
100
AcDbEntity
  8
0
  6
Continuous
 62
     7
100
AcDbLine
 10
-302.5000000000001
 20
375.55
 30
0.0
 11
-435.5000000000001
 21
375.55
 31
0.0
  0
LINE
  5
26C
330
8A
100
AcDbEntity
  8
0
  6
Continuous
 62
     3
100
AcDbLine
 10
-389.4939015319192
 20
369.75
 30
0.0
 11
-389.4939015319192
 21
369.25
 31
0.0
  0
LINE
  5
26D
330
8A
100
AcDbEntity
  8
0
  6
Continuous
 62
     7
100
AcDbLine
 10
-438.5000000000001
 20
279.7560984680807
 30
0.0
 11
-438.5000000000001
 21
283.6987681981777
 31
0.0
  0
LINE
  5
26E
330
8A
100
AcDbEntity
  8
0
  6
Continuous
 62
     7
100
AcDbLine
 10
-438.5000000000001
 20
283.6987681981777
 30
0.0
 11
-438.5000000000001
 21
300.25
 31
0.0
  0
LINE
  5
26F
330
8A
100
AcDbEntity
  8
0
  6
Continuous
 62
     7
100
AcDbLine
 10
-438.5000000000001
 20
233.75
 30
0.0
 11
-438.5000000000001
 21
279.7560984680807
 31
0.0
  0
LINE
  5
270
330
8A
100
AcDbEntity
  8
0
  6
Continuous
 62
     3
100
AcDbLine
 10
-438.0000000000001
 20
279.7560984680807
 30
0.0
 11
-438.5000000000001
 21
279.7560984680807
 31
0.0
  0
LINE
  5
271
330
8A
100
AcDbEntity
  8
0
  6
Continuous
 62
     3
100
AcDbLine
 10
-437.9580398915498
 20
233.75
 30
0.0
 11
-438.5000000000001
 21
233.75
 31
0.0
  0
LINE
  5
272
330
8A
100
AcDbEntity
  8
0
  6
Continuous
 62
     3
100
AcDbLine
 10
-438.5000000000001
 20
320.7439015319193
 30
0.0
 11
-438.0000000000001
 21
320.7439015319193
 31
0.0
  0
ARC
  5
273
330
8A
100
AcDbEntity
  8
0
  6
Continuous
 62
     7
100
AcDbCircle
 10
-302.5000000000001
 20
233.75
 30
0.0
 40
3.0
100
AcDbArc
 50
270.0
 51
0.0
  0
ARC
  5
274
330
8A
100
AcDbEntity
  8
0
  6
Continuous
 62
     3
100
AcDbCircle
 10
-296.6999999999994
 20
227.9500000000005
 30
0.0
 40
0.5
100
AcDbArc
 50
270.0
 51
0.0
  0
ARC
  5
275
330
8A
100
AcDbEntity
  8
0
  6
Continuous
 62
     7
100
AcDbCircle
 10
-296.6999999999994
 20
227.9500000000005
 30
0.0
 40
3.000000000000512
100
AcDbArc
 50
270.0
 51
0.0
  0
ARC
  5
276
330
8A
100
AcDbEntity
  8
0
  6
Continuous
 62
     3
100
AcDbCircle
 10
-302.5000000000001
 20
233.75
 30
0.0
 40
5.5
100
AcDbArc
 50
270.0
 51
0.0
  0
ARC
  5
277
330
8A
100
AcDbEntity
  8
0
  6
Continuous
 62
     7
100
AcDbCircle
 10
-296.7000000000007
 20
372.5500000000008
 30
0.0
 40
3.000000000000853
100
AcDbArc
 50
0.0
 51
90.0
  0
ARC
  5
278
330
8A
100
AcDbEntity
  8
0
  6
Continuous
 62
     7
100
AcDbCircle
 10
-302.5000000000001
 20
366.75
 30
0.0
 40
3.0
100
AcDbArc
 50
0.0
 51
90.0
  0
ARC
  5
279
330
8A
100
AcDbEntity
  8
0
  6
Continuous
 62
     3
100
AcDbCircle
 10
-296.7000000000007
 20
372.5500000000008
 30
0.0
 40
0.5
100
AcDbArc
 50
0.0
 51
90.0
  0
ARC
  5
27A
330
8A
100
AcDbEntity
  8
0
  6
Continuous
 62
     3
100
AcDbCircle
 10
-302.5000000000001
 20
366.75
 30
0.0
 40
5.5
100
AcDbArc
 50
0.0
 51
90.0
  0
ARC
  5
27B
330
8A
100
AcDbEntity
  8
0
  6
Continuous
 62
     7
100
AcDbCircle
 10
-369.0000000000001
 20
300.25
 30
0.0
 40
69.49999999999999
100
AcDbArc
 50
353.1231279721642
 51
0.0
  0
ARC
  5
27C
330
8A
100
AcDbEntity
  8
0
  6
Continuous
 62
     7
100
AcDbCircle
 10
-369.0000000000001
 20
300.25
 30
0.0
 40
69.5
100
AcDbArc
 50
0.0
 51
6.87687202783579
  0
ARC
  5
27D
330
8A
100
AcDbEntity
  8
0
  6
Continuous
 62
     7
100
AcDbCircle
 10
-441.2999999999997
 20
227.9499999999998
 30
0.0
 40
3.000000000000398
100
AcDbArc
 50
180.0000000000016
 51
270.0
  0
ARC
  5
27E
330
8A
100
AcDbEntity
  8
0
  6
Continuous
 62
     3
100
AcDbCircle
 10
-441.2999999999997
 20
227.9499999999998
 30
0.0
 40
0.5
100
AcDbArc
 50
180.0
 51
270.0
  0
ARC
  5
27F
330
8A
100
AcDbEntity
  8
0
  6
Continuous
 62
     7
100
AcDbCircle
 10
-435.5000000000001
 20
233.75
 30
0.0
 40
3.0
100
AcDbArc
 50
180.0
 51
270.0
  0
ARC
  5
280
330
8A
100
AcDbEntity
  8
0
  6
Continuous
 62
     3
100
AcDbCircle
 10
-435.5000000000001
 20
233.75
 30
0.0
 40
5.5
100
AcDbArc
 50
180.0
 51
270.0
  0
ARC
  5
281
330
8A
100
AcDbEntity
  8
0
  6
Continuous
 62
     7
100
AcDbCircle
 10
-369.0000000000001
 20
300.25
 30
0.0
 40
69.5
100
AcDbArc
 50
270.0
 51
276.8768720278356
  0
ARC
  5
282
330
8A
100
AcDbEntity
  8
0
  6
Continuous
 62
     7
100
AcDbCircle
 10
-369.0000000000001
 20
300.25
 30
0.0
 40
69.50000000000004
100
AcDbArc
 50
263.1231279721646
 51
270.0
  0
ARC
  5
283
330
8A
100
AcDbEntity
  8
0
  6
Continuous
 62
     7
100
AcDbCircle
 10
-441.3000000000001
 20
372.55
 30
0.0
 40
3.0
100
AcDbArc
 50
90.0
 51
180.0
  0
ARC
  5
284
330
8A
100
AcDbEntity
  8
0
  6
Continuous
 62
     7
100
AcDbCircle
 10
-435.5000000000001
 20
366.75
 30
0.0
 40
3.000000000000114
100
AcDbArc
 50
89.99999999999567
 51
180.0
  0
ARC
  5
285
330
8A
100
AcDbEntity
  8
0
  6
Continuous
 62
     3
100
AcDbCircle
 10
-441.3000000000001
 20
372.55
 30
0.0
 40
0.5
100
AcDbArc
 50
89.99999999998697
 51
180.0
  0
ARC
  5
286
330
8A
100
AcDbEntity
  8
0
  6
Continuous
 62
     3
100
AcDbCircle
 10
-435.5000000000001
 20
366.75
 30
0.0
 40
5.5
100
AcDbArc
 50
90.0
 51
180.0
  0
ARC
  5
287
330
8A
100
AcDbEntity
  8
0
  6
Continuous
 62
     7
100
AcDbCircle
 10
-369.0000000000001
 20
300.25
 30
0.0
 40
69.5
100
AcDbArc
 50
90.0
 51
96.87687202783584
  0
ARC
  5
288
330
8A
100
AcDbEntity
  8
0
  6
Continuous
 62
     7
100
AcDbCircle
 10
-369.0000000000001
 20
300.25
 30
0.0
 40
69.5
100
AcDbArc
 50
83.12312797216407
 51
90.0
  0
ARC
  5
289
330
8A
100
AcDbEntity
  8
0
  6
Continuous
 62
     7
100
AcDbCircle
 10
-369.0000000000001
 20
300.25
 30
0.0
 40
69.5
100
AcDbArc
 50
173.1231279721641
 51
180.0
  0
ARC
  5
28A
330
8A
100
AcDbEntity
  8
0
  6
Continuous
 62
     7
100
AcDbCircle
 10
-369.0000000000001
 20
300.25
 30
0.0
 40
69.5
100
AcDbArc
 50
180.0
 51
186.8768720278359
  0
SPLINE
  5
28B
330
8A
100
AcDbEntity
  8
0
  6
Continuous
 62
     3
100
AcDbSpline
210
0.0
220
0.0
230
1.0
 70
  1064
 71
     3
 72
    11
 73
     7
 74
     5
 42
0.0000000001
 43
0.0000000001
 44
0.00000001
 40
0.0
 40
0.0
 40
0.0
 40
0.0
 40
0.2073936557153303
 40
0.3659222954265381
 40
0.4682928533584367
 40
0.5100420518337495
 40
0.5100420518337495
 40
0.5100420518337495
 40
0.5100420518337495
 10
-300.0000000000001
 20
283.6247821616629
 30
0.0
 10
-299.9306949980846
 20
283.6281470174343
 30
0.0
 10
-299.8084142806217
 20
283.6340839143592
 30
0.0
 10
-299.6557713074146
 20
283.6555190864336
 30
0.0
 10
-299.5509102720139
 20
283.6622954133151
 30
0.0
 10
-299.5114352747845
 20
283.6905758114307
 30
0.0
 10
-299.5000000000001
 20
283.6987681981774
 30
0.0
 11
-300.0000000000001
 21
283.6247821616629
 31
0.0
 11
-299.7930506324122
 21
283.6383499981158
 31
0.0
 11
-299.635489451033
 21
283.6558372416645
 31
0.0
 11
-299.5351835441376
 21
283.6762934543412
 31
0.0
 11
-299.5000000000001
 21
283.6987681981774
 31
0.0
  0
SPLINE
  5
28C
330
8A
100
AcDbEntity
  8
0
  6
Continuous
 62
     3
100
AcDbSpline
210
0.0
220
0.0
230
1.0
 70
  1064
 71
     3
 72
    11
 73
     7
 74
     5
 42
0.0000000001
 43
0.0000000001
 44
0.00000001
 40
0.0
 40
0.0
 40
0.0
 40
0.0
 40
0.2073936557152811
 40
0.3659222954264387
 40
0.4682928533584703
 40
0.5100420518337352
 40
0.5100420518337352
 40
0.5100420518337352
 40
0.5100420518337352
 10
-352.3747821616628
 20
369.25
 30
0.0
 10
-352.3781470174343
 20
369.3193050019156
 30
0.0
 10
-352.3840839143592
 20
369.4415857193782
 30
0.0
 10
-352.4055190864337
 20
369.5942286925857
 30
0.0
 10
-352.4122954133148
 20
369.699089727986
 30
0.0
 10
-352.4405758114306
 20
369.7385647252158
 30
0.0
 10
-352.4487681981773
 20
369.75
 30
0.0
 11
-352.3747821616628
 21
369.25
 31
0.0
 11
-352.3883499981158
 21
369.4569493675878
 31
0.0
 11
-352.4058372416646
 21
369.614510548967
 31
0.0
 11
-352.4262934543411
 21
369.7148164558626
 31
0.0
 11
-352.4487681981773
 21
369.75
 31
0.0
  0
SPLINE
  5
28D
330
8A
100
AcDbEntity
  8
0
  6
Continuous
 62
     3
100
AcDbSpline
210
0.0
220
0.0
230
1.0
 70
  1064
 71
     3
 72
    11
 73
     7
 74
     5
 42
0.0000000001
 43
0.0000000001
 44
0.00000001
 40
0.0
 40
0.0
 40
0.0
 40
0.0
 40
3.569988160166872
 40
6.140553207501332
 40
10.30421985245685
 40
14.46519589147982
 40
14.46519589147982
 40
14.46519589147982
 40
14.46519589147982
 10
-300.0000000000001
 20
285.7962059827081
 30
0.0
 10
-299.9225301554205
 20
286.9837165287099
 30
0.0
 10
-299.7892782696144
 20
289.0262924051374
 30
0.0
 10
-299.6356817683734
 20
292.4577078782214
 30
0.0
 10
-299.5231436170702
 20
296.0880466882968
 30
0.0
 10
-299.5077128715153
 20
298.8629811913655
 30
0.0
 10
-299.5000000000001
 20
300.25
 30
0.0
 11
-300.0000000000001
 21
285.7962059827081
 31
0.0
 11
-299.7816917997941
 21
289.3595130132939
 31
0.0
 11
-299.6639199132492
 21
291.9273787508239
 31
0.0
 11
-299.5407661377851
 21
296.0892236637952
 31
0.0
 11
-299.5000000000001
 21
300.25
 31
0.0
  0
SPLINE
  5
28E
330
8A
100
AcDbEntity
  8
0
  6
Continuous
 62
     3
100
AcDbSpline
210
0.0
220
0.0
230
1.0
 70
  1064
 71
     3
 72
    11
 73
     7
 74
     5
 42
0.0000000001
 43
0.0000000001
 44
0.00000001
 40
0.0
 40
0.0
 40
0.0
 40
0.0
 40
0.2073936557156707
 40
0.3659222954270668
 40
0.4682928533590097
 40
0.5100420518338741
 40
0.5100420518338741
 40
0.5100420518338741
 40
0.5100420518338741
 10
-300.0000000000001
 20
316.875217838337
 30
0.0
 10
-299.9306949980845
 20
316.8718529825657
 30
0.0
 10
-299.8084142806215
 20
316.8659160856407
 30
0.0
 10
-299.6557713074141
 20
316.844480913566
 30
0.0
 10
-299.5509102720134
 20
316.8377045866849
 30
0.0
 10
-299.5114352747843
 20
316.8094241885691
 30
0.0
 10
-299.5000000000001
 20
316.8012318018223
 30
0.0
 11
-300.0000000000001
 21
316.875217838337
 31
0.0
 11
-299.7930506324119
 21
316.8616500018841
 31
0.0
 11
-299.6354894510325
 21
316.8441627583352
 31
0.0
 11
-299.535183544137
 21
316.8237065456585
 31
0.0
 11
-299.5000000000001
 21
316.8012318018223
 31
0.0
  0
SPLINE
  5
28F
330
8A
100
AcDbEntity
  8
0
  6
Continuous
 62
     3
100
AcDbSpline
210
0.0
220
0.0
230
1.0
 70
  1064
 71
     3
 72
    11
 73
     7
 74
     5
 42
0.0000000001
 43
0.0000000001
 44
0.00000001
 40
0.0
 40
0.0
 40
0.0
 40
0.0
 40
4.232397921961473
 40
8.324636795238362
 40
10.89520401213355
 40
14.46519575510193
 40
14.46519575510193
 40
14.46519575510193
 40
14.46519575510193
 10
-299.5000000000001
 20
300.25
 30
0.0
 10
-299.5079639007228
 20
301.660827896827
 30
0.0
 10
-299.5236279865891
 20
304.4357630606506
 30
0.0
 10
-299.6367542068385
 20
308.066072559996
 30
0.0
 10
-299.7892757450044
 20
311.4737047104325
 30
0.0
 10
-299.9225292240001
 20
313.5162823611751
 30
0.0
 10
-300.0000000000001
 20
314.7037940180601
 30
0.0
 11
-299.5000000000001
 21
300.25
 31
0.0
 11
-299.5421854077003
 21
304.4821876803608
 31
0.0
 11
-299.6639196857237
 21
308.572615501893
 31
0.0
 11
-299.7816916129716
 21
311.1404834093984
 31
0.0
 11
-300.0000000000001
 21
314.7037940180601
 31
0.0
  0
SPLINE
  5
290
330
8A
100
AcDbEntity
  8
0
  6
Continuous
 62
     3
100
AcDbSpline
210
0.0
220
0.0
230
1.0
 70
  1064
 71
     3
 72
    11
 73
     7
 74
     5
 42
0.0000000001
 43
0.0000000001
 44
0.00000001
 40
0.0
 40
0.0
 40
0.0
 40
0.0
 40
0.2073936557156707
 40
0.3659222954267718
 40
0.4682928533587705
 40
0.5100420518338876
 40
0.5100420518338876
 40
0.5100420518338876
 40
0.5100420518338876
 10
-438.0000000000001
 20
283.624782161663
 30
0.0
 10
-438.0693050019159
 20
283.6281470174345
 30
0.0
 10
-438.1915857193786
 20
283.6340839143593
 30
0.0
 10
-438.3442286925858
 20
283.6555190864337
 30
0.0
 10
-438.4490897279867
 20
283.662295413315
 30
0.0
 10
-438.4885647252157
 20
283.6905758114308
 30
0.0
 10
-438.5000000000001
 20
283.6987681981777
 30
0.0
 11
-438.0000000000001
 21
283.624782161663
 31
0.0
 11
-438.2069493675883
 21
283.6383499981159
 31
0.0
 11
-438.3645105489674
 21
283.6558372416647
 31
0.0
 11
-438.464816455863
 21
283.6762934543414
 31
0.0
 11
-438.5000000000001
 21
283.6987681981777
 31
0.0
  0
SPLINE
  5
291
330
8A
100
AcDbEntity
  8
0
  6
Continuous
 62
     3
100
AcDbSpline
210
0.0
220
0.0
230
1.0
 70
  1064
 71
     3
 72
    11
 73
     7
 74
     5
 42
0.0000000001
 43
0.0000000001
 44
0.00000001
 40
0.0
 40
0.0
 40
0.0
 40
0.0
 40
3.56998816014859
 40
6.140553207502506
 40
10.30421984417504
 40
14.46519589147982
 40
14.46519589147982
 40
14.46519589147982
 40
14.46519589147982
 10
-438.0000000000001
 20
314.7037940172919
 30
0.0
 10
-438.0774698445794
 20
313.5162834712962
 30
0.0
 10
-438.2107217303858
 20
311.4737075948684
 30
0.0
 10
-438.3643182315017
 20
308.0422921245422
 30
0.0
 10
-438.4768563828746
 20
304.4119533144639
 30
0.0
 10
-438.4922871284563
 20
301.6370188113952
 30
0.0
 10
-438.5000000000001
 20
300.25
 30
0.0
 11
-438.0000000000001
 21
314.7037940172919
 31
0.0
 11
-438.218308200205
 21
311.1404869867243
 31
0.0
 11
-438.3360800867507
 21
308.5726212491749
 31
0.0
 11
-438.4592338620523
 21
304.4107763444854
 31
0.0
 11
-438.5000000000001
 21
300.25
 31
0.0
  0
SPLINE
  5
292
330
8A
100
AcDbEntity
  8
0
  6
Continuous
 62
     3
100
AcDbSpline
210
0.0
220
0.0
230
1.0
 70
  1064
 71
     3
 72
    11
 73
     7
 74
     5
 42
0.0000000001
 43
0.0000000001
 44
0.00000001
 40
0.0
 40
0.0
 40
0.0
 40
0.0
 40
0.2073936557156423
 40
0.3659222954268564
 40
0.4682928533588045
 40
0.5100420518338086
 40
0.5100420518338086
 40
0.5100420518338086
 40
0.5100420518338086
 10
-352.374782161663
 20
231.2499999999999
 30
0.0
 10
-352.3781470174345
 20
231.1806949980842
 30
0.0
 10
-352.3840839143592
 20
231.0584142806214
 30
0.0
 10
-352.4055190864341
 20
230.905771307414
 30
0.0
 10
-352.4122954133147
 20
230.8009102720133
 30
0.0
 10
-352.4405758114309
 20
230.7614352747842
 30
0.0
 10
-352.4487681981776
 20
230.75
 30
0.0
 11
-352.374782161663
 21
231.2499999999999
 31
0.0
 11
-352.3883499981159
 21
231.0430506324117
 31
0.0
 11
-352.4058372416647
 21
230.8854894510325
 31
0.0
 11
-352.4262934543412
 21
230.7851835441369
 31
0.0
 11
-352.4487681981776
 21
230.75
 31
0.0
  0
SPLINE
  5
293
330
8A
100
AcDbEntity
  8
0
  6
Continuous
 62
     3
100
AcDbSpline
210
0.0
220
0.0
230
1.0
 70
  1064
 71
     3
 72
    11
 73
     7
 74
     5
 42
0.0000000001
 43
0.0000000001
 44
0.00000001
 40
0.0
 40
0.0
 40
0.0
 40
0.0
 40
3.569988160138346
 40
6.140553207499725
 40
10.30421982544734
 40
14.46519589147904
 40
14.46519589147904
 40
14.46519589147904
 40
14.46519589147904
 10
-383.4537940172912
 20
231.2499999999999
 30
0.0
 10
-382.2662834712989
 20
231.1725301554206
 30
0.0
 10
-380.2237075948721
 20
231.0392782696138
 30
0.0
 10
-376.7922921307822
 20
230.8856817687799
 30
0.0
 10
-373.1619533207082
 20
230.7731436172501
 30
0.0
 10
-370.387018817638
 20
230.7577128716086
 30
0.0
 10
-369.0000000000001
 20
230.75
 30
0.0
 11
-383.4537940172912
 21
231.2499999999999
 31
0.0
 11
-379.8904869867339
 21
231.0316917997955
 31
0.0
 11
-377.322621249177
 21
230.9139199132493
 31
0.0
 11
-373.1607763632097
 21
230.7907661383154
 31
0.0
 11
-369.0000000000001
 21
230.75
 31
0.0
  0
SPLINE
  5
294
330
8A
100
AcDbEntity
  8
0
  6
Continuous
 62
     3
100
AcDbSpline
210
0.0
220
0.0
230
1.0
 70
  1064
 71
     3
 72
    11
 73
     7
 74
     5
 42
0.0000000001
 43
0.0000000001
 44
0.00000001
 40
0.0
 40
0.0
 40
0.0
 40
0.0
 40
4.162222640870882
 40
8.324636847756988
 40
10.89520406461552
 40
14.46519580762328
 40
14.46519580762328
 40
14.46519580762328
 40
14.46519580762328
 10
-369.0000000000001
 20
230.75
 30
0.0
 10
-367.6125656595083
 20
230.757719541651
 30
0.0
 10
-364.8376331221241
 20
230.7731589954028
 30
0.0
 10
-361.207295813382
 20
230.8856993213
 30
0.0
 10
-357.7762955152249
 20
231.0392783550685
 30
0.0
 10
-355.7337177217939
 20
231.1725301835636
 30
0.0
 10
-354.5462059819404
 20
231.25
 30
0.0
 11
-369.0000000000001
 21
230.75
 31
0.0
 11
-364.8379772846114
 21
230.7907949672693
 31
0.0
 11
-360.6773844981069
 21
230.9139196857237
 31
0.0
 11
-358.109516590639
 21
231.0316916129697
 31
0.0
 11
-354.5462059819404
 21
231.25
 31
0.0
  0
SPLINE
  5
295
330
8A
100
AcDbEntity
  8
0
  6
Continuous
 62
     3
100
AcDbSpline
210
0.0
220
0.0
230
1.0
 70
  1064
 71
     3
 72
    11
 73
     7
 74
     5
 42
0.0000000001
 43
0.0000000001
 44
0.00000001
 40
0.0
 40
0.0
 40
0.0
 40
0.0
 40
0.2073936557152453
 40
0.3659222954263526
 40
0.4682928533583172
 40
0.5100420518336672
 40
0.5100420518336672
 40
0.5100420518336672
 40
0.5100420518336672
 10
-385.6252178383371
 20
231.2499999999999
 30
0.0
 10
-385.6218529825656
 20
231.1806949980844
 30
0.0
 10
-385.6159160856408
 20
231.0584142806216
 30
0.0
 10
-385.5944809135661
 20
230.9057713074144
 30
0.0
 10
-385.587704586685
 20
230.8009102720137
 30
0.0
 10
-385.5594241885695
 20
230.7614352747844
 30
0.0
 10
-385.5512318018226
 20
230.75
 30
0.0
 11
-385.6252178383371
 21
231.2499999999999
 31
0.0
 11
-385.6116500018842
 21
231.0430506324121
 31
0.0
 11
-385.5941627583354
 21
230.885489451033
 31
0.0
 11
-385.5737065456589
 21
230.7851835441374
 31
0.0
 11
-385.5512318018226
 21
230.75
 31
0.0
  0
SPLINE
  5
296
330
8A
100
AcDbEntity
  8
0
  6
Continuous
 62
     3
100
AcDbSpline
210
0.0
220
0.0
230
1.0
 70
  1064
 71
     3
 72
    11
 73
     7
 74
     5
 42
0.0000000001
 43
0.0000000001
 44
0.00000001
 40
0.0
 40
0.0
 40
0.0
 40
0.0
 40
0.0417491984752955
 40
0.1441197564073385
 40
0.3026483961184961
 40
0.5100420518337697
 40
0.5100420518337697
 40
0.5100420518337697
 40
0.5100420518337697
 10
-385.5512318018224
 20
369.75
 30
0.0
 10
-385.5594241885692
 20
369.7385647252157
 30
0.0
 10
-385.5877045866847
 20
369.6990897279861
 30
0.0
 10
-385.594480913566
 20
369.5942286925856
 30
0.0
 10
-385.6159160856406
 20
369.4415857193783
 30
0.0
 10
-385.6218529825654
 20
369.3193050019154
 30
0.0
 10
-385.6252178383369
 20
369.25
 30
0.0
 11
-385.5512318018224
 21
369.75
 31
0.0
 11
-385.5737065456586
 21
369.7148164558626
 31
0.0
 11
-385.5941627583352
 21
369.614510548967
 31
0.0
 11
-385.611650001884
 21
369.4569493675878
 31
0.0
 11
-385.6252178383369
 21
369.25
 31
0.0
  0
SPLINE
  5
297
330
8A
100
AcDbEntity
  8
0
  6
Continuous
 62
     3
100
AcDbSpline
210
0.0
220
0.0
230
1.0
 70
  1064
 71
     3
 72
    11
 73
     7
 74
     5
 42
0.0000000001
 43
0.0000000001
 44
0.00000001
 40
0.0
 40
0.0
 40
0.0
 40
0.0
 40
4.232397919183063
 40
8.324636795238261
 40
10.89520401209667
 40
14.46519575510216
 40
14.46519575510216
 40
14.46519575510216
 40
14.46519575510216
 10
-369.0000000000001
 20
369.75
 30
0.0
 10
-370.4108278959008
 20
369.7420360992872
 30
0.0
 10
-373.1857630597243
 20
369.7263720134298
 30
0.0
 10
-376.8160725590586
 20
369.6132457932036
 30
0.0
 10
-380.2237047104203
 20
369.4607242549963
 30
0.0
 10
-382.2662823611631
 20
369.3274707760007
 30
0.0
 10
-383.4537940180604
 20
369.25
 30
0.0
 11
-369.0000000000001
 21
369.75
 31
0.0
 11
-373.2321876775829
 21
369.7078145923554
 31
0.0
 11
-377.322615501893
 21
369.5860803142763
 31
0.0
 11
-379.8904834093617
 21
369.4683083870303
 31
0.0
 11
-383.4537940180604
 21
369.25
 31
0.0
  0
SPLINE
  5
298
330
8A
100
AcDbEntity
  8
0
  6
Continuous
 62
     3
100
AcDbSpline
210
0.0
220
0.0
230
1.0
 70
  1064
 71
     3
 72
    11
 73
     7
 74
     5
 42
0.0000000001
 43
0.0000000001
 44
0.00000001
 40
0.0
 40
0.0
 40
0.0
 40
0.0
 40
3.569988160137719
 40
6.140553207502971
 40
10.30421987370438
 40
14.46519589148053
 40
14.46519589148053
 40
14.46519589148053
 40
14.46519589148053
 10
-354.5462059827075
 20
369.25
 30
0.0
 10
-355.7337165286995
 20
369.3274698445786
 30
0.0
 10
-357.7762924051277
 20
369.4607217303843
 30
0.0
 10
-361.2077078852869
 20
369.6143182319457
 30
0.0
 10
-364.8380466953811
 20
369.7268563830717
 30
0.0
 10
-367.6129811984484
 20
369.742287128558
 30
0.0
 10
-369.0000000000001
 20
369.75
 30
0.0
 11
-354.5462059827075
 21
369.25
 31
0.0
 11
-358.1095130132642
 21
369.4683082002043
 31
0.0
 11
-360.6773787508249
 21
369.5860800867508
 31
0.0
 11
-364.8392236850391
 21
369.7092338626323
 31
0.0
 11
-369.0000000000001
 21
369.75
 31
0.0
  0
SPLINE
  5
299
330
8A
100
AcDbEntity
  8
0
  6
Continuous
 62
     3
100
AcDbSpline
210
0.0
220
0.0
230
1.0
 70
  1064
 71
     3
 72
    11
 73
     7
 74
     5
 42
0.0000000001
 43
0.0000000001
 44
0.00000001
 40
0.0
 40
0.0
 40
0.0
 40
0.0
 40
4.162222641789037
 40
8.324636847758981
 40
10.89520406461654
 40
14.46519580762345
 40
14.46519580762345
 40
14.46519580762345
 40
14.46519580762345
 10
-438.5000000000001
 20
300.25
 30
0.0
 10
-438.492280458346
 20
298.8625656592022
 30
0.0
 10
-438.4768410045909
 20
296.0876331218174
 30
0.0
 10
-438.3643006786863
 20
292.4572958130752
 30
0.0
 10
-438.2107216449316
 20
289.0262955152238
 30
0.0
 10
-438.0774698164364
 20
286.9837177217933
 30
0.0
 10
-438.0000000000001
 20
285.7962059819401
 30
0.0
 11
-438.5000000000001
 21
300.25
 31
0.0
 11
-438.4592050327126
 21
296.0879772836932
 31
0.0
 11
-438.3360803142762
 21
291.9273844981048
 31
0.0
 11
-438.2183083870303
 21
289.3595165906379
 31
0.0
 11
-438.0000000000001
 21
285.7962059819401
 31
0.0
  0
SPLINE
  5
29A
330
8A
100
AcDbEntity
  8
0
  6
Continuous
 62
     3
100
AcDbSpline
210
0.0
220
0.0
230
1.0
 70
  1064
 71
     3
 72
    11
 73
     7
 74
     5
 42
0.0000000001
 43
0.0000000001
 44
0.00000001
 40
0.0
 40
0.0
 40
0.0
 40
0.0
 40
0.0417491984752649
 40
0.1441197564073636
 40
0.3026483961184082
 40
0.5100420518337349
 40
0.5100420518337349
 40
0.5100420518337349
 40
0.5100420518337349
 10
-438.5000000000001
 20
316.8012318018226
 30
0.0
 10
-438.4885647252158
 20
316.8094241885693
 30
0.0
 10
-438.4490897279862
 20
316.837704586685
 30
0.0
 10
-438.3442286925858
 20
316.8444809135662
 30
0.0
 10
-438.1915857193785
 20
316.8659160856408
 30
0.0
 10
-438.0693050019156
 20
316.8718529825655
 30
0.0
 10
-438.0000000000001
 20
316.875217838337
 30
0.0
 11
-438.5000000000001
 21
316.8012318018226
 31
0.0
 11
-438.4648164558627
 21
316.8237065456588
 31
0.0
 11
-438.364510548967
 21
316.8441627583354
 31
0.0
 11
-438.206949367588
 21
316.8616500018842
 31
0.0
 11
-438.0000000000001
 21
316.875217838337
 31
0.0
  0
ENDBLK
  5
8C
330
8A
100
AcDbEntity
  8
0
100
AcDbBlockEnd
  0
BLOCK
  5
8E
330
8D
100
AcDbEntity
  8
0
100
AcDbBlockBegin
  2
995901889
 70
     0
 10
-433.65
 20
353.6
 30
0.0
  3
995901889
  1

  0
LINE
  5
29B
330
8D
100
AcDbEntity
  8
0
  6
Continuous
 62
     7
100
AcDbLine
 10
-428.7099999999999
 20
355.95
 30
0.0
 11
-428.7099999999999
 21
357.6701062601284
 31
0.0
  0
LINE
  5
29C
330
8D
100
AcDbEntity
  8
0
  6
Continuous
 62
     7
100
AcDbLine
 10
-427.29
 20
355.95
 30
0.0
 11
-428.7099999999999
 21
355.95
 31
0.0
  0
LINE
  5
29D
330
8D
100
AcDbEntity
  8
0
  6
Continuous
 62
     7
100
AcDbLine
 10
-427.29
 20
357.6701062601284
 30
0.0
 11
-427.29
 21
355.95
 31
0.0
  0
LINE
  5
29E
330
8D
100
AcDbEntity
  8
0
  6
Continuous
 62
     7
100
AcDbLine
 10
-428.7099999999999
 20
360.315636077655
 30
0.0
 11
-428.7099999999999
 21
360.595962650828
 31
0.0
  0
LINE
  5
29F
330
8D
100
AcDbEntity
  8
0
  6
Continuous
 62
     7
100
AcDbLine
 10
-429.5798937398715
 20
359.96
 30
0.0
 11
-429.3459626508279
 21
359.96
 31
0.0
  0
LINE
  5
2A0
330
8D
100
AcDbEntity
  8
0
  6
Continuous
 62
     7
100
AcDbLine
 10
-431.3
 20
359.96
 30
0.0
 11
-429.5798937398715
 21
359.96
 31
0.0
  0
LINE
  5
2A1
330
8D
100
AcDbEntity
  8
0
  6
Continuous
 62
     7
100
AcDbLine
 10
-431.3
 20
358.54
 30
0.0
 11
-431.3
 21
359.96
 31
0.0
  0
LINE
  5
2A2
330
8D
100
AcDbEntity
  8
0
  6
Continuous
 62
     7
100
AcDbLine
 10
-429.5798937398715
 20
358.54
 30
0.0
 11
-431.3
 21
358.54
 31
0.0
  0
LINE
  5
2A3
330
8D
100
AcDbEntity
  8
0
  6
Continuous
 62
     7
100
AcDbLine
 10
-427.29
 20
360.595962650828
 30
0.0
 11
-427.29
 21
360.315636077655
 31
0.0
  0
LINE
  5
2A4
330
8D
100
AcDbEntity
  8
0
  6
Continuous
 62
     7
100
AcDbLine
 10
-429.5798937398715
 20
358.54
 30
0.0
 11
-429.5798937398715
 21
359.96
 31
0.0
  0
LINE
  5
2A5
330
8D
100
AcDbEntity
  8
0
  6
Continuous
 62
     7
100
AcDbLine
 10
-424.6999999999999
 20
359.9599999999999
 30
0.0
 11
-424.6999999999999
 21
358.54
 31
0.0
  0
LINE
  5
2A6
330
8D
100
AcDbEntity
  8
0
  6
Continuous
 62
     7
100
AcDbLine
 10
-426.4201062601284
 20
359.96
 30
0.0
 11
-424.6999999999999
 21
359.9599999999999
 31
0.0
  0
LINE
  5
2A7
330
8D
100
AcDbEntity
  8
0
  6
Continuous
 62
     7
100
AcDbLine
 10
-426.654037349172
 20
359.96
 30
0.0
 11
-426.4201062601284
 21
359.96
 31
0.0
  0
LINE
  5
2A8
330
8D
100
AcDbEntity
  8
0
  6
Continuous
 62
     7
100
AcDbLine
 10
-426.9343639223449
 20
359.96
 30
0.0
 11
-426.654037349172
 21
359.96
 31
0.0
  0
LINE
  5
2A9
330
8D
100
AcDbEntity
  8
0
  6
Continuous
 62
     7
100
AcDbLine
 10
-429.3459626508279
 20
359.96
 30
0.0
 11
-429.0656360776551
 21
359.96
 31
0.0
  0
LINE
  5
2AA
330
8D
100
AcDbEntity
  8
0
  6
Continuous
 62
     7
100
AcDbLine
 10
-426.4201062601284
 20
359.96
 30
0.0
 11
-426.4201062601284
 21
358.54
 31
0.0
  0
LINE
  5
2AB
330
8D
100
AcDbEntity
  8
0
  6
Continuous
 62
     7
100
AcDbLine
 10
-429.3459626508279
 20
358.54
 30
0.0
 11
-429.5798937398715
 21
358.54
 31
0.0
  0
LINE
  5
2AC
330
8D
100
AcDbEntity
  8
0
  6
Continuous
 62
     7
100
AcDbLine
 10
-429.0656360776551
 20
358.54
 30
0.0
 11
-429.3459626508279
 21
358.54
 31
0.0
  0
LINE
  5
2AD
330
8D
100
AcDbEntity
  8
0
  6
Continuous
 62
     7
100
AcDbLine
 10
-426.654037349172
 20
358.54
 30
0.0
 11
-426.9343639223449
 21
358.54
 31
0.0
  0
LINE
  5
2AE
330
8D
100
AcDbEntity
  8
0
  6
Continuous
 62
     7
100
AcDbLine
 10
-424.6999999999999
 20
358.54
 30
0.0
 11
-426.4201062601284
 21
358.54
 31
0.0
  0
LINE
  5
2AF
330
8D
100
AcDbEntity
  8
0
  6
Continuous
 62
     7
100
AcDbLine
 10
-426.4201062601284
 20
358.54
 30
0.0
 11
-426.654037349172
 21
358.54
 31
0.0
  0
LINE
  5
2B0
330
8D
100
AcDbEntity
  8
0
  6
Continuous
 62
     7
100
AcDbLine
 10
-428.7099999999999
 20
357.904037349172
 30
0.0
 11
-428.7099999999999
 21
358.1843639223449
 31
0.0
  0
LINE
  5
2B1
330
8D
100
AcDbEntity
  8
0
  6
Continuous
 62
     7
100
AcDbLine
 10
-427.29
 20
358.1843639223449
 30
0.0
 11
-427.29
 21
357.904037349172
 31
0.0
  0
LINE
  5
2B2
330
8D
100
AcDbEntity
  8
0
  6
Continuous
 62
     7
100
AcDbLine
 10
-427.29
 20
357.904037349172
 30
0.0
 11
-427.29
 21
357.6701062601284
 31
0.0
  0
LINE
  5
2B3
330
8D
100
AcDbEntity
  8
0
  6
Continuous
 62
     7
100
AcDbLine
 10
-428.7099999999999
 20
357.6701062601284
 30
0.0
 11
-428.7099999999999
 21
357.904037349172
 31
0.0
  0
LINE
  5
2B4
330
8D
100
AcDbEntity
  8
0
  6
Continuous
 62
     7
100
AcDbLine
 10
-427.29
 20
357.6701062601284
 30
0.0
 11
-428.7099999999999
 21
357.6701062601284
 31
0.0
  0
LINE
  5
2B5
330
8D
100
AcDbEntity
  8
0
  6
Continuous
 62
     7
100
AcDbLine
 10
-427.29
 20
362.55
 30
0.0
 11
-427.29
 21
360.8298937398716
 31
0.0
  0
LINE
  5
2B6
330
8D
100
AcDbEntity
  8
0
  6
Continuous
 62
     7
100
AcDbLine
 10
-428.7099999999999
 20
362.55
 30
0.0
 11
-427.29
 21
362.55
 31
0.0
  0
LINE
  5
2B7
330
8D
100
AcDbEntity
  8
0
  6
Continuous
 62
     7
100
AcDbLine
 10
-428.7099999999999
 20
360.8298937398716
 30
0.0
 11
-428.7099999999999
 21
362.55
 31
0.0
  0
LINE
  5
2B8
330
8D
100
AcDbEntity
  8
0
  6
Continuous
 62
     7
100
AcDbLine
 10
-427.29
 20
360.8298937398716
 30
0.0
 11
-427.29
 21
360.595962650828
 31
0.0
  0
LINE
  5
2B9
330
8D
100
AcDbEntity
  8
0
  6
Continuous
 62
     7
100
AcDbLine
 10
-428.7099999999999
 20
360.595962650828
 30
0.0
 11
-428.7099999999999
 21
360.8298937398716
 31
0.0
  0
LINE
  5
2BA
330
8D
100
AcDbEntity
  8
0
  6
Continuous
 62
     7
100
AcDbLine
 10
-428.7099999999999
 20
360.8298937398716
 30
0.0
 11
-427.29
 21
360.8298937398716
 31
0.0
  0
LINE
  5
2BB
330
8D
100
AcDbEntity
  8
1
  6
DOT_CENTER
 62
     2
100
AcDbLine
 10
-421.7849999999999
 20
359.2499999999999
 30
0.0
 11
-434.215
 21
359.2499999999999
 31
0.0
  0
LINE
  5
2BC
330
8D
100
AcDbEntity
  8
1
  6
DOT_CENTER
 62
     2
100
AcDbLine
 10
-427.9999999999999
 20
365.465
 30
0.0
 11
-427.9999999999999
 21
353.0349999999999
 31
0.0
  0
ARC
  5
2BD
330
8D
100
AcDbEntity
  8
0
  6
Continuous
 62
     7
100
AcDbCircle
 10
-427.9999999999999
 20
359.2499999999999
 30
0.0
 40
1.521747501205233
100
AcDbArc
 50
117.8118034455366
 51
152.1881965544595
  0
ARC
  5
2BE
330
8D
100
AcDbEntity
  8
0
  6
Continuous
 62
     7
100
AcDbCircle
 10
-427.9999999999999
 20
359.2499999999999
 30
0.0
 40
1.280499999999971
100
AcDbArc
 50
56.3257199067909
 51
123.6742800932155
  0
ARC
  5
2BF
330
8D
100
AcDbEntity
  8
0
  6
Continuous
 62
     7
100
AcDbCircle
 10
-427.9999999999999
 20
359.2499999999999
 30
0.0
 40
1.521747501205058
100
AcDbArc
 50
27.81180344554248
 51
62.18819655446909
  0
ARC
  5
2C0
330
8D
100
AcDbEntity
  8
0
  6
Continuous
 62
     7
100
AcDbCircle
 10
-427.9999999999999
 20
359.2499999999999
 30
0.0
 40
1.280500000000002
100
AcDbArc
 50
33.6742800932204
 51
56.3257199067909
  0
ARC
  5
2C1
330
8D
100
AcDbEntity
  8
0
  6
Continuous
 62
     7
100
AcDbCircle
 10
-427.9999999999999
 20
359.2499999999999
 30
0.0
 40
1.280500000000065
100
AcDbArc
 50
123.6742800932155
 51
146.3257199067853
  0
ARC
  5
2C2
330
8D
100
AcDbEntity
  8
0
  6
Continuous
 62
     7
100
AcDbCircle
 10
-427.9999999999999
 20
359.2499999999999
 30
0.0
 40
1.280500000000191
100
AcDbArc
 50
146.3257199067853
 51
213.6742800932063
  0
ARC
  5
2C3
330
8D
100
AcDbEntity
  8
0
  6
Continuous
 62
     7
100
AcDbCircle
 10
-427.9999999999999
 20
359.2499999999999
 30
0.0
 40
1.280499999999876
100
AcDbArc
 50
326.325719906788
 51
33.6742800932204
  0
ARC
  5
2C4
330
8D
100
AcDbEntity
  8
0
  6
Continuous
 62
     7
100
AcDbCircle
 10
-427.9999999999999
 20
359.2499999999999
 30
0.0
 40
1.280500000000065
100
AcDbArc
 50
213.6742800932063
 51
236.3257199067817
  0
ARC
  5
2C5
330
8D
100
AcDbEntity
  8
0
  6
Continuous
 62
     7
100
AcDbCircle
 10
-427.9999999999999
 20
359.2499999999999
 30
0.0
 40
1.280499999999876
100
AcDbArc
 50
303.674280093212
 51
326.325719906788
  0
ARC
  5
2C6
330
8D
100
AcDbEntity
  8
0
  6
Continuous
 62
     7
100
AcDbCircle
 10
-427.9999999999999
 20
359.2499999999999
 30
0.0
 40
1.28049999999997
100
AcDbArc
 50
236.3257199067817
 51
303.674280093212
  0
ARC
  5
2C7
330
8D
100
AcDbEntity
  8
0
  6
Continuous
 62
     7
100
AcDbCircle
 10
-427.9999999999999
 20
359.2499999999999
 30
0.0
 40
1.521747501204952
100
AcDbArc
 50
297.8118034455349
 51
332.1881965544651
  0
ARC
  5
2C8
330
8D
100
AcDbEntity
  8
0
  6
Continuous
 62
     7
100
AcDbCircle
 10
-427.9999999999999
 20
359.2499999999999
 30
0.0
 40
1.521747501205053
100
AcDbArc
 50
207.8118034455329
 51
242.1881965544594
  0
CIRCLE
  5
2C9
330
8D
100
AcDbEntity
  8
0
  6
Continuous
 62
     7
100
AcDbCircle
 10
-427.9999999999999
 20
359.2499999999999
 30
0.0
 40
5.649999999999977
  0
ENDBLK
  5
8F
330
8D
100
AcDbEntity
  8
0
100
AcDbBlockEnd
  0
BLOCK
  5
95
330
90
100
AcDbEntity
  8
0
100
AcDbBlockBegin
  2
HL066_3E__7
 70
     0
 10
-445.5000000000001
 20
223.75
 30
0.0
  3
HL066_3E__7
  1

  0
INSERT
  5
91
330
90
100
AcDbEntity
  8
0
100
AcDbBlockReference
  2
995901889_1
 10
-315.6500000000004
 20
235.5999999999996
 30
0.0
  0
INSERT
  5
92
330
90
100
AcDbEntity
  8
0
100
AcDbBlockReference
  2
309020146__5
 10
-445.5000000000001
 20
223.75
 30
0.0
  0
INSERT
  5
93
330
90
100
AcDbEntity
  8
0
100
AcDbBlockReference
  2
395550955__6
 10
-444.3000000000001
 20
224.9499999999995
 30
0.0
  0
INSERT
  5
94
330
90
100
AcDbEntity
  8
0
100
AcDbBlockReference
  2
995901889
 10
-433.65
 20
353.6
 30
0.0
  0
ENDBLK
  5
96
330
90
100
AcDbEntity
  8
0
100
AcDbBlockEnd
  0
BLOCK
  5
9A
330
97
100
AcDbEntity
  8
0
100
AcDbBlockBegin
  2
HL66-WEB-Zeichnung__8
 70
     0
 10
-445.5000000000001
 20
223.75
 30
0.0
  3
HL66-WEB-Zeichnung__8
  1

  0
INSERT
  5
98
330
97
100
AcDbEntity
  8
0
100
AcDbBlockReference
  2
HL066_1E
 10
-438.0000000000001
 20
231.2499999999999
 30
0.0
  0
INSERT
  5
99
330
97
100
AcDbEntity
  8
0
100
AcDbBlockReference
  2
HL066_3E__7
 10
-445.5000000000001
 20
223.75
 30
0.0
  0
ENDBLK
  5
9B
330
97
100
AcDbEntity
  8
0
100
AcDbBlockEnd
  0
BLOCK
  5
9E
330
9C
100
AcDbEntity
  8
0
100
AcDbBlockBegin
  2
Vordans2
 70
     0
 10
-369.0000000000001
 20
300.25
 30
0.0
  3
Vordans2
  1

  0
INSERT
  5
9D
330
9C
100
AcDbEntity
  8
0
100
AcDbBlockReference
  2
HL66-WEB-Zeichnung__8
 10
-445.5000000000001
 20
223.75
 30
0.0
  0
MTEXT
  5
2CA
330
9C
100
AcDbEntity
  8
1
 62
     1
100
AcDbMText
 10
-369.0
 20
218.75
 30
0.0
 40
3.5
 41
0.0
 46
0.0
 71
     2
 72
     1
  1
 
  7
CONVERTER_11
 73
     1
 44
1.32052821128451
  0
ENDBLK
  5
9F
330
9C
100
AcDbEntity
  8
0
100
AcDbBlockEnd
  0
BLOCK
  5
118
330
111
100
AcDbEntity
  8
0
100
AcDbBlockBegin
  2
*D16
 70
     1
 10
0.0
 20
0.0
 30
0.0
  3
*D16
  1

  0
LINE
  5
112
330
111
100
AcDbEntity
  8
1
  6
Continuous
 62
     4
100
AcDbLine
 10
-441.5
 20
398.50974730015
 30
0.0
 11
-296.5
 21
398.50974730015
 31
0.0
  0
LINE
  5
113
330
111
100
AcDbEntity
  8
1
  6
Continuous
 62
     4
100
AcDbLine
 10
-441.5
 20
419.7500000013158
 30
0.0
 11
-441.5
 21
396.50974730015
 31
0.0
  0
LINE
  5
114
330
111
100
AcDbEntity
  8
1
  6
Continuous
 62
     4
100
AcDbLine
 10
-296.5
 20
419.7500000013158
 30
0.0
 11
-296.5
 21
396.50974730015
 31
0.0
  0
SOLID
  5
115
330
111
100
AcDbEntity
  8
1
 62
     4
100
AcDbTrace
 10
-436.5
 20
399.168009788087
 30
0.0
 11
-436.5
 21
397.8514848122131
 31
0.0
 12
-441.5
 22
398.50974730015
 32
0.0
 13
-441.5
 23
398.50974730015
 33
0.0
  0
SOLID
  5
116
330
111
100
AcDbEntity
  8
1
 62
     4
100
AcDbTrace
 10
-301.5
 20
397.8514848122131
 30
0.0
 11
-301.5
 21
399.168009788087
 31
0.0
 12
-296.5
 22
398.50974730015
 32
0.0
 13
-296.5
 23
398.50974730015
 33
0.0
  0
MTEXT
  5
117
330
111
100
AcDbEntity
  8
1
 62
     1
100
AcDbMText
 10
-362.2945970209149
 20
400.5097274227891
 30
0.0
 40
5.0
 41
0.0
 46
0.0
 71
     7
 72
     1
  1
\C1; {\Fgdt;n}\C1;145
  7
CONVERTER_11
 11
0.9999999999970621
 21
2.424068405545307E-6
 31
0.0
 73
     1
 44
0.60024009603842
  0
ENDBLK
  5
119
330
111
100
AcDbEntity
  8
0
100
AcDbBlockEnd
  0
BLOCK
  5
123
330
11C
100
AcDbEntity
  8
0
100
AcDbBlockBegin
  2
*D17
 70
     1
 10
0.0
 20
0.0
 30
0.0
  3
*D17
  1

  0
LINE
  5
11D
330
11C
100
AcDbEntity
  8
1
  6
Continuous
 62
     4
100
AcDbLine
 10
-265.644737672287
 20
415.7500000013159
 30
0.0
 11
-265.644737672287
 21
634.2500000013158
 31
0.0
  0
LINE
  5
11E
330
11C
100
AcDbEntity
  8
1
  6
Continuous
 62
     4
100
AcDbLine
 10
-297.5717967697245
 20
415.7500000013159
 30
0.0
 11
-263.644737672287
 21
415.7500000013159
 31
0.0
  0
LINE
  5
11F
330
11C
100
AcDbEntity
  8
1
  6
Continuous
 62
     4
100
AcDbLine
 10
-296.6999999999995
 20
634.2500000013158
 30
0.0
 11
-263.644737672287
 21
634.2500000013158
 31
0.0
  0
SOLID
  5
120
330
11C
100
AcDbEntity
  8
1
 62
     4
100
AcDbTrace
 10
-266.303000160224
 20
420.7500000013159
 30
0.0
 11
-264.9864751843501
 21
420.7500000013159
 31
0.0
 12
-265.644737672287
 22
415.7500000013159
 32
0.0
 13
-265.644737672287
 23
415.7500000013159
 33
0.0
  0
SOLID
  5
121
330
11C
100
AcDbEntity
  8
1
 62
     4
100
AcDbTrace
 10
-264.9864751843501
 20
629.2500000013158
 30
0.0
 11
-266.303000160224
 21
629.2500000013158
 31
0.0
 12
-265.644737672287
 22
634.2500000013158
 32
0.0
 13
-265.644737672287
 23
634.2500000013158
 33
0.0
  0
MTEXT
  5
122
330
11C
100
AcDbEntity
  8
1
 62
     1
100
AcDbMText
 10
-267.644737672287
 20
520.252777574967
 30
0.0
 40
5.0
 41
0.0
 46
0.0
 71
     7
 72
     1
  1
219
  7
CONVERTER_11
 11
0.0
 21
1.0
 31
0.0
 73
     1
 44
0.60024009603842
  0
ENDBLK
  5
124
330
11C
100
AcDbEntity
  8
0
100
AcDbBlockEnd
  0
BLOCK
  5
12F
330
127
100
AcDbEntity
  8
0
100
AcDbBlockBegin
  2
*D18
 70
     1
 10
0.0
 20
0.0
 30
0.0
  3
*D18
  1

  0
LINE
  5
128
330
127
100
AcDbEntity
  8
1
  6
Continuous
 62
     4
100
AcDbLine
 10
-279.240803059305
 20
600.2796998855
 30
0.0
 11
-279.240803059305
 21
615.7500000013159
 31
0.0
  0
LINE
  5
129
330
127
100
AcDbEntity
  8
1
  6
Continuous
 62
     4
100
AcDbLine
 10
-279.240803059305
 20
615.7500000013159
 30
0.0
 11
-279.240803059305
 21
634.2500000013158
 31
0.0
  0
LINE
  5
12A
330
127
100
AcDbEntity
  8
1
  6
Continuous
 62
     4
100
AcDbLine
 10
-294.0
 20
615.7500000013159
 30
0.0
 11
-277.240803059305
 21
615.7500000013159
 31
0.0
  0
LINE
  5
12B
330
127
100
AcDbEntity
  8
1
  6
Continuous
 62
     4
100
AcDbLine
 10
-296.6999999999995
 20
634.2500000013158
 30
0.0
 11
-277.240803059305
 21
634.2500000013158
 31
0.0
  0
SOLID
  5
12C
330
127
100
AcDbEntity
  8
1
 62
     4
100
AcDbTrace
 10
-279.8990655472419
 20
620.7500000013159
 30
0.0
 11
-278.582540571368
 21
620.7500000013159
 31
0.0
 12
-279.240803059305
 22
615.7500000013159
 32
0.0
 13
-279.240803059305
 23
615.7500000013159
 33
0.0
  0
SOLID
  5
12D
330
127
100
AcDbEntity
  8
1
 62
     4
100
AcDbTrace
 10
-278.582540571368
 20
629.2500000013158
 30
0.0
 11
-279.8990655472419
 21
629.2500000013158
 31
0.0
 12
-279.240803059305
 22
634.2500000013158
 32
0.0
 13
-279.240803059305
 23
634.2500000013158
 33
0.0
  0
MTEXT
  5
12E
330
127
100
AcDbEntity
  8
1
 62
     1
100
AcDbMText
 10
-281.240803059305
 20
600.2796998855
 30
0.0
 40
5.0
 41
0.0
 46
0.0
 71
     7
 72
     1
  1
19
  7
CONVERTER_11
 11
0.0
 21
1.0
 31
0.0
 73
     1
 44
0.60024009603842
  0
ENDBLK
  5
130
330
127
100
AcDbEntity
  8
0
100
AcDbBlockEnd
  0
BLOCK
  5
13A
330
133
100
AcDbEntity
  8
0
100
AcDbBlockBegin
  2
*D19
 70
     1
 10
0.0
 20
0.0
 30
0.0
  3
*D19
  1

  0
LINE
  5
134
330
133
100
AcDbEntity
  8
1
  6
Continuous
 62
     4
100
AcDbLine
 10
-444.2999999999998
 20
648.771808763604
 30
0.0
 11
-293.6999999999995
 21
648.771808763604
 31
0.0
  0
LINE
  5
135
330
133
100
AcDbEntity
  8
1
  6
Continuous
 62
     4
100
AcDbLine
 10
-444.2999999999998
 20
631.7500000013158
 30
0.0
 11
-444.2999999999998
 21
650.771808763604
 31
0.0
  0
LINE
  5
136
330
133
100
AcDbEntity
  8
1
  6
Continuous
 62
     4
100
AcDbLine
 10
-293.6999999999995
 20
631.7500000013158
 30
0.0
 11
-293.6999999999995
 21
650.771808763604
 31
0.0
  0
SOLID
  5
137
330
133
100
AcDbEntity
  8
1
 62
     4
100
AcDbTrace
 10
-439.2999999999998
 20
649.430071251541
 30
0.0
 11
-439.2999999999998
 21
648.113546275667
 31
0.0
 12
-444.2999999999998
 22
648.771808763604
 32
0.0
 13
-444.2999999999998
 23
648.771808763604
 33
0.0
  0
SOLID
  5
138
330
133
100
AcDbEntity
  8
1
 62
     4
100
AcDbTrace
 10
-298.6999999999995
 20
648.113546275667
 30
0.0
 11
-298.6999999999995
 21
649.430071251541
 31
0.0
 12
-293.6999999999995
 22
648.771808763604
 32
0.0
 13
-293.6999999999995
 23
648.771808763604
 33
0.0
  0
MTEXT
  5
139
330
133
100
AcDbEntity
  8
1
 62
     1
100
AcDbMText
 10
-383.502599181455
 20
650.771808763604
 30
0.0
 40
5.0
 41
0.0
 46
0.0
 71
     7
 72
     1
  1
\C1;150\C1;x150
  7
CONVERTER_11
 11
0.9999999999970621
 21
2.424068405545307E-6
 31
0.0
 73
     1
 44
0.60024009603842
  0
ENDBLK
  5
13B
330
133
100
AcDbEntity
  8
0
100
AcDbBlockEnd
  0
ENDSEC
  0
SECTION
  2
ENTITIES
  0
INSERT
  5
A0
330
1F
100
AcDbEntity
  8
0
100
AcDbBlockReference
  2
Untsicht1
 10
-369.0
 20
525.0000000006598
 30
0.0
  0
INSERT
  5
A1
330
1F
100
AcDbEntity
  8
0
100
AcDbBlockReference
  2
Vordans2
 10
-369.0000000000001
 20
300.25
 30
0.0
  0
ENDSEC
  0
SECTION
  2
OBJECTS
  0
DICTIONARY
  5
C
330
0
100
AcDbDictionary
281
     1
  3
ACAD_DETAILVIEWSTYLE
350
2D2
  3
ACAD_GROUP
350
D
  3
ACAD_LAYOUT
350
1A
  3
ACAD_MATERIAL
350
43
  3
ACAD_MLEADERSTYLE
350
5B
  3
ACAD_MLINESTYLE
350
17
  3
ACAD_PLOTSETTINGS
350
19
  3
ACAD_PLOTSTYLENAME
350
E
  3
ACAD_SCALELIST
350
47
  3
ACAD_SECTIONVIEWSTYLE
350
2D3
  3
ACAD_TABLESTYLE
350
59
  3
ACAD_VISUALSTYLE
350
2A
  3
ACDB_RECOMPOSE_DATA
350
2CF
  3
AcDbVariableDictionary
350
2CB
  0
SUN
  5
5D
330
29
100
AcDbSun
 90
        1
290
     0
 63
     7
421
 16777215
 40
1.0
291
     1
 91
  2455826
 92
 54000000
292
     0
 70
     2
 71
   256
280
     1
  0
DICTIONARY
  5
2D2
102
{ACAD_REACTORS
330
C
102
}
330
C
100
AcDbDictionary
281
     1
  0
DICTIONARY
  5
D
102
{ACAD_REACTORS
330
C
102
}
330
C
100
AcDbDictionary
281
     1
  0
DICTIONARY
  5
1A
102
{ACAD_REACTORS
330
C
102
}
330
C
100
AcDbDictionary
281
     1
  3
Layout1
350
1E
  3
Layout2
350
26
  3
Model
350
22
  0
DICTIONARY
  5
43
102
{ACAD_REACTORS
330
C
102
}
330
C
100
AcDbDictionary
281
     1
  3
ByBlock
350
45
  3
ByLayer
350
44
  3
Global
350
46
  0
DICTIONARY
  5
5B
102
{ACAD_REACTORS
330
C
102
}
330
C
100
AcDbDictionary
281
     1
  3
Standard
350
5C
  0
DICTIONARY
  5
17
102
{ACAD_REACTORS
330
C
102
}
330
C
100
AcDbDictionary
281
     1
  3
Standard
350
18
  0
DICTIONARY
  5
19
102
{ACAD_REACTORS
330
C
102
}
330
C
100
AcDbDictionary
281
     1
  0
ACDBDICTIONARYWDFLT
  5
E
102
{ACAD_REACTORS
330
C
102
}
330
C
100
AcDbDictionary
281
     1
  3
Normal
350
F
100
AcDbDictionaryWithDefault
340
F
  0
DICTIONARY
  5
47
102
{ACAD_REACTORS
330
C
102
}
330
C
100
AcDbDictionary
281
     1
  3
A0
350
48
  3
A1
350
49
  3
A2
350
4A
  3
A3
350
4B
  3
A4
350
4C
  3
A5
350
4D
  3
A6
350
4E
  3
A7
350
4F
  3
A8
350
50
  3
A9
350
51
  3
B1
350
52
  3
B2
350
53
  3
B3
350
54
  3
B4
350
55
  3
B5
350
56
  3
B6
350
57
  3
B7
350
58
  0
DICTIONARY
  5
2D3
102
{ACAD_REACTORS
330
C
102
}
330
C
100
AcDbDictionary
281
     1
  0
DICTIONARY
  5
59
102
{ACAD_REACTORS
330
C
102
}
330
C
100
AcDbDictionary
281
     1
  3
Standard
350
5A
  0
DICTIONARY
  5
2A
102
{ACAD_REACTORS
330
C
102
}
330
C
100
AcDbDictionary
281
     1
  3
2dWireframe
350
2F
  3
Basic
350
32
  3
Brighten
350
36
  3
ColorChange
350
3A
  3
Conceptual
350
34
  3
Dim
350
35
  3
EdgeColorOff
350
3D
  3
Facepattern
350
39
  3
Flat
350
2B
  3
FlatWithEdges
350
2C
  3
Gouraud
350
2D
  3
GouraudWithEdges
350
2E
  3
Hidden
350
31
  3
JitterOff
350
3B
  3
Linepattern
350
38
  3
OverhangOff
350
3C
  3
Realistic
350
33
  3
Shaded
350
42
  3
Shaded with edges
350
41
  3
Shades of Gray
350
3E
  3
Sketchy
350
3F
  3
Thicken
350
37
  3
Wireframe
350
30
  3
X-Ray
350
40
  0
XRECORD
  5
2CF
102
{ACAD_REACTORS
330
C
102
}
330
C
100
AcDbXrecord
280
     1
 90
        1
330
5A
  0
DICTIONARY
  5
2CB
102
{ACAD_REACTORS
330
C
102
}
330
C
100
AcDbDictionary
281
     1
  3
CANNOSCALE
350
2CC
  3
CMLEADERSTYLE
350
2D1
  3
CTABLESTYLE
350
2D0
  0
LAYOUT
  5
1E
102
{ACAD_REACTORS
330
1A
102
}
330
1A
100
AcDbPlotSettings
  1

  2
none_device
  4

  6

 40
0.0
 41
0.0
 42
0.0
 43
0.0
 44
0.0
 45
0.0
 46
0.0
 47
0.0
 48
0.0
 49
0.0
140
0.0
141
0.0
142
1.0
143
1.0
 70
   688
 72
     0
 73
     0
 74
     5
  7

 75
    16
 76
     0
 77
     2
 78
   300
147
1.0
148
0.0
149
0.0
100
AcDbLayout
  1
Layout1
 70
     1
 71
     1
 10
0.0
 20
0.0
 11
12.0
 21
9.0
 12
0.0
 22
0.0
 32
0.0
 14
1.00000000000000E+20
 24
1.00000000000000E+20
 34
1.00000000000000E+20
 15
-1.00000000000000E+20
 25
-1.00000000000000E+20
 35
-1.00000000000000E+20
146
0.0
 13
0.0
 23
0.0
 33
0.0
 16
1.0
 26
0.0
 36
0.0
 17
0.0
 27
1.0
 37
0.0
 76
     0
330
1B
  0
LAYOUT
  5
26
102
{ACAD_REACTORS
330
1A
102
}
330
1A
100
AcDbPlotSettings
  1

  2
none_device
  4

  6

 40
0.0
 41
0.0
 42
0.0
 43
0.0
 44
0.0
 45
0.0
 46
0.0
 47
0.0
 48
0.0
 49
0.0
140
0.0
141
0.0
142
1.0
143
1.0
 70
   688
 72
     0
 73
     0
 74
     5
  7

 75
    16
 76
     0
 77
     2
 78
   300
147
1.0
148
0.0
149
0.0
100
AcDbLayout
  1
Layout2
 70
     1
 71
     2
 10
0.0
 20
0.0
 11
0.0
 21
0.0
 12
0.0
 22
0.0
 32
0.0
 14
0.0
 24
0.0
 34
0.0
 15
0.0
 25
0.0
 35
0.0
146
0.0
 13
0.0
 23
0.0
 33
0.0
 16
1.0
 26
0.0
 36
0.0
 17
0.0
 27
1.0
 37
0.0
 76
     0
330
23
  0
LAYOUT
  5
22
102
{ACAD_REACTORS
330
1A
102
}
330
1A
100
AcDbPlotSettings
  1

  2
none_device
  4
Letter_(8.50_x_11.00_Inches)
  6

 40
6.35
 41
6.35
 42
6.35000508
 43
6.35000508
 44
215.9
 45
279.4
 46
0.0
 47
0.0
 48
0.0
 49
0.0
140
0.0
141
0.0
142
1.0
143
1.0
 70
  1712
 72
     0
 73
     0
 74
     0
  7

 75
     0
 76
     0
 77
     2
 78
   300
147
1.0
148
0.0
149
0.0
100
AcDbLayout
  1
Model
 70
     1
 71
     0
 10
0.0
 20
0.0
 11
12.0
 21
9.0
 12
0.0
 22
0.0
 32
0.0
 14
-448.904277192498
 24
215.25
 34
0.0
 15
-263.644737672287
 25
655.771808763604
 35
0.0
146
0.0
 13
0.0
 23
0.0
 33
0.0
 16
1.0
 26
0.0
 36
0.0
 17
0.0
 27
1.0
 37
0.0
 76
     0
330
1F
331
29
  0
MATERIAL
  5
45
102
{ACAD_REACTORS
330
43
102
}
330
43
100
AcDbMaterial
  1
ByBlock
 72
     1
 94
      127
  0
MATERIAL
  5
44
102
{ACAD_REACTORS
330
43
102
}
330
43
100
AcDbMaterial
  1
ByLayer
 72
     1
 94
      127
  0
MATERIAL
  5
46
102
{ACAD_REACTORS
330
43
102
}
330
43
100
AcDbMaterial
  1
Global
 72
     1
 94
      127
  0
MLEADERSTYLE
  5
5C
102
{ACAD_REACTORS
330
5B
102
}
330
5B
100
AcDbMLeaderStyle
179
     2
170
     2
171
     1
172
     0
 90
        2
 40
0.0
 41
0.0
173
     1
 91
-1056964608
340
14
 92
       -2
290
     1
 42
0.09
291
     1
 43
0.36
  3
Standard
341
0
 44
0.18
300

342
11
174
     1
178
     6
175
     1
176
     0
 93
-1056964608
 45
0.18
292
     0
297
     0
 46
0.18
343
0
 94
-1056964608
 47
1.0
 49
1.0
140
1.0
293
     1
141
0.0
294
     1
177
     0
142
1.0
295
     0
296
     0
143
0.125
271
     0
272
     9
273
     9
298
     0
  0
MLINESTYLE
  5
18
102
{ACAD_REACTORS
330
17
102
}
330
17
100
AcDbMlineStyle
  2
Standard
 70
     0
  3

 62
   256
 51
90.0
 52
90.0
 71
     2
 49
0.5
 62
   256
  6
BYLAYER
 49
-0.5
 62
   256
  6
BYLAYER
  0
ACDBPLACEHOLDER
  5
F
102
{ACAD_REACTORS
330
E
102
}
330
E
  0
SCALE
  5
48
102
{ACAD_REACTORS
330
47
102
}
330
47
100
AcDbScale
 70
     0
300
1:1
140
1.0
141
1.0
290
     1
  0
SCALE
  5
49
102
{ACAD_REACTORS
330
47
102
}
330
47
100
AcDbScale
 70
     0
300
1/128" = 1'-0"
140
0.0078125
141
12.0
290
     0
  0
SCALE
  5
4A
102
{ACAD_REACTORS
330
47
102
}
330
47
100
AcDbScale
 70
     0
300
1/64" = 1'-0"
140
0.015625
141
12.0
290
     0
  0
SCALE
  5
4B
102
{ACAD_REACTORS
330
47
102
}
330
47
100
AcDbScale
 70
     0
300
1/32" = 1'-0"
140
0.03125
141
12.0
290
     0
  0
SCALE
  5
4C
102
{ACAD_REACTORS
330
47
102
}
330
47
100
AcDbScale
 70
     0
300
1/16" = 1'-0"
140
0.0625
141
12.0
290
     0
  0
SCALE
  5
4D
102
{ACAD_REACTORS
330
47
102
}
330
47
100
AcDbScale
 70
     0
300
3/32" = 1'-0"
140
0.09375
141
12.0
290
     0
  0
SCALE
  5
4E
102
{ACAD_REACTORS
330
47
102
}
330
47
100
AcDbScale
 70
     0
300
1/8" = 1'-0"
140
0.125
141
12.0
290
     0
  0
SCALE
  5
4F
102
{ACAD_REACTORS
330
47
102
}
330
47
100
AcDbScale
 70
     0
300
3/16" = 1'-0"
140
0.1875
141
12.0
290
     0
  0
SCALE
  5
50
102
{ACAD_REACTORS
330
47
102
}
330
47
100
AcDbScale
 70
     0
300
1/4" = 1'-0"
140
0.25
141
12.0
290
     0
  0
SCALE
  5
51
102
{ACAD_REACTORS
330
47
102
}
330
47
100
AcDbScale
 70
     0
300
3/8" = 1'-0"
140
0.375
141
12.0
290
     0
  0
SCALE
  5
52
102
{ACAD_REACTORS
330
47
102
}
330
47
100
AcDbScale
 70
     0
300
1/2" = 1'-0"
140
0.5
141
12.0
290
     0
  0
SCALE
  5
53
102
{ACAD_REACTORS
330
47
102
}
330
47
100
AcDbScale
 70
     0
300
3/4" = 1'-0"
140
0.75
141
12.0
290
     0
  0
SCALE
  5
54
102
{ACAD_REACTORS
330
47
102
}
330
47
100
AcDbScale
 70
     0
300
1" = 1'-0"
140
1.0
141
12.0
290
     0
  0
SCALE
  5
55
102
{ACAD_REACTORS
330
47
102
}
330
47
100
AcDbScale
 70
     0
300
1-1/2" = 1'-0"
140
1.5
141
12.0
290
     0
  0
SCALE
  5
56
102
{ACAD_REACTORS
330
47
102
}
330
47
100
AcDbScale
 70
     0
300
3" = 1'-0"
140
3.0
141
12.0
290
     0
  0
SCALE
  5
57
102
{ACAD_REACTORS
330
47
102
}
330
47
100
AcDbScale
 70
     0
300
6" = 1'-0"
140
6.0
141
12.0
290
     0
  0
SCALE
  5
58
102
{ACAD_REACTORS
330
47
102
}
330
47
100
AcDbScale
 70
     0
300
1'-0" = 1'-0"
140
12.0
141
12.0
290
     0
  0
TABLESTYLE
  5
5A
102
{ACAD_REACTORS
330
59
102
}
102
{ACAD_XDICTIONARY
360
2CD
102
}
330
59
100
AcDbTableStyle
  3
Standard
 70
     0
 71
     0
 40
0.06
 41
0.06
280
     0
281
     0
  7
Standard
140
0.18
170
     2
 62
     0
 63
   257
283
     0
 90
        4
 91
        0
  1

274
    -2
284
     1
 64
     0
275
    -2
285
     1
 65
     0
276
    -2
286
     1
 66
     0
277
    -2
287
     1
 67
     0
278
    -2
288
     1
 68
     0
279
    -2
289
     1
 69
     0
  7
Standard
140
0.25
170
     5
 62
     0
 63
   257
283
     0
 90
        4
 91
        0
  1

274
    -2
284
     1
 64
     0
275
    -2
285
     1
 65
     0
276
    -2
286
     1
 66
     0
277
    -2
287
     1
 67
     0
278
    -2
288
     1
 68
     0
279
    -2
289
     1
 69
     0
  7
Standard
140
0.18
170
     5
 62
     0
 63
   257
283
     0
 90
        4
 91
        0
  1

274
    -2
284
     1
 64
     0
275
    -2
285
     1
 65
     0
276
    -2
286
     1
 66
     0
277
    -2
287
     1
 67
     0
278
    -2
288
     1
 68
     0
279
    -2
289
     1
 69
     0
  0
VISUALSTYLE
  5
2F
102
{ACAD_REACTORS
330
2A
102
}
330
2A
100
AcDbVisualStyle
  2
2dWireframe
 70
     4
177
     3
291
     0
 70
    58
 90
        0
176
     1
 90
        2
176
     1
 90
        0
176
     1
 90
        0
176
     1
 40
0.6
176
     1
 40
30.0
176
     1
 62
     7
420
 16777215
176
     1
 90
        1
176
     1
 90
        4
176
     1
 62
     7
176
     1
 62
   257
176
     1
 90
        1
176
     1
 90
        1
176
     1
 40
1.0
176
     1
 90
        0
176
     1
 62
   257
176
     1
 40
1.0
176
     1
 90
        1
176
     1
 90
        6
176
     1
 90
        2
176
     1
 62
     7
176
     1
 90
        5
176
     1
 90
        0
176
     1
 90
        0
176
     1
290
     0
176
     1
 90
        1
176
     1
 40
0.0
176
     1
 90
        0
176
     1
290
     1
176
     1
290
     1
176
     1
290
     0
176
     1
290
     0
176
     1
290
     0
176
     1
290
     0
176
     1
290
     0
176
     1
290
     0
176
     1
290
     0
176
     1
 90
       50
176
     1
 40
0.0
176
     1
 40
1.0
176
     1
 90
        0
176
     1
 62
    18
420
        0
176
     1
 90
       50
176
     1
 90
        3
176
     1
 62
     5
420
      255
176
     1
290
     0
176
     1
 90
       50
176
     1
 90
       50
176
     1
 90
       50
176
     1
290
     0
176
     1
 90
       50
176
     1
 62
   256
176
     0
 40
1.0
176
     0
 90
        2
176
     1
  1
strokes_ogs.tif
176
     1
290
     0
176
     1
 40
1.0
176
     1
 40
1.0
176
     1
  0
VISUALSTYLE
  5
32
102
{ACAD_REACTORS
330
2A
102
}
330
2A
100
AcDbVisualStyle
  2
Basic
 70
     7
177
     3
291
     1
 70
    58
 90
        1
176
     1
 90
        0
176
     1
 90
        1
176
     1
 90
        0
176
     1
 40
0.6
176
     1
 40
30.0
176
     1
 62
     7
420
 16777215
176
     1
 90
        0
176
     1
 90
        4
176
     1
 62
     7
176
     1
 62
   257
176
     1
 90
        1
176
     1
 90
        1
176
     1
 40
1.0
176
     1
 90
        8
176
     1
 62
     7
176
     1
 40
1.0
176
     1
 90
        1
176
     1
 90
        6
176
     1
 90
        2
176
     1
 62
     7
176
     1
 90
        5
176
     1
 90
        0
176
     1
 90
        0
176
     1
290
     0
176
     1
 90
        1
176
     1
 40
0.0
176
     1
 90
        0
176
     1
290
     0
176
     1
290
     1
176
     1
290
     1
176
     1
290
     0
176
     1
290
     0
176
     1
290
     0
176
     1
290
     0
176
     1
290
     0
176
     1
290
     0
176
     1
 90
       50
176
     1
 40
0.0
176
     1
 40
1.0
176
     1
 90
        0
176
     1
 62
    18
420
        0
176
     1
 90
       50
176
     1
 90
        3
176
     1
 62
     5
420
      255
176
     1
290
     0
176
     1
 90
       50
176
     1
 90
       50
176
     1
 90
       50
176
     1
290
     0
176
     1
 90
       50
176
     1
 62
   256
176
     0
 40
1.0
176
     0
 90
        2
176
     1
  1
strokes_ogs.tif
176
     1
290
     0
176
     1
 40
1.0
176
     1
 40
1.0
176
     1
  0
VISUALSTYLE
  5
36
102
{ACAD_REACTORS
330
2A
102
}
330
2A
100
AcDbVisualStyle
  2
Brighten
 70
    12
177
     3
291
     1
 70
    58
 90
        2
176
     1
 90
        2
176
     1
 90
        0
176
     1
 90
        0
176
     1
 40
0.6
176
     1
 40
30.0
176
     1
 62
     7
420
 16777215
176
     1
 90
        1
176
     1
 90
        4
176
     1
 62
     7
176
     1
 62
   257
176
     1
 90
        1
176
     1
 90
        1
176
     1
 40
1.0
176
     1
 90
        8
176
     1
 62
     7
176
     1
 40
1.0
176
     1
 90
        1
176
     1
 90
        6
176
     1
 90
        2
176
     1
 62
     7
176
     1
 90
        5
176
     1
 90
        0
176
     1
 90
        0
176
     1
290
     0
176
     1
 90
        1
176
     1
 40
50.0
176
     1
 90
        0
176
     1
290
     0
176
     1
290
     1
176
     1
290
     1
176
     1
290
     0
176
     1
290
     0
176
     1
290
     0
176
     1
290
     0
176
     1
290
     0
176
     1
290
     0
176
     1
 90
       50
176
     1
 40
0.0
176
     1
 40
1.0
176
     1
 90
        0
176
     1
 62
    18
420
        0
176
     1
 90
       50
176
     1
 90
        3
176
     1
 62
     5
420
      255
176
     1
290
     0
176
     1
 90
       50
176
     1
 90
       50
176
     1
 90
       50
176
     1
290
     0
176
     1
 90
       50
176
     1
 62
   256
176
     0
 40
1.0
176
     0
 90
        2
176
     1
  1
strokes_ogs.tif
176
     1
290
     0
176
     1
 40
1.0
176
     1
 40
1.0
176
     1
  0
VISUALSTYLE
  5
3A
102
{ACAD_REACTORS
330
2A
102
}
330
2A
100
AcDbVisualStyle
  2
ColorChange
 70
    16
177
     3
291
     1
 70
    58
 90
        2
176
     1
 90
        2
176
     1
 90
        3
176
     1
 90
        0
176
     1
 40
0.6
176
     1
 40
30.0
176
     1
 62
     8
420
  8421504
176
     1
 90
        1
176
     1
 90
        4
176
     1
 62
     7
176
     1
 62
   257
176
     1
 90
        1
176
     1
 90
        1
176
     1
 40
1.0
176
     1
 90
        8
176
     1
 62
     8
420
  8421504
176
     1
 40
1.0
176
     1
 90
        1
176
     1
 90
        6
176
     1
 90
        2
176
     1
 62
     7
176
     1
 90
        5
176
     1
 90
        0
176
     1
 90
        0
176
     1
290
     0
176
     1
 90
        1
176
     1
 40
0.0
176
     1
 90
        0
176
     1
290
     0
176
     1
290
     1
176
     1
290
     1
176
     1
290
     0
176
     1
290
     0
176
     1
290
     0
176
     1
290
     0
176
     1
290
     0
176
     1
290
     0
176
     1
 90
       50
176
     1
 40
0.0
176
     1
 40
1.0
176
     1
 90
        0
176
     1
 62
    18
420
        0
176
     1
 90
       50
176
     1
 90
        3
176
     1
 62
     5
420
      255
176
     1
290
     0
176
     1
 90
       50
176
     1
 90
       50
176
     1
 90
       50
176
     1
290
     0
176
     1
 90
       50
176
     1
 62
   256
176
     0
 40
1.0
176
     0
 90
        2
176
     1
  1
strokes_ogs.tif
176
     1
290
     0
176
     1
 40
1.0
176
     1
 40
1.0
176
     1
  0
VISUALSTYLE
  5
34
102
{ACAD_REACTORS
330
2A
102
}
330
2A
100
AcDbVisualStyle
  2
Conceptual
 70
     9
177
     3
291
     0
 70
    58
 90
        3
176
     1
 90
        2
176
     1
 90
        0
176
     1
 90
        0
176
     1
 40
0.6
176
     1
 40
30.0
176
     1
 62
     7
420
 16777215
176
     1
 90
        2
176
     1
 90
        2
176
     1
 62
     7
176
     1
 62
   257
176
     1
 90
        1
176
     1
 90
        1
176
     1
 40
179.0
176
     1
 90
        8
176
     1
 62
     7
176
     1
 40
1.0
176
     1
 90
        1
176
     1
 90
        6
176
     1
 90
        2
176
     1
 62
     7
176
     1
 90
        3
176
     1
 90
        0
176
     1
 90
        0
176
     1
290
     0
176
     1
 90
        1
176
     1
 40
0.0
176
     1
 90
        0
176
     1
290
     0
176
     1
290
     1
176
     1
290
     1
176
     1
290
     0
176
     1
290
     0
176
     1
290
     0
176
     1
290
     0
176
     1
290
     0
176
     1
290
     0
176
     1
 90
       50
176
     1
 40
0.0
176
     1
 40
1.0
176
     1
 90
        0
176
     1
 62
    18
420
        0
176
     1
 90
       50
176
     1
 90
        3
176
     1
 62
     5
420
      255
176
     1
290
     0
176
     1
 90
       50
176
     1
 90
       50
176
     1
 90
       50
176
     1
290
     0
176
     1
 90
       50
176
     1
 62
   256
176
     0
 40
1.0
176
     0
 90
        2
176
     1
  1
strokes_ogs.tif
176
     1
290
     0
176
     1
 40
1.0
176
     1
 40
1.0
176
     1
  0
VISUALSTYLE
  5
35
102
{ACAD_REACTORS
330
2A
102
}
330
2A
100
AcDbVisualStyle
  2
Dim
 70
    11
177
     3
291
     1
 70
    58
 90
        2
176
     1
 90
        2
176
     1
 90
        0
176
     1
 90
        0
176
     1
 40
0.6
176
     1
 40
30.0
176
     1
 62
     7
420
 16777215
176
     1
 90
        1
176
     1
 90
        4
176
     1
 62
     7
176
     1
 62
   257
176
     1
 90
        1
176
     1
 90
        1
176
     1
 40
1.0
176
     1
 90
        8
176
     1
 62
     7
176
     1
 40
1.0
176
     1
 90
        1
176
     1
 90
        6
176
     1
 90
        2
176
     1
 62
     7
176
     1
 90
        5
176
     1
 90
        0
176
     1
 90
        0
176
     1
290
     0
176
     1
 90
        1
176
     1
 40
-50.0
176
     1
 90
        0
176
     1
290
     0
176
     1
290
     1
176
     1
290
     1
176
     1
290
     0
176
     1
290
     0
176
     1
290
     0
176
     1
290
     0
176
     1
290
     0
176
     1
290
     0
176
     1
 90
       50
176
     1
 40
0.0
176
     1
 40
1.0
176
     1
 90
        0
176
     1
 62
    18
420
        0
176
     1
 90
       50
176
     1
 90
        3
176
     1
 62
     5
420
      255
176
     1
290
     0
176
     1
 90
       50
176
     1
 90
       50
176
     1
 90
       50
176
     1
290
     0
176
     1
 90
       50
176
     1
 62
   256
176
     0
 40
1.0
176
     0
 90
        2
176
     1
  1
strokes_ogs.tif
176
     1
290
     0
176
     1
 40
1.0
176
     1
 40
1.0
176
     1
  0
VISUALSTYLE
  5
3D
102
{ACAD_REACTORS
330
2A
102
}
330
2A
100
AcDbVisualStyle
  2
EdgeColorOff
 70
    22
177
     3
291
     1
 70
    58
 90
        2
176
     0
 90
        2
176
     0
 90
        0
176
     0
 90
        0
176
     0
 40
0.6
176
     0
 40
30.0
176
     0
 62
     7
420
 16777215
176
     0
 90
        1
176
     0
 90
        4
176
     0
 62
     7
176
     0
 62
   257
176
     0
 90
        1
176
     0
 90
        1
176
     0
 40
1.0
176
     0
 90
        8
176
     2
 62
     7
176
     0
 40
1.0
176
     0
 90
        1
176
     0
 90
        6
176
     0
 90
        2
176
     0
 62
     7
176
     0
 90
        5
176
     0
 90
        0
176
     0
 90
        0
176
     0
290
     0
176
     0
 90
        1
176
     0
 40
0.0
176
     0
 90
        0
176
     0
290
     0
176
     0
290
     1
176
     0
290
     1
176
     0
290
     0
176
     0
290
     0
176
     0
290
     0
176
     0
290
     0
176
     0
290
     0
176
     0
290
     0
176
     0
 90
       50
176
     0
 40
0.0
176
     0
 40
1.0
176
     0
 90
        0
176
     0
 62
    18
420
        0
176
     0
 90
       50
176
     0
 90
        3
176
     0
 62
     5
420
      255
176
     0
290
     0
176
     0
 90
       50
176
     0
 90
       50
176
     0
 90
       50
176
     0
290
     0
176
     0
 90
       50
176
     0
 62
   256
176
     0
 40
1.0
176
     0
 90
        2
176
     0
  1
strokes_ogs.tif
176
     0
290
     0
176
     0
 40
1.0
176
     0
 40
1.0
176
     0
  0
VISUALSTYLE
  5
39
102
{ACAD_REACTORS
330
2A
102
}
330
2A
100
AcDbVisualStyle
  2
Facepattern
 70
    15
177
     3
291
     1
 70
    58
 90
        2
176
     1
 90
        2
176
     1
 90
        0
176
     1
 90
        0
176
     1
 40
0.6
176
     1
 40
30.0
176
     1
 62
     7
420
 16777215
176
     1
 90
        1
176
     1
 90
        4
176
     1
 62
     7
176
     1
 62
   257
176
     1
 90
        1
176
     1
 90
        1
176
     1
 40
1.0
176
     1
 90
        8
176
     1
 62
     7
176
     1
 40
1.0
176
     1
 90
        1
176
     1
 90
        6
176
     1
 90
        2
176
     1
 62
     7
176
     1
 90
        5
176
     1
 90
        0
176
     1
 90
        0
176
     1
290
     0
176
     1
 90
        1
176
     1
 40
0.0
176
     1
 90
        0
176
     1
290
     0
176
     1
290
     1
176
     1
290
     1
176
     1
290
     0
176
     1
290
     0
176
     1
290
     0
176
     1
290
     0
176
     1
290
     0
176
     1
290
     0
176
     1
 90
       50
176
     1
 40
0.0
176
     1
 40
1.0
176
     1
 90
        0
176
     1
 62
    18
420
        0
176
     1
 90
       50
176
     1
 90
        3
176
     1
 62
     5
420
      255
176
     1
290
     0
176
     1
 90
       50
176
     1
 90
       50
176
     1
 90
       50
176
     1
290
     0
176
     1
 90
       50
176
     1
 62
   256
176
     0
 40
1.0
176
     0
 90
        2
176
     1
  1
strokes_ogs.tif
176
     1
290
     0
176
     1
 40
1.0
176
     1
 40
1.0
176
     1
  0
VISUALSTYLE
  5
2B
102
{ACAD_REACTORS
330
2A
102
}
330
2A
100
AcDbVisualStyle
  2
Flat
 70
     0
177
     3
291
     1
 70
    58
 90
        2
176
     1
 90
        1
176
     1
 90
        1
176
     1
 90
        2
176
     1
 40
0.6
176
     1
 40
30.0
176
     1
 62
     7
420
 16777215
176
     1
 90
        0
176
     1
 90
        0
176
     1
 62
     7
176
     1
 62
   257
176
     1
 90
        1
176
     1
 90
        1
176
     1
 40
1.0
176
     1
 90
        8
176
     1
 62
     7
176
     1
 40
1.0
176
     1
 90
        1
176
     1
 90
        6
176
     1
 90
        2
176
     1
 62
     7
176
     1
 90
        5
176
     1
 90
        0
176
     1
 90
        0
176
     1
290
     0
176
     1
 90
       13
176
     1
 40
0.0
176
     1
 90
        0
176
     1
290
     0
176
     1
290
     1
176
     1
290
     1
176
     1
290
     0
176
     1
290
     0
176
     1
290
     0
176
     1
290
     0
176
     1
290
     0
176
     1
290
     0
176
     1
 90
       50
176
     1
 40
0.0
176
     1
 40
1.0
176
     1
 90
        0
176
     1
 62
    18
420
        0
176
     1
 90
       50
176
     1
 90
        3
176
     1
 62
     5
420
      255
176
     1
290
     0
176
     1
 90
       50
176
     1
 90
       50
176
     1
 90
       50
176
     1
290
     0
176
     1
 90
       50
176
     1
 62
   256
176
     0
 40
1.0
176
     0
 90
        2
176
     1
  1
strokes_ogs.tif
176
     1
290
     0
176
     1
 40
1.0
176
     1
 40
1.0
176
     1
  0
VISUALSTYLE
  5
2C
102
{ACAD_REACTORS
330
2A
102
}
330
2A
100
AcDbVisualStyle
  2
FlatWithEdges
 70
     1
177
     3
291
     1
 70
    58
 90
        2
176
     1
 90
        1
176
     1
 90
        1
176
     1
 90
        2
176
     1
 40
0.6
176
     1
 40
30.0
176
     1
 62
     7
420
 16777215
176
     1
 90
        1
176
     1
 90
        0
176
     1
 62
     7
176
     1
 62
   257
176
     1
 90
        1
176
     1
 90
        1
176
     1
 40
1.0
176
     1
 90
        0
176
     1
 62
   257
176
     1
 40
1.0
176
     1
 90
        1
176
     1
 90
        6
176
     1
 90
        2
176
     1
 62
     7
176
     1
 90
        5
176
     1
 90
        0
176
     1
 90
        0
176
     1
290
     0
176
     1
 90
       13
176
     1
 40
0.0
176
     1
 90
        0
176
     1
290
     0
176
     1
290
     1
176
     1
290
     1
176
     1
290
     0
176
     1
290
     0
176
     1
290
     0
176
     1
290
     0
176
     1
290
     0
176
     1
290
     0
176
     1
 90
       50
176
     1
 40
0.0
176
     1
 40
1.0
176
     1
 90
        0
176
     1
 62
    18
420
        0
176
     1
 90
       50
176
     1
 90
        3
176
     1
 62
     5
420
      255
176
     1
290
     0
176
     1
 90
       50
176
     1
 90
       50
176
     1
 90
       50
176
     1
290
     0
176
     1
 90
       50
176
     1
 62
   256
176
     0
 40
1.0
176
     0
 90
        2
176
     1
  1
strokes_ogs.tif
176
     1
290
     0
176
     1
 40
1.0
176
     1
 40
1.0
176
     1
  0
VISUALSTYLE
  5
2D
102
{ACAD_REACTORS
330
2A
102
}
330
2A
100
AcDbVisualStyle
  2
Gouraud
 70
     2
177
     3
291
     1
 70
    58
 90
        2
176
     1
 90
        2
176
     1
 90
        1
176
     1
 90
        2
176
     1
 40
0.6
176
     1
 40
30.0
176
     1
 62
     7
420
 16777215
176
     1
 90
        0
176
     1
 90
        0
176
     1
 62
     7
176
     1
 62
   257
176
     1
 90
        1
176
     1
 90
        1
176
     1
 40
1.0
176
     1
 90
        0
176
     1
 62
     7
176
     1
 40
1.0
176
     1
 90
        1
176
     1
 90
        6
176
     1
 90
        2
176
     1
 62
     7
176
     1
 90
        5
176
     1
 90
        0
176
     1
 90
        0
176
     1
290
     0
176
     1
 90
       13
176
     1
 40
0.0
176
     1
 90
        0
176
     1
290
     0
176
     1
290
     1
176
     1
290
     1
176
     1
290
     0
176
     1
290
     0
176
     1
290
     0
176
     1
290
     0
176
     1
290
     0
176
     1
290
     0
176
     1
 90
       50
176
     1
 40
0.0
176
     1
 40
1.0
176
     1
 90
        0
176
     1
 62
    18
420
        0
176
     1
 90
       50
176
     1
 90
        3
176
     1
 62
     5
420
      255
176
     1
290
     0
176
     1
 90
       50
176
     1
 90
       50
176
     1
 90
       50
176
     1
290
     0
176
     1
 90
       50
176
     1
 62
   256
176
     0
 40
1.0
176
     0
 90
        2
176
     1
  1
strokes_ogs.tif
176
     1
290
     0
176
     1
 40
1.0
176
     1
 40
1.0
176
     1
  0
VISUALSTYLE
  5
2E
102
{ACAD_REACTORS
330
2A
102
}
330
2A
100
AcDbVisualStyle
  2
GouraudWithEdges
 70
     3
177
     3
291
     1
 70
    58
 90
        2
176
     1
 90
        2
176
     1
 90
        1
176
     1
 90
        2
176
     1
 40
0.6
176
     1
 40
30.0
176
     1
 62
     7
420
 16777215
176
     1
 90
        1
176
     1
 90
        0
176
     1
 62
     7
176
     1
 62
   257
176
     1
 90
        1
176
     1
 90
        1
176
     1
 40
1.0
176
     1
 90
        0
176
     1
 62
   257
176
     1
 40
1.0
176
     1
 90
        1
176
     1
 90
        6
176
     1
 90
        2
176
     1
 62
     7
176
     1
 90
        5
176
     1
 90
        0
176
     1
 90
        0
176
     1
290
     0
176
     1
 90
       13
176
     1
 40
0.0
176
     1
 90
        0
176
     1
290
     0
176
     1
290
     1
176
     1
290
     1
176
     1
290
     0
176
     1
290
     0
176
     1
290
     0
176
     1
290
     0
176
     1
290
     0
176
     1
290
     0
176
     1
 90
       50
176
     1
 40
0.0
176
     1
 40
1.0
176
     1
 90
        0
176
     1
 62
    18
420
        0
176
     1
 90
       50
176
     1
 90
        3
176
     1
 62
     5
420
      255
176
     1
290
     0
176
     1
 90
       50
176
     1
 90
       50
176
     1
 90
       50
176
     1
290
     0
176
     1
 90
       50
176
     1
 62
   256
176
     0
 40
1.0
176
     0
 90
        2
176
     1
  1
strokes_ogs.tif
176
     1
290
     0
176
     1
 40
1.0
176
     1
 40
1.0
176
     1
  0
VISUALSTYLE
  5
31
102
{ACAD_REACTORS
330
2A
102
}
330
2A
100
AcDbVisualStyle
  2
Hidden
 70
     6
177
     3
291
     0
 70
    58
 90
        1
176
     1
 90
        2
176
     1
 90
        2
176
     1
 90
        0
176
     1
 40
0.6
176
     1
 40
30.0
176
     1
 62
     7
420
 16777215
176
     1
 90
        2
176
     1
 90
        2
176
     1
 62
     7
176
     1
 62
   257
176
     1
 90
        2
176
     1
 90
        1
176
     1
 40
40.0
176
     1
 90
        0
176
     1
 62
   257
176
     1
 40
1.0
176
     1
 90
        1
176
     1
 90
        6
176
     1
 90
        2
176
     1
 62
     7
176
     1
 90
        3
176
     1
 90
        0
176
     1
 90
        0
176
     1
290
     0
176
     1
 90
        1
176
     1
 40
0.0
176
     1
 90
        0
176
     1
290
     0
176
     1
290
     1
176
     1
290
     1
176
     1
290
     0
176
     1
290
     0
176
     1
290
     0
176
     1
290
     0
176
     1
290
     0
176
     1
290
     0
176
     1
 90
       50
176
     1
 40
0.0
176
     1
 40
1.0
176
     1
 90
        0
176
     1
 62
    18
420
        0
176
     1
 90
       50
176
     1
 90
        3
176
     1
 62
     5
420
      255
176
     1
290
     0
176
     1
 90
       50
176
     1
 90
       50
176
     1
 90
       50
176
     1
290
     0
176
     1
 90
       50
176
     1
 62
   256
176
     0
 40
1.0
176
     0
 90
        2
176
     1
  1
strokes_ogs.tif
176
     1
290
     0
176
     1
 40
1.0
176
     1
 40
1.0
176
     1
  0
VISUALSTYLE
  5
3B
102
{ACAD_REACTORS
330
2A
102
}
330
2A
100
AcDbVisualStyle
  2
JitterOff
 70
    20
177
     3
291
     1
 70
    58
 90
        2
176
     0
 90
        2
176
     0
 90
        0
176
     0
 90
        0
176
     0
 40
0.6
176
     0
 40
30.0
176
     0
 62
     7
420
 16777215
176
     0
 90
        1
176
     0
 90
        4
176
     0
 62
     7
176
     0
 62
   257
176
     0
 90
        1
176
     0
 90
        1
176
     0
 40
1.0
176
     0
 90
       10
176
     2
 62
     7
176
     0
 40
1.0
176
     0
 90
        1
176
     0
 90
        6
176
     0
 90
        2
176
     0
 62
     7
176
     0
 90
        5
176
     0
 90
        0
176
     0
 90
        0
176
     0
290
     0
176
     0
 90
        1
176
     0
 40
0.0
176
     0
 90
        0
176
     0
290
     0
176
     0
290
     1
176
     0
290
     1
176
     0
290
     0
176
     0
290
     0
176
     0
290
     0
176
     0
290
     0
176
     0
290
     0
176
     0
290
     0
176
     0
 90
       50
176
     0
 40
0.0
176
     0
 40
1.0
176
     0
 90
        0
176
     0
 62
    18
420
        0
176
     0
 90
       50
176
     0
 90
        3
176
     0
 62
     5
420
      255
176
     0
290
     0
176
     0
 90
       50
176
     0
 90
       50
176
     0
 90
       50
176
     0
290
     0
176
     0
 90
       50
176
     0
 62
   256
176
     0
 40
1.0
176
     0
 90
        2
176
     0
  1
strokes_ogs.tif
176
     0
290
     0
176
     0
 40
1.0
176
     0
 40
1.0
176
     0
  0
VISUALSTYLE
  5
38
102
{ACAD_REACTORS
330
2A
102
}
330
2A
100
AcDbVisualStyle
  2
Linepattern
 70
    14
177
     3
291
     1
 70
    58
 90
        2
176
     1
 90
        2
176
     1
 90
        0
176
     1
 90
        0
176
     1
 40
0.6
176
     1
 40
30.0
176
     1
 62
     7
420
 16777215
176
     1
 90
        1
176
     1
 90
        4
176
     1
 62
     7
176
     1
 62
   257
176
     1
 90
        7
176
     1
 90
        7
176
     1
 40
1.0
176
     1
 90
        8
176
     1
 62
     7
176
     1
 40
1.0
176
     1
 90
        1
176
     1
 90
        6
176
     1
 90
        2
176
     1
 62
     7
176
     1
 90
        5
176
     1
 90
        0
176
     1
 90
        0
176
     1
290
     0
176
     1
 90
        1
176
     1
 40
0.0
176
     1
 90
        0
176
     1
290
     0
176
     1
290
     1
176
     1
290
     1
176
     1
290
     0
176
     1
290
     0
176
     1
290
     0
176
     1
290
     0
176
     1
290
     0
176
     1
290
     0
176
     1
 90
       50
176
     1
 40
0.0
176
     1
 40
1.0
176
     1
 90
        0
176
     1
 62
    18
420
        0
176
     1
 90
       50
176
     1
 90
        3
176
     1
 62
     5
420
      255
176
     1
290
     0
176
     1
 90
       50
176
     1
 90
       50
176
     1
 90
       50
176
     1
290
     0
176
     1
 90
       50
176
     1
 62
   256
176
     0
 40
1.0
176
     0
 90
        2
176
     1
  1
strokes_ogs.tif
176
     1
290
     0
176
     1
 40
1.0
176
     1
 40
1.0
176
     1
  0
VISUALSTYLE
  5
3C
102
{ACAD_REACTORS
330
2A
102
}
330
2A
100
AcDbVisualStyle
  2
OverhangOff
 70
    21
177
     3
291
     1
 70
    58
 90
        2
176
     0
 90
        2
176
     0
 90
        0
176
     0
 90
        0
176
     0
 40
0.6
176
     0
 40
30.0
176
     0
 62
     7
420
 16777215
176
     0
 90
        1
176
     0
 90
        4
176
     0
 62
     7
176
     0
 62
   257
176
     0
 90
        1
176
     0
 90
        1
176
     0
 40
1.0
176
     0
 90
        9
176
     2
 62
     7
176
     0
 40
1.0
176
     0
 90
        1
176
     0
 90
        6
176
     0
 90
        2
176
     0
 62
     7
176
     0
 90
        5
176
     0
 90
        0
176
     0
 90
        0
176
     0
290
     0
176
     0
 90
        1
176
     0
 40
0.0
176
     0
 90
        0
176
     0
290
     0
176
     0
290
     1
176
     0
290
     1
176
     0
290
     0
176
     0
290
     0
176
     0
290
     0
176
     0
290
     0
176
     0
290
     0
176
     0
290
     0
176
     0
 90
       50
176
     0
 40
0.0
176
     0
 40
1.0
176
     0
 90
        0
176
     0
 62
    18
420
        0
176
     0
 90
       50
176
     0
 90
        3
176
     0
 62
     5
420
      255
176
     0
290
     0
176
     0
 90
       50
176
     0
 90
       50
176
     0
 90
       50
176
     0
290
     0
176
     0
 90
       50
176
     0
 62
   256
176
     0
 40
1.0
176
     0
 90
        2
176
     0
  1
strokes_ogs.tif
176
     0
290
     0
176
     0
 40
1.0
176
     0
 40
1.0
176
     0
  0
VISUALSTYLE
  5
33
102
{ACAD_REACTORS
330
2A
102
}
330
2A
100
AcDbVisualStyle
  2
Realistic
 70
     8
177
     3
291
     0
 70
    58
 90
        2
176
     1
 90
        3
176
     1
 90
        0
176
     1
 90
        2
176
     1
 40
0.6
176
     1
 40
30.0
176
     1
 62
     7
420
 16777215
176
     1
 90
        0
176
     1
 90
        0
176
     1
 62
     7
176
     1
 62
   257
176
     1
 90
        1
176
     1
 90
        1
176
     1
 40
1.0
176
     1
 90
        8
176
     1
 62
   257
176
     1
 40
1.0
176
     1
 90
        1
176
     1
 90
        6
176
     1
 90
        2
176
     1
 62
     7
176
     1
 90
        3
176
     1
 90
        0
176
     1
 90
        0
176
     1
290
     0
176
     1
 90
       13
176
     1
 40
0.0
176
     1
 90
        0
176
     1
290
     0
176
     1
290
     1
176
     1
290
     1
176
     1
290
     0
176
     1
290
     0
176
     1
290
     0
176
     1
290
     0
176
     1
290
     0
176
     1
290
     0
176
     1
 90
       50
176
     1
 40
0.0
176
     1
 40
1.0
176
     1
 90
        0
176
     1
 62
    18
420
        0
176
     1
 90
       50
176
     1
 90
        3
176
     1
 62
     5
420
      255
176
     1
290
     0
176
     1
 90
       50
176
     1
 90
       50
176
     1
 90
       50
176
     1
290
     0
176
     1
 90
       50
176
     1
 62
   256
176
     0
 40
1.0
176
     0
 90
        2
176
     1
  1
strokes_ogs.tif
176
     1
290
     0
176
     1
 40
1.0
176
     1
 40
1.0
176
     1
  0
VISUALSTYLE
  5
42
102
{ACAD_REACTORS
330
2A
102
}
330
2A
100
AcDbVisualStyle
  2
Shaded
 70
    27
177
     3
291
     0
 70
    58
 90
        2
176
     1
 90
        2
176
     1
 90
        1
176
     1
 90
        2
176
     1
 40
0.6
176
     1
 40
30.0
176
     1
 62
     7
420
 16777215
176
     1
 90
        0
176
     1
 90
        4
176
     1
 62
     7
176
     1
 62
   257
176
     1
 90
        1
176
     1
 90
        1
176
     1
 40
1.0
176
     1
 90
        8
176
     1
 62
   257
176
     1
 40
1.0
176
     1
 90
        1
176
     1
 90
        6
176
     1
 90
        2
176
     1
 62
     8
420
  7895160
176
     1
 90
        3
176
     1
 90
        0
176
     1
 90
        0
176
     1
290
     0
176
     1
 90
        5
176
     1
 40
0.0
176
     1
 90
        0
176
     1
290
     0
176
     1
290
     1
176
     1
290
     1
176
     1
290
     0
176
     1
290
     0
176
     1
290
     0
176
     1
290
     0
176
     1
290
     0
176
     1
290
     0
176
     1
 90
       50
176
     1
 40
0.0
176
     1
 40
1.0
176
     1
 90
        0
176
     1
 62
    18
420
        0
176
     1
 90
       50
176
     1
 90
        3
176
     1
 62
     5
420
      255
176
     1
290
     0
176
     1
 90
       50
176
     1
 90
       50
176
     1
 90
       50
176
     1
290
     0
176
     1
 90
       50
176
     1
 62
   256
176
     0
 40
1.0
176
     0
 90
        2
176
     1
  1
strokes_ogs.tif
176
     1
290
     0
176
     1
 40
1.0
176
     1
 40
1.0
176
     1
  0
VISUALSTYLE
  5
41
102
{ACAD_REACTORS
330
2A
102
}
330
2A
100
AcDbVisualStyle
  2
Shaded with edges
 70
    26
177
     3
291
     0
 70
    58
 90
        2
176
     1
 90
        2
176
     1
 90
        1
176
     1
 90
        2
176
     1
 40
0.6
176
     1
 40
30.0
176
     1
 62
     7
420
 16777215
176
     1
 90
        1
176
     1
 90
       10
176
     1
 62
     7
176
     1
 62
   257
176
     1
 90
        2
176
     1
 90
        1
176
     1
 40
1.0
176
     1
 90
        8
176
     1
 62
   257
176
     1
 40
1.0
176
     1
 90
        1
176
     1
 90
        6
176
     1
 90
        2
176
     1
 62
     7
176
     1
 90
        3
176
     1
 90
        0
176
     1
 90
        0
176
     1
290
     0
176
     1
 90
        5
176
     1
 40
0.0
176
     1
 90
        0
176
     1
290
     0
176
     1
290
     1
176
     1
290
     1
176
     1
290
     0
176
     1
290
     0
176
     1
290
     0
176
     1
290
     0
176
     1
290
     0
176
     1
290
     0
176
     1
 90
       50
176
     1
 40
0.0
176
     1
 40
1.0
176
     1
 90
        0
176
     1
 62
    18
420
        0
176
     1
 90
       50
176
     1
 90
        3
176
     1
 62
     5
420
      255
176
     1
290
     0
176
     1
 90
       50
176
     1
 90
       50
176
     1
 90
       50
176
     1
290
     0
176
     1
 90
       50
176
     1
 62
   256
176
     0
 40
1.0
176
     0
 90
        2
176
     1
  1
strokes_ogs.tif
176
     1
290
     0
176
     1
 40
1.0
176
     1
 40
1.0
176
     1
  0
VISUALSTYLE
  5
3E
102
{ACAD_REACTORS
330
2A
102
}
330
2A
100
AcDbVisualStyle
  2
Shades of Gray
 70
    23
177
     3
291
     0
 70
    58
 90
        2
176
     1
 90
        2
176
     1
 90
        3
176
     1
 90
        0
176
     1
 40
0.6
176
     1
 40
30.0
176
     1
 62
     7
420
 16777215
176
     1
 90
        2
176
     1
 90
        2
176
     1
 62
     7
176
     1
 62
     7
176
     1
 90
        1
176
     1
 90
        1
176
     1
 40
40.0
176
     1
 90
        8
176
     1
 62
     7
176
     1
 40
1.0
176
     1
 90
        1
176
     1
 90
        6
176
     1
 90
        2
176
     1
 62
     7
176
     1
 90
        3
176
     1
 90
        0
176
     1
 90
        0
176
     1
290
     0
176
     1
 90
        1
176
     1
 40
0.0
176
     1
 90
        0
176
     1
290
     0
176
     1
290
     1
176
     1
290
     1
176
     1
290
     0
176
     1
290
     0
176
     1
290
     0
176
     1
290
     0
176
     1
290
     0
176
     1
290
     0
176
     1
 90
       50
176
     1
 40
0.0
176
     1
 40
1.0
176
     1
 90
        0
176
     1
 62
    18
420
        0
176
     1
 90
       50
176
     1
 90
        3
176
     1
 62
     5
420
      255
176
     1
290
     0
176
     1
 90
       50
176
     1
 90
       50
176
     1
 90
       50
176
     1
290
     0
176
     1
 90
       50
176
     1
 62
   256
176
     0
 40
1.0
176
     0
 90
        2
176
     1
  1
strokes_ogs.tif
176
     1
290
     0
176
     1
 40
1.0
176
     1
 40
1.0
176
     1
  0
VISUALSTYLE
  5
3F
102
{ACAD_REACTORS
330
2A
102
}
330
2A
100
AcDbVisualStyle
  2
Sketchy
 70
    24
177
     3
291
     0
 70
    58
 90
        1
176
     1
 90
        2
176
     1
 90
        2
176
     1
 90
        0
176
     1
 40
0.6
176
     1
 40
30.0
176
     1
 62
     7
420
 16777215
176
     1
 90
        2
176
     1
 90
        2
176
     1
 62
     7
176
     1
 62
     7
176
     1
 90
        1
176
     1
 90
        1
176
     1
 40
40.0
176
     1
 90
       11
176
     1
 62
     7
176
     1
 40
1.0
176
     1
 90
        1
176
     1
 90
        6
176
     1
 90
        2
176
     1
 62
     7
176
     1
 90
        6
176
     1
 90
        0
176
     1
 90
        0
176
     1
290
     0
176
     1
 90
        1
176
     1
 40
0.0
176
     1
 90
        0
176
     1
290
     0
176
     1
290
     1
176
     1
290
     1
176
     1
290
     0
176
     1
290
     0
176
     1
290
     0
176
     1
290
     0
176
     1
290
     0
176
     1
290
     0
176
     1
 90
       50
176
     1
 40
0.0
176
     1
 40
1.0
176
     1
 90
        0
176
     1
 62
    18
420
        0
176
     1
 90
       50
176
     1
 90
        3
176
     1
 62
     5
420
      255
176
     1
290
     0
176
     1
 90
       50
176
     1
 90
       50
176
     1
 90
       50
176
     1
290
     0
176
     1
 90
       50
176
     1
 62
   256
176
     0
 40
1.0
176
     0
 90
        2
176
     1
  1
strokes_ogs.tif
176
     1
290
     0
176
     1
 40
1.0
176
     1
 40
1.0
176
     1
  0
VISUALSTYLE
  5
37
102
{ACAD_REACTORS
330
2A
102
}
330
2A
100
AcDbVisualStyle
  2
Thicken
 70
    13
177
     3
291
     1
 70
    58
 90
        2
176
     1
 90
        2
176
     1
 90
        0
176
     1
 90
        0
176
     1
 40
0.6
176
     1
 40
30.0
176
     1
 62
     7
420
 16777215
176
     1
 90
        1
176
     1
 90
        4
176
     1
 62
     7
176
     1
 62
   257
176
     1
 90
        1
176
     1
 90
        1
176
     1
 40
1.0
176
     1
 90
       12
176
     1
 62
     7
176
     1
 40
1.0
176
     1
 90
        1
176
     1
 90
        6
176
     1
 90
        2
176
     1
 62
     7
176
     1
 90
        5
176
     1
 90
        0
176
     1
 90
        0
176
     1
290
     0
176
     1
 90
        1
176
     1
 40
0.0
176
     1
 90
        0
176
     1
290
     0
176
     1
290
     1
176
     1
290
     1
176
     1
290
     0
176
     1
290
     0
176
     1
290
     0
176
     1
290
     0
176
     1
290
     0
176
     1
290
     0
176
     1
 90
       50
176
     1
 40
0.0
176
     1
 40
1.0
176
     1
 90
        0
176
     1
 62
    18
420
        0
176
     1
 90
       50
176
     1
 90
        3
176
     1
 62
     5
420
      255
176
     1
290
     0
176
     1
 90
       50
176
     1
 90
       50
176
     1
 90
       50
176
     1
290
     0
176
     1
 90
       50
176
     1
 62
   256
176
     0
 40
1.0
176
     0
 90
        2
176
     1
  1
strokes_ogs.tif
176
     1
290
     0
176
     1
 40
1.0
176
     1
 40
1.0
176
     1
  0
VISUALSTYLE
  5
30
102
{ACAD_REACTORS
330
2A
102
}
330
2A
100
AcDbVisualStyle
  2
Wireframe
 70
     5
177
     3
291
     0
 70
    58
 90
        0
176
     1
 90
        2
176
     1
 90
        0
176
     1
 90
        0
176
     1
 40
0.6
176
     1
 40
30.0
176
     1
 62
     7
420
 16777215
176
     1
 90
        1
176
     1
 90
        4
176
     1
 62
     7
176
     1
 62
   257
176
     1
 90
        1
176
     1
 90
        1
176
     1
 40
1.0
176
     1
 90
        0
176
     1
 62
   257
176
     1
 40
1.0
176
     1
 90
        1
176
     1
 90
        6
176
     1
 90
        2
176
     1
 62
     7
176
     1
 90
        3
176
     1
 90
        0
176
     1
 90
        0
176
     1
290
     0
176
     1
 90
        1
176
     1
 40
0.0
176
     1
 90
        0
176
     1
290
     0
176
     1
290
     1
176
     1
290
     1
176
     1
290
     0
176
     1
290
     0
176
     1
290
     0
176
     1
290
     0
176
     1
290
     0
176
     1
290
     0
176
     1
 90
       50
176
     1
 40
0.0
176
     1
 40
1.0
176
     1
 90
        0
176
     1
 62
    18
420
        0
176
     1
 90
       50
176
     1
 90
        3
176
     1
 62
     5
420
      255
176
     1
290
     0
176
     1
 90
       50
176
     1
 90
       50
176
     1
 90
       50
176
     1
290
     0
176
     1
 90
       50
176
     1
 62
   256
176
     0
 40
1.0
176
     0
 90
        2
176
     1
  1
strokes_ogs.tif
176
     1
290
     0
176
     1
 40
1.0
176
     1
 40
1.0
176
     1
  0
VISUALSTYLE
  5
40
102
{ACAD_REACTORS
330
2A
102
}
330
2A
100
AcDbVisualStyle
  2
X-Ray
 70
    25
177
     3
291
     0
 70
    58
 90
        2
176
     1
 90
        2
176
     1
 90
        1
176
     1
 90
        1
176
     1
 40
0.5
176
     1
 40
30.0
176
     1
 62
     7
420
 16777215
176
     1
 90
        1
176
     1
 90
        0
176
     1
 62
     7
176
     1
 62
   257
176
     1
 90
        1
176
     1
 90
        1
176
     1
 40
1.0
176
     1
 90
        8
176
     1
 62
     7
176
     1
 40
1.0
176
     1
 90
        1
176
     1
 90
        6
176
     1
 90
        2
176
     1
 62
     7
176
     1
 90
        3
176
     1
 90
        0
176
     1
 90
        0
176
     1
290
     0
176
     1
 90
       13
176
     1
 40
0.0
176
     1
 90
        0
176
     1
290
     0
176
     1
290
     1
176
     1
290
     1
176
     1
290
     0
176
     1
290
     0
176
     1
290
     0
176
     1
290
     0
176
     1
290
     0
176
     1
290
     0
176
     1
 90
       50
176
     1
 40
0.0
176
     1
 40
1.0
176
     1
 90
        0
176
     1
 62
    18
420
        0
176
     1
 90
       50
176
     1
 90
        3
176
     1
 62
     5
420
      255
176
     1
290
     0
176
     1
 90
       50
176
     1
 90
       50
176
     1
 90
       50
176
     1
290
     0
176
     1
 90
       50
176
     1
 62
   256
176
     0
 40
1.0
176
     0
 90
        2
176
     1
  1
strokes_ogs.tif
176
     1
290
     0
176
     1
 40
1.0
176
     1
 40
1.0
176
     1
  0
DICTIONARYVAR
  5
2CC
102
{ACAD_REACTORS
330
2CB
102
}
330
2CB
100
DictionaryVariables
280
     0
  1
1:1
  0
DICTIONARYVAR
  5
2D1
102
{ACAD_REACTORS
330
2CB
102
}
330
2CB
100
DictionaryVariables
280
     0
  1
Standard
  0
DICTIONARYVAR
  5
2D0
102
{ACAD_REACTORS
330
2CB
102
}
330
2CB
100
DictionaryVariables
280
     0
  1
Standard
  0
DICTIONARY
  5
2CD
330
5A
100
AcDbDictionary
280
     1
281
     1
  3
ACAD_ROUNDTRIP_2008_TABLESTYLE_CELLSTYLEMAP
360
2CE
  0
CELLSTYLEMAP
  5
2CE
102
{ACAD_REACTORS
330
2CD
102
}
330
2CD
100
AcDbCellStyleMap
 90
        3
300
CELLSTYLE
  1
TABLEFORMAT_BEGIN
 90
        5
170
     1
 91
        0
 92
    32768
 62
   257
 93
        1
300
CONTENTFORMAT
  1
CONTENTFORMAT_BEGIN
 90
        0
 91
        0
 92
        4
 93
        0
300

 40
0.0
140
1.0
 94
        5
 62
     0
340
11
144
0.25
309
CONTENTFORMAT_END
171
     1
301
MARGIN
  1
CELLMARGIN_BEGIN
 40
0.06
 40
0.06
 40
0.06
 40
0.06
 40
0.06
 40
0.06
309
CELLMARGIN_END
 94
        6
 95
        1
302
GRIDFORMAT
  1
GRIDFORMAT_BEGIN
 90
        0
 91
        1
 62
     0
 92
       -2
340
14
 93
        0
 40
0.045
309
GRIDFORMAT_END
 95
        2
302
GRIDFORMAT
  1
GRIDFORMAT_BEGIN
 90
        0
 91
        1
 62
     0
 92
       -2
340
14
 93
        0
 40
0.045
309
GRIDFORMAT_END
 95
        4
302
GRIDFORMAT
  1
GRIDFORMAT_BEGIN
 90
        0
 91
        1
 62
     0
 92
       -2
340
14
 93
        0
 40
0.045
309
GRIDFORMAT_END
 95
        8
302
GRIDFORMAT
  1
GRIDFORMAT_BEGIN
 90
        0
 91
        1
 62
     0
 92
       -2
340
14
 93
        0
 40
0.045
309
GRIDFORMAT_END
 95
       16
302
GRIDFORMAT
  1
GRIDFORMAT_BEGIN
 90
        0
 91
        1
 62
     0
 92
       -2
340
14
 93
        0
 40
0.045
309
GRIDFORMAT_END
 95
       32
302
GRIDFORMAT
  1
GRIDFORMAT_BEGIN
 90
        0
 91
        1
 62
     0
 92
       -2
340
14
 93
        0
 40
0.045
309
GRIDFORMAT_END
309
TABLEFORMAT_END
  1
CELLSTYLE_BEGIN
 90
        1
 91
        1
300
_TITLE
309
CELLSTYLE_END
300
CELLSTYLE
  1
TABLEFORMAT_BEGIN
 90
        5
170
     1
 91
        0
 92
        0
 62
   257
 93
        1
300
CONTENTFORMAT
  1
CONTENTFORMAT_BEGIN
 90
        0
 91
        0
 92
        4
 93
        0
300

 40
0.0
140
1.0
 94
        5
 62
     0
340
11
144
0.18
309
CONTENTFORMAT_END
171
     1
301
MARGIN
  1
CELLMARGIN_BEGIN
 40
0.06
 40
0.06
 40
0.06
 40
0.06
 40
0.06
 40
0.06
309
CELLMARGIN_END
 94
        6
 95
        1
302
GRIDFORMAT
  1
GRIDFORMAT_BEGIN
 90
        0
 91
        1
 62
     0
 92
       -2
340
14
 93
        0
 40
0.045
309
GRIDFORMAT_END
 95
        2
302
GRIDFORMAT
  1
GRIDFORMAT_BEGIN
 90
        0
 91
        1
 62
     0
 92
       -2
340
14
 93
        0
 40
0.045
309
GRIDFORMAT_END
 95
        4
302
GRIDFORMAT
  1
GRIDFORMAT_BEGIN
 90
        0
 91
        1
 62
     0
 92
       -2
340
14
 93
        0
 40
0.045
309
GRIDFORMAT_END
 95
        8
302
GRIDFORMAT
  1
GRIDFORMAT_BEGIN
 90
        0
 91
        1
 62
     0
 92
       -2
340
14
 93
        0
 40
0.045
309
GRIDFORMAT_END
 95
       16
302
GRIDFORMAT
  1
GRIDFORMAT_BEGIN
 90
        0
 91
        1
 62
     0
 92
       -2
340
14
 93
        0
 40
0.045
309
GRIDFORMAT_END
 95
       32
302
GRIDFORMAT
  1
GRIDFORMAT_BEGIN
 90
        0
 91
        1
 62
     0
 92
       -2
340
14
 93
        0
 40
0.045
309
GRIDFORMAT_END
309
TABLEFORMAT_END
  1
CELLSTYLE_BEGIN
 90
        2
 91
        1
300
_HEADER
309
CELLSTYLE_END
300
CELLSTYLE
  1
TABLEFORMAT_BEGIN
 90
        5
170
     1
 91
        0
 92
        0
 62
   257
 93
        1
300
CONTENTFORMAT
  1
CONTENTFORMAT_BEGIN
 90
        0
 91
        0
 92
        4
 93
        0
300

 40
0.0
140
1.0
 94
        2
 62
     0
340
11
144
0.18
309
CONTENTFORMAT_END
171
     1
301
MARGIN
  1
CELLMARGIN_BEGIN
 40
0.06
 40
0.06
 40
0.06
 40
0.06
 40
0.06
 40
0.06
309
CELLMARGIN_END
 94
        6
 95
        1
302
GRIDFORMAT
  1
GRIDFORMAT_BEGIN
 90
        0
 91
        1
 62
     0
 92
       -2
340
14
 93
        0
 40
0.045
309
GRIDFORMAT_END
 95
        2
302
GRIDFORMAT
  1
GRIDFORMAT_BEGIN
 90
        0
 91
        1
 62
     0
 92
       -2
340
14
 93
        0
 40
0.045
309
GRIDFORMAT_END
 95
        4
302
GRIDFORMAT
  1
GRIDFORMAT_BEGIN
 90
        0
 91
        1
 62
     0
 92
       -2
340
14
 93
        0
 40
0.045
309
GRIDFORMAT_END
 95
        8
302
GRIDFORMAT
  1
GRIDFORMAT_BEGIN
 90
        0
 91
        1
 62
     0
 92
       -2
340
14
 93
        0
 40
0.045
309
GRIDFORMAT_END
 95
       16
302
GRIDFORMAT
  1
GRIDFORMAT_BEGIN
 90
        0
 91
        1
 62
     0
 92
       -2
340
14
 93
        0
 40
0.045
309
GRIDFORMAT_END
 95
       32
302
GRIDFORMAT
  1
GRIDFORMAT_BEGIN
 90
        0
 91
        1
 62
     0
 92
       -2
340
14
 93
        0
 40
0.045
309
GRIDFORMAT_END
309
TABLEFORMAT_END
  1
CELLSTYLE_BEGIN
 90
        3
 91
        2
300
_DATA
309
CELLSTYLE_END
  0
ENDSEC
  0
EOF
