  0
SECTION
  2
HEADER
  9
$ACADVER
  1
AC1015
  9
$ACADMAINTVER
 70
     6
  9
$DWGCODEPAGE
  3
ANSI_1252
  9
$INSBASE
 10
0.0
 20
0.0
 30
0.0
  9
$EXTMIN
 10
-190.9481782650395
 20
-476.9095683928292
 30
0.0
  9
$EXTMAX
 10
219.0518217349605
 20
107.0904316071709
 30
0.0
  9
$LIMMIN
 10
0.0
 20
0.0
  9
$LIMMAX
 10
12.0
 20
9.0
  9
$ORTHOMODE
 70
     0
  9
$REGENMODE
 70
     1
  9
$FILLMODE
 70
     1
  9
$QTEXTMODE
 70
     0
  9
$MIRRTEXT
 70
     1
  9
$LTSCALE
 40
1.0
  9
$ATTMODE
 70
     1
  9
$TEXTSIZE
 40
0.2
  9
$TRACEWID
 40
0.05
  9
$TEXTSTYLE
  7
Standard
  9
$CLAYER
  8
0
  9
$CELTYPE
  6
ByLayer
  9
$CECOLOR
 62
   256
  9
$CELTSCALE
 40
1.0
  9
$DISPSILH
 70
     0
  9
$DIMSCALE
 40
1.0
  9
$DIMASZ
 40
0.18
  9
$DIMEXO
 40
0.0625
  9
$DIMDLI
 40
0.38
  9
$DIMRND
 40
0.0
  9
$DIMDLE
 40
0.0
  9
$DIMEXE
 40
0.18
  9
$DIMTP
 40
0.0
  9
$DIMTM
 40
0.0
  9
$DIMTXT
 40
0.18
  9
$DIMCEN
 40
0.09
  9
$DIMTSZ
 40
0.0
  9
$DIMTOL
 70
     0
  9
$DIMLIM
 70
     0
  9
$DIMTIH
 70
     1
  9
$DIMTOH
 70
     1
  9
$DIMSE1
 70
     0
  9
$DIMSE2
 70
     0
  9
$DIMTAD
 70
     0
  9
$DIMZIN
 70
     0
  9
$DIMBLK
  1

  9
$DIMASO
 70
     1
  9
$DIMSHO
 70
     1
  9
$DIMPOST
  1

  9
$DIMAPOST
  1

  9
$DIMALT
 70
     0
  9
$DIMALTD
 70
     2
  9
$DIMALTF
 40
25.4
  9
$DIMLFAC
 40
1.0
  9
$DIMTOFL
 70
     0
  9
$DIMTVP
 40
0.0
  9
$DIMTIX
 70
     0
  9
$DIMSOXD
 70
     0
  9
$DIMSAH
 70
     0
  9
$DIMBLK1
  1

  9
$DIMBLK2
  1

  9
$DIMSTYLE
  2
Standard
  9
$DIMCLRD
 70
     0
  9
$DIMCLRE
 70
     0
  9
$DIMCLRT
 70
     0
  9
$DIMTFAC
 40
1.0
  9
$DIMGAP
 40
0.09
  9
$DIMJUST
 70
     0
  9
$DIMSD1
 70
     0
  9
$DIMSD2
 70
     0
  9
$DIMTOLJ
 70
     1
  9
$DIMTZIN
 70
     0
  9
$DIMALTZ
 70
     0
  9
$DIMALTTZ
 70
     0
  9
$DIMUPT
 70
     0
  9
$DIMDEC
 70
     4
  9
$DIMTDEC
 70
     4
  9
$DIMALTU
 70
     2
  9
$DIMALTTD
 70
     2
  9
$DIMTXSTY
  7
Standard
  9
$DIMAUNIT
 70
     0
  9
$DIMADEC
 70
     0
  9
$DIMALTRND
 40
0.0
  9
$DIMAZIN
 70
     0
  9
$DIMDSEP
 70
    46
  9
$DIMATFIT
 70
     3
  9
$DIMFRAC
 70
     0
  9
$DIMLDRBLK
  1

  9
$DIMLUNIT
 70
     2
  9
$DIMLWD
 70
    -2
  9
$DIMLWE
 70
    -2
  9
$DIMTMOVE
 70
     0
  9
$LUNITS
 70
     2
  9
$LUPREC
 70
     4
  9
$SKETCHINC
 40
0.1
  9
$FILLETRAD
 40
0.5
  9
$AUNITS
 70
     0
  9
$AUPREC
 70
     0
  9
$MENU
  1
.
  9
$ELEVATION
 40
0.0
  9
$PELEVATION
 40
0.0
  9
$THICKNESS
 40
0.0
  9
$LIMCHECK
 70
     0
  9
$CHAMFERA
 40
0.0
  9
$CHAMFERB
 40
0.0
  9
$CHAMFERC
 40
0.0
  9
$CHAMFERD
 40
0.0
  9
$SKPOLY
 70
     0
  9
$TDCREATE
 40
2458442.413026377
  9
$TDUCREATE
 40
2458442.371359711
  9
$TDUPDATE
 40
2458442.413027002
  9
$TDUUPDATE
 40
2458442.371360335
  9
$TDINDWG
 40
0.0000000116
  9
$TDUSRTIMER
 40
0.0000000116
  9
$USRTIMER
 70
     1
  9
$ANGBASE
 50
0.0
  9
$ANGDIR
 70
     0
  9
$PDMODE
 70
     0
  9
$PDSIZE
 40
0.0
  9
$PLINEWID
 40
0.0
  9
$SPLFRAME
 70
     0
  9
$SPLINETYPE
 70
     6
  9
$SPLINESEGS
 70
     8
  9
$HANDSEED
  5
2FE
  9
$SURFTAB1
 70
     6
  9
$SURFTAB2
 70
     6
  9
$SURFTYPE
 70
     6
  9
$SURFU
 70
     6
  9
$SURFV
 70
     6
  9
$UCSBASE
  2

  9
$UCSNAME
  2

  9
$UCSORG
 10
0.0
 20
0.0
 30
0.0
  9
$UCSXDIR
 10
1.0
 20
0.0
 30
0.0
  9
$UCSYDIR
 10
0.0
 20
1.0
 30
0.0
  9
$UCSORTHOREF
  2

  9
$UCSORTHOVIEW
 70
     0
  9
$UCSORGTOP
 10
0.0
 20
0.0
 30
0.0
  9
$UCSORGBOTTOM
 10
0.0
 20
0.0
 30
0.0
  9
$UCSORGLEFT
 10
0.0
 20
0.0
 30
0.0
  9
$UCSORGRIGHT
 10
0.0
 20
0.0
 30
0.0
  9
$UCSORGFRONT
 10
0.0
 20
0.0
 30
0.0
  9
$UCSORGBACK
 10
0.0
 20
0.0
 30
0.0
  9
$PUCSBASE
  2

  9
$PUCSNAME
  2

  9
$PUCSORG
 10
0.0
 20
0.0
 30
0.0
  9
$PUCSXDIR
 10
1.0
 20
0.0
 30
0.0
  9
$PUCSYDIR
 10
0.0
 20
1.0
 30
0.0
  9
$PUCSORTHOREF
  2

  9
$PUCSORTHOVIEW
 70
     0
  9
$PUCSORGTOP
 10
0.0
 20
0.0
 30
0.0
  9
$PUCSORGBOTTOM
 10
0.0
 20
0.0
 30
0.0
  9
$PUCSORGLEFT
 10
0.0
 20
0.0
 30
0.0
  9
$PUCSORGRIGHT
 10
0.0
 20
0.0
 30
0.0
  9
$PUCSORGFRONT
 10
0.0
 20
0.0
 30
0.0
  9
$PUCSORGBACK
 10
0.0
 20
0.0
 30
0.0
  9
$USERI1
 70
     0
  9
$USERI2
 70
     0
  9
$USERI3
 70
     0
  9
$USERI4
 70
     0
  9
$USERI5
 70
     0
  9
$USERR1
 40
20.0
  9
$USERR2
 40
0.0
  9
$USERR3
 40
0.0
  9
$USERR4
 40
0.0
  9
$USERR5
 40
0.0
  9
$WORLDVIEW
 70
     1
  9
$SHADEDGE
 70
     3
  9
$SHADEDIF
 70
    70
  9
$TILEMODE
 70
     1
  9
$MAXACTVP
 70
    64
  9
$PINSBASE
 10
0.0
 20
0.0
 30
0.0
  9
$PLIMCHECK
 70
     0
  9
$PEXTMIN
 10
1.00000000000000E+20
 20
1.00000000000000E+20
 30
1.00000000000000E+20
  9
$PEXTMAX
 10
-1.00000000000000E+20
 20
-1.00000000000000E+20
 30
-1.00000000000000E+20
  9
$PLIMMIN
 10
0.0
 20
0.0
  9
$PLIMMAX
 10
12.0
 20
9.0
  9
$UNITMODE
 70
     0
  9
$VISRETAIN
 70
     1
  9
$PLINEGEN
 70
     0
  9
$PSLTSCALE
 70
     1
  9
$TREEDEPTH
 70
  3020
  9
$CMLSTYLE
  2
Standard
  9
$CMLJUST
 70
     0
  9
$CMLSCALE
 40
1.0
  9
$PROXYGRAPHICS
 70
     1
  9
$MEASUREMENT
 70
     1
  9
$CELWEIGHT
370
    -1
  9
$ENDCAPS
280
     0
  9
$JOINSTYLE
280
     0
  9
$LWDISPLAY
290
     0
  9
$INSUNITS
 70
     4
  9
$HYPERLINKBASE
  1

  9
$STYLESHEET
  1

  9
$XEDIT
290
     1
  9
$CEPSNTYPE
380
     0
  9
$PSTYLEMODE
290
     1
  9
$FINGERPRINTGUID
  2
{F2544147-DC81-4E25-8518-A5F2C00C0F4A}
  9
$VERSIONGUID
  2
{FAEB1C32-E019-11D5-929B-00C0DF256EC4}
  9
$EXTNAMES
290
     1
  9
$PSVPSCALE
 40
0.0
  9
$OLESTARTUP
290
     0
  0
ENDSEC
  0
SECTION
  2
CLASSES
  0
CLASS
  1
ACDBDICTIONARYWDFLT
  2
AcDbDictionaryWithDefault
  3
ObjectDBX Classes
 90
        0
280
     0
281
     0
  0
CLASS
  1
VISUALSTYLE
  2
AcDbVisualStyle
  3
ObjectDBX Classes
 90
     4095
280
     0
281
     0
  0
CLASS
  1
MATERIAL
  2
AcDbMaterial
  3
ObjectDBX Classes
 90
     1153
280
     0
281
     0
  0
CLASS
  1
SCALE
  2
AcDbScale
  3
ObjectDBX Classes
 90
     1153
280
     0
281
     0
  0
CLASS
  1
TABLESTYLE
  2
AcDbTableStyle
  3
ObjectDBX Classes
 90
     4095
280
     0
281
     0
  0
CLASS
  1
MLEADERSTYLE
  2
AcDbMLeaderStyle
  3
ACDB_MLEADERSTYLE_CLASS
 90
     4095
280
     0
281
     0
  0
CLASS
  1
SUN
  2
AcDbSun
  3
SCENEOE
 90
     1153
280
     0
281
     0
  0
CLASS
  1
DICTIONARYVAR
  2
AcDbDictionaryVar
  3
ObjectDBX Classes
 90
        0
280
     0
281
     0
  0
CLASS
  1
ACDBPLACEHOLDER
  2
AcDbPlaceHolder
  3
ObjectDBX Classes
 90
        0
280
     0
281
     0
  0
CLASS
  1
LAYOUT
  2
AcDbLayout
  3
ObjectDBX Classes
 90
        0
280
     0
281
     0
  0
ENDSEC
  0
SECTION
  2
TABLES
  0
TABLE
  2
VPORT
  5
8
102
{ACAD_XDICTIONARY
360
2C1
102
}
330
0
100
AcDbSymbolTable
 70
     1
  0
VPORT
  5
29
330
8
100
AcDbSymbolTableRecord
100
AcDbViewportTableRecord
  2
*Active
 70
     0
 10
0.0
 20
0.0
 11
1.0
 21
1.0
 12
14.0518217349605
 22
-184.9095683928292
 13
0.0
 23
0.0
 14
0.5
 24
0.5
 15
0.5
 25
0.5
 16
0.0
 26
0.0
 36
1.0
 17
0.0
 27
0.0
 37
0.0
 40
642.4000000000002
 41
1.60267857142857
 42
50.0
 43
0.0
 44
0.0
 50
0.0
 51
0.0
 71
     0
 72
   100
 73
     1
 74
     3
 75
     0
 76
     0
 77
     0
 78
     0
281
     0
 65
     1
110
0.0
120
0.0
130
0.0
111
1.0
121
0.0
131
0.0
112
0.0
122
1.0
132
0.0
 79
     0
146
0.0
  0
ENDTAB
  0
TABLE
  2
LTYPE
  5
5
330
0
100
AcDbSymbolTable
 70
     8
  0
LTYPE
  5
14
330
5
100
AcDbSymbolTableRecord
100
AcDbLinetypeTableRecord
  2
ByBlock
 70
     0
  3

 72
    65
 73
     0
 40
0.0
  0
LTYPE
  5
15
330
5
100
AcDbSymbolTableRecord
100
AcDbLinetypeTableRecord
  2
ByLayer
 70
     0
  3

 72
    65
 73
     0
 40
0.0
  0
LTYPE
  5
16
330
5
100
AcDbSymbolTableRecord
100
AcDbLinetypeTableRecord
  2
Continuous
 70
     0
  3
Solid line
 72
    65
 73
     0
 40
0.0
  0
LTYPE
  5
6E
330
5
100
AcDbSymbolTableRecord
100
AcDbLinetypeTableRecord
  2
DASHED
 70
     0
  3
Dashed
 72
    65
 73
     2
 40
15.0
 49
7.0
 74
     0
 49
-8.0
 74
     0
  0
LTYPE
  5
6F
330
5
100
AcDbSymbolTableRecord
100
AcDbLinetypeTableRecord
  2
DOTTED
 70
     0
  3
Dotted
 72
    65
 73
     2
 40
1.0
 49
0.0
 74
     0
 49
-1.0
 74
     0
  0
LTYPE
  5
70
330
5
100
AcDbSymbolTableRecord
100
AcDbLinetypeTableRecord
  2
DOT_CENTER
 70
     0
  3
Dot_Center
 72
    65
 73
     4
 40
14.0
 49
12.0
 74
     0
 49
-1.0
 74
     0
 49
0.0
 74
     0
 49
-1.0
 74
     0
  0
LTYPE
  5
71
330
5
100
AcDbSymbolTableRecord
100
AcDbLinetypeTableRecord
  2
LONG_DASHED
 70
     0
  3
Long_Dashed
 72
    65
 73
     2
 40
15.0
 49
10.0
 74
     0
 49
-5.0
 74
     0
  0
LTYPE
  5
72
330
5
100
AcDbSymbolTableRecord
100
AcDbLinetypeTableRecord
  2
DASH_CENTER
 70
     0
  3
Dash_Center
 72
    65
 73
     4
 40
14.0
 49
11.0
 74
     0
 49
-1.0
 74
     0
 49
1.0
 74
     0
 49
-1.0
 74
     0
  0
LTYPE
  5
73
330
5
100
AcDbSymbolTableRecord
100
AcDbLinetypeTableRecord
  2
PHANTOM
 70
     0
  3
Phantom
 72
    65
 73
     6
 40
13.0
 49
10.0
 74
     0
 49
-1.0
 74
     0
 49
0.0
 74
     0
 49
-1.0
 74
     0
 49
0.0
 74
     0
 49
-1.0
 74
     0
  0
LTYPE
  5
74
330
5
100
AcDbSymbolTableRecord
100
AcDbLinetypeTableRecord
  2
CENTER_DASH_DASH
 70
     0
  3
Center_Dash_Dash
 72
    65
 73
     6
 40
14.0
 49
9.0
 74
     0
 49
-1.0
 74
     0
 49
1.0
 74
     0
 49
-1.0
 74
     0
 49
1.0
 74
     0
 49
-1.0
 74
     0
  0
ENDTAB
  0
TABLE
  2
LAYER
  5
2
330
0
100
AcDbSymbolTable
 70
     7
  0
LAYER
  5
10
330
2
100
AcDbSymbolTableRecord
100
AcDbLayerTableRecord
  2
0
 70
     0
 62
     7
  6
Continuous
370
    -3
390
F
  0
LAYER
  5
75
330
2
100
AcDbSymbolTableRecord
100
AcDbLayerTableRecord
  2
1
 70
     0
 62
     7
  6
Continuous
370
    -3
390
F
  0
LAYER
  5
76
330
2
100
AcDbSymbolTableRecord
100
AcDbLayerTableRecord
  2
GEO
 70
     0
 62
     7
  6
Continuous
370
    -3
390
F
  0
LAYER
  5
77
330
2
100
AcDbSymbolTableRecord
100
AcDbLayerTableRecord
  2
LC-001-002-----0
 70
     0
 62
     7
  6
Continuous
370
    -3
390
F
  0
LAYER
  5
78
330
2
100
AcDbSymbolTableRecord
100
AcDbLayerTableRecord
  2
LC-002-005-----0
 70
     0
 62
     7
  6
Continuous
370
    -3
390
F
  0
LAYER
  5
79
330
2
100
AcDbSymbolTableRecord
100
AcDbLayerTableRecord
  2
LC-003-002-RND-0
 70
     0
 62
     7
  6
Continuous
370
    -3
390
F
  0
LAYER
  5
7A
330
2
100
AcDbSymbolTableRecord
100
AcDbLayerTableRecord
  2
TEXT
 70
     0
 62
     7
  6
Continuous
370
    -3
390
F
  0
ENDTAB
  0
TABLE
  2
STYLE
  5
3
330
0
100
AcDbSymbolTable
 70
     8
  0
STYLE
  5
11
330
3
100
AcDbSymbolTableRecord
100
AcDbTextStyleTableRecord
  2
Standard
 70
     0
 40
0.0
 41
1.0
 50
0.0
 71
     0
 42
0.2
  3
txt
  4

  0
STYLE
  5
BC
330
3
100
AcDbSymbolTableRecord
100
AcDbTextStyleTableRecord
  2
CONVERTER_11
 70
     0
 40
0.0
 41
0.72
 50
0.0
 71
     0
 42
0.2
  3
txt.shx
  4

  0
STYLE
  5
BE
330
3
100
AcDbSymbolTableRecord
100
AcDbTextStyleTableRecord
  2
CONVERTER_12
 70
     0
 40
0.0
 41
0.81
 50
0.0
 71
     0
 42
0.2
  3
txt.shx
  4

  0
STYLE
  5
C0
330
3
100
AcDbSymbolTableRecord
100
AcDbTextStyleTableRecord
  2
CONVERTER_13
 70
     0
 40
0.0
 41
0.9
 50
0.0
 71
     0
 42
0.2
  3
txt.shx
  4

  0
STYLE
  5
C4
330
3
100
AcDbSymbolTableRecord
100
AcDbTextStyleTableRecord
  2
CONVERTER_14
 70
     0
 40
0.0
 41
0.891
 50
0.0
 71
     0
 42
0.2
  3
txt.shx
  4

  0
STYLE
  5
C6
330
3
100
AcDbSymbolTableRecord
100
AcDbTextStyleTableRecord
  2
CONVERTER_15
 70
     0
 40
0.0
 41
0.855
 50
0.0
 71
     0
 42
0.2
  3
txt.shx
  4

  0
STYLE
  5
D2
330
3
100
AcDbSymbolTableRecord
100
AcDbTextStyleTableRecord
  2
CONVERTER_16
 70
     0
 40
0.0
 41
0.855
 50
5.0
 71
     0
 42
0.2
  3
complex.shx
  4

  0
STYLE
  5
D4
330
3
100
AcDbSymbolTableRecord
100
AcDbTextStyleTableRecord
  2
CONVERTER_17
 70
     0
 40
0.0
 41
0.72
 50
5.0
 71
     0
 42
0.2
  3
txt.shx
  4

  0
ENDTAB
  0
TABLE
  2
VIEW
  5
6
330
0
100
AcDbSymbolTable
 70
     0
  0
ENDTAB
  0
TABLE
  2
UCS
  5
7
330
0
100
AcDbSymbolTable
 70
     0
  0
ENDTAB
  0
TABLE
  2
APPID
  5
9
330
0
100
AcDbSymbolTable
 70
     2
  0
APPID
  5
12
330
9
100
AcDbSymbolTableRecord
100
AcDbRegAppTableRecord
  2
ACAD
 70
     0
  0
APPID
  5
2FB
330
9
100
AcDbSymbolTableRecord
100
AcDbRegAppTableRecord
  2
ACAD_MLEADERVER
 70
     0
  0
ENDTAB
  0
TABLE
  2
DIMSTYLE
  5
A
330
0
100
AcDbSymbolTable
 70
     5
100
AcDbDimStyleTable
  0
DIMSTYLE
105
27
330
A
100
AcDbSymbolTableRecord
100
AcDbDimStyleTableRecord
  2
Standard
 70
     0
178
     0
340
11
  0
DIMSTYLE
105
295
102
{ACAD_REACTORS
330
296
102
}
330
A
100
AcDbSymbolTableRecord
100
AcDbDimStyleTableRecord
  2
ME10_DIM_10
 70
     0
  3
x150
 41
10.0
 42
0.0
 44
2.0
 73
     0
 74
     0
 77
     1
 78
     8
140
10.0
147
2.0
172
     1
173
     1
174
     1
175
     1
176
     4
177
     4
271
     2
178
     1
271
     2
340
C0
  0
DIMSTYLE
105
2A0
102
{ACAD_REACTORS
330
2A1
102
}
330
A
100
AcDbSymbolTableRecord
100
AcDbDimStyleTableRecord
  2
ME10_DIM_11
 70
     0
  3
Ø<>
 41
10.0
 42
0.0
 44
2.0
 73
     0
 74
     0
 77
     1
 78
     8
140
10.0
147
2.0
172
     1
173
     1
174
     1
175
     1
176
     4
177
     4
271
     2
178
     1
271
     2
340
C0
  0
DIMSTYLE
105
2AD
102
{ACAD_REACTORS
330
2AE
102
}
330
A
100
AcDbSymbolTableRecord
100
AcDbDimStyleTableRecord
  2
ME10_DIM_12
 70
     0
 41
10.0
 42
0.0
 44
2.0
 73
     0
 74
     0
 77
     1
 78
     8
140
10.0
147
2.0
172
     1
173
     1
174
     1
175
     1
176
     4
177
     4
271
     2
178
     1
271
     2
340
C0
  0
DIMSTYLE
105
2B8
102
{ACAD_REACTORS
330
2B9
102
}
330
A
100
AcDbSymbolTableRecord
100
AcDbDimStyleTableRecord
  2
ME10_DIM_13
 70
     0
 41
10.0
 42
0.0
 44
2.0
 73
     0
 74
     0
 77
     1
 78
     8
140
10.0
147
2.0
172
     1
173
     1
174
     1
175
     1
176
     4
177
     4
271
     2
178
     1
271
     2
340
C0
  0
ENDTAB
  0
TABLE
  2
BLOCK_RECORD
  5
1
330
0
100
AcDbSymbolTable
 70
    11
  0
BLOCK_RECORD
  5
1F
330
1
100
AcDbSymbolTableRecord
100
AcDbBlockTableRecord
  2
*Model_Space
340
22
  0
BLOCK_RECORD
  5
1B
330
1
100
AcDbSymbolTableRecord
100
AcDbBlockTableRecord
  2
*Paper_Space
340
1E
  0
BLOCK_RECORD
  5
23
330
1
100
AcDbSymbolTableRecord
100
AcDbBlockTableRecord
  2
*Paper_Space0
340
26
  0
BLOCK_RECORD
  5
7B
330
1
100
AcDbSymbolTableRecord
100
AcDbBlockTableRecord
  2
DINA2_hoch_Artikel
340
0
102
{BLKREFS
331
91
102
}
  0
BLOCK_RECORD
  5
7E
330
1
100
AcDbSymbolTableRecord
100
AcDbBlockTableRecord
  2
066_3E_Aufsatzrahmen_verschraubbar__1
340
0
102
{BLKREFS
331
8B
102
}
  0
BLOCK_RECORD
  5
81
330
1
100
AcDbSymbolTableRecord
100
AcDbBlockTableRecord
  2
066_3E_Aufsatzrahmen_verschraubbar__2
340
0
102
{BLKREFS
331
8C
102
}
  0
BLOCK_RECORD
  5
84
330
1
100
AcDbSymbolTableRecord
100
AcDbBlockTableRecord
  2
066_1E_Edelstahlrost_verschraubbar__3
340
0
102
{BLKREFS
331
8D
102
}
  0
BLOCK_RECORD
  5
87
330
1
100
AcDbSymbolTableRecord
100
AcDbBlockTableRecord
  2
066_1E_Edelstahlrost_verschraubbar__4
340
0
102
{BLKREFS
331
8E
102
}
  0
BLOCK_RECORD
  5
8A
330
1
100
AcDbSymbolTableRecord
100
AcDbBlockTableRecord
  2
HL_66_Aufsatzrahmen
340
0
102
{BLKREFS
331
92
102
}
  0
BLOCK_RECORD
  5
28C
330
1
100
AcDbSymbolTableRecord
100
AcDbBlockTableRecord
  2
*D7
340
0
  0
BLOCK_RECORD
  5
297
330
1
100
AcDbSymbolTableRecord
100
AcDbBlockTableRecord
  2
*D8
340
0
  0
BLOCK_RECORD
  5
2A2
330
1
100
AcDbSymbolTableRecord
100
AcDbBlockTableRecord
  2
*D9
340
0
  0
BLOCK_RECORD
  5
2AF
330
1
100
AcDbSymbolTableRecord
100
AcDbBlockTableRecord
  2
*D10
340
0
  0
ENDTAB
  0
ENDSEC
  0
SECTION
  2
BLOCKS
  0
BLOCK
  5
20
330
1F
100
AcDbEntity
  8
0
100
AcDbBlockBegin
  2
*Model_Space
 70
     0
 10
0.0
 20
0.0
 30
0.0
  3
*Model_Space
  1

  0
ENDBLK
  5
21
330
1F
100
AcDbEntity
  8
0
100
AcDbBlockEnd
  0
BLOCK
  5
1C
330
1B
100
AcDbEntity
 67
     1
  8
0
100
AcDbBlockBegin
  2
*Paper_Space
 70
     0
 10
0.0
 20
0.0
 30
0.0
  3
*Paper_Space
  1

  0
ENDBLK
  5
1D
330
1B
100
AcDbEntity
 67
     1
  8
0
100
AcDbBlockEnd
  0
BLOCK
  5
24
330
23
100
AcDbEntity
  8
0
100
AcDbBlockBegin
  2
*Paper_Space0
 70
     0
 10
0.0
 20
0.0
 30
0.0
  3
*Paper_Space0
  1

  0
ENDBLK
  5
25
330
23
100
AcDbEntity
  8
0
100
AcDbBlockEnd
  0
BLOCK
  5
7C
330
7B
100
AcDbEntity
  8
0
100
AcDbBlockBegin
  2
DINA2_hoch_Artikel
 70
     0
 10
219.0518217349605
 20
-476.9095683928292
 30
0.0
  3
DINA2_hoch_Artikel
  1

  0
LINE
  5
93
330
7B
100
AcDbEntity
  8
1
  6
Continuous
 62
     7
100
AcDbLine
 10
219.0518217349605
 20
-436.9095683928292
 30
0.0
 11
219.0518217349605
 21
-184.9095683928292
 31
0.0
  0
LINE
  5
94
330
7B
100
AcDbEntity
  8
1
  6
Continuous
 62
     7
100
AcDbLine
 10
219.0518217349605
 20
107.0904316071709
 30
0.0
 11
14.0518217349605
 21
107.0904316071708
 31
0.0
  0
LINE
  5
95
330
7B
100
AcDbEntity
  8
1
  6
Continuous
 62
     7
100
AcDbLine
 10
14.0518217349605
 20
107.0904316071708
 30
0.0
 11
14.0518217349605
 21
104.0904316071708
 31
0.0
  0
LINE
  5
96
330
7B
100
AcDbEntity
  8
1
  6
Continuous
 62
     7
100
AcDbLine
 10
14.0518217349605
 20
107.0904316071708
 30
0.0
 11
-190.9481782650395
 21
107.0904316071708
 31
0.0
  0
LINE
  5
97
330
7B
100
AcDbEntity
  8
1
  6
Continuous
 62
     7
100
AcDbLine
 10
14.0518217349605
 20
-476.9095683928292
 30
0.0
 11
14.0518217349605
 21
-473.9095683928292
 31
0.0
  0
LINE
  5
98
330
7B
100
AcDbEntity
  8
1
  6
Continuous
 62
     7
100
AcDbLine
 10
14.0518217349605
 20
-476.9095683928292
 30
0.0
 11
19.0518217349605
 21
-476.9095683928292
 31
0.0
  0
LINE
  5
99
330
7B
100
AcDbEntity
  8
1
  6
Continuous
 62
     7
100
AcDbLine
 10
-190.9481782650395
 20
-476.9095683928292
 30
0.0
 11
-190.9481782650395
 21
107.0904316071708
 31
0.0
  0
LINE
  5
9A
330
7B
100
AcDbEntity
  8
1
  6
Continuous
 62
     7
100
AcDbLine
 10
-190.9481782650395
 20
-476.9095683928292
 30
0.0
 11
14.0518217349605
 21
-476.9095683928292
 31
0.0
  0
LINE
  5
9B
330
7B
100
AcDbEntity
  8
1
  6
Continuous
 62
     7
100
AcDbLine
 10
219.0518217349605
 20
-184.9095683928292
 30
0.0
 11
216.0518217349605
 21
-184.9095683928292
 31
0.0
  0
LINE
  5
9C
330
7B
100
AcDbEntity
  8
1
  6
Continuous
 62
     7
100
AcDbLine
 10
219.0518217349605
 20
-184.9095683928292
 30
0.0
 11
219.0518217349605
 21
107.0904316071709
 31
0.0
  0
LINE
  5
9D
330
7B
100
AcDbEntity
  8
1
  6
Continuous
 62
     7
100
AcDbLine
 10
-187.9481782650395
 20
-184.9095683928292
 30
0.0
 11
-190.9481782650395
 21
-184.9095683928292
 31
0.0
  0
LINE
  5
9E
330
7B
100
AcDbEntity
  8
1
  6
Continuous
 62
     7
100
AcDbLine
 10
19.0518217349605
 20
-456.9095683928292
 30
0.0
 11
74.0518217349605
 21
-456.9095683928292
 31
0.0
  0
LINE
  5
9F
330
7B
100
AcDbEntity
  8
1
  6
Continuous
 62
     7
100
AcDbLine
 10
19.0518217349605
 20
-471.9095683928292
 30
0.0
 11
74.0518217349605
 21
-471.9095683928292
 31
0.0
  0
LINE
  5
A0
330
7B
100
AcDbEntity
  8
1
  6
Continuous
 62
     7
100
AcDbLine
 10
159.0518217349605
 20
-461.9095683928292
 30
0.0
 11
219.0518217349605
 21
-461.9095683928292
 31
0.0
  0
LINE
  5
A1
330
7B
100
AcDbEntity
  8
1
  6
Continuous
 62
     7
100
AcDbLine
 10
52.0518217349605
 20
-451.9095683928292
 30
0.0
 11
74.0518217349605
 21
-451.9095683928292
 31
0.0
  0
LINE
  5
A2
330
7B
100
AcDbEntity
  8
GEO
  6
Continuous
 62
     7
100
AcDbLine
 10
37.0518217349605
 20
-456.9095683928292
 30
0.0
 11
37.0518217349605
 21
-436.9095683928292
 31
0.0
  0
LINE
  5
A3
330
7B
100
AcDbEntity
  8
GEO
  6
Continuous
 62
     7
100
AcDbLine
 10
52.0518217349605
 20
-451.9095683928292
 30
0.0
 11
52.0518217349605
 21
-436.9095683928292
 31
0.0
  0
LINE
  5
A4
330
7B
100
AcDbEntity
  8
1
  6
Continuous
 62
     7
100
AcDbLine
 10
219.0518217349605
 20
-476.9095683928292
 30
0.0
 11
159.0518217349605
 21
-476.9095683928292
 31
0.0
  0
LINE
  5
A5
330
7B
100
AcDbEntity
  8
1
  6
Continuous
 62
     7
100
AcDbLine
 10
19.0518217349605
 20
-436.9095683928292
 30
0.0
 11
74.0518217349605
 21
-436.9095683928292
 31
0.0
  0
LINE
  5
A6
330
7B
100
AcDbEntity
  8
1
  6
Continuous
 62
     7
100
AcDbLine
 10
219.0518217349605
 20
-436.9095683928292
 30
0.0
 11
219.0518217349605
 21
-476.9095683928292
 31
0.0
  0
LINE
  5
A7
330
7B
100
AcDbEntity
  8
1
  6
Continuous
 62
     7
100
AcDbLine
 10
19.0518217349605
 20
-441.9095683928292
 30
0.0
 11
74.0518217349605
 21
-441.9095683928292
 31
0.0
  0
LINE
  5
A8
330
7B
100
AcDbEntity
  8
1
  6
Continuous
 62
     7
100
AcDbLine
 10
19.0518217349605
 20
-476.9095683928292
 30
0.0
 11
19.0518217349605
 21
-436.9095683928292
 31
0.0
  0
LINE
  5
A9
330
7B
100
AcDbEntity
  8
1
  6
Continuous
 62
     7
100
AcDbLine
 10
19.0518217349605
 20
-446.9095683928292
 30
0.0
 11
74.0518217349605
 21
-446.9095683928292
 31
0.0
  0
LINE
  5
AA
330
7B
100
AcDbEntity
  8
1
  6
Continuous
 62
     7
100
AcDbLine
 10
19.0518217349605
 20
-451.9095683928292
 30
0.0
 11
52.0518217349605
 21
-451.9095683928292
 31
0.0
  0
LINE
  5
AB
330
7B
100
AcDbEntity
  8
1
  6
Continuous
 62
     7
100
AcDbLine
 10
19.0518217349605
 20
-461.9095683928292
 30
0.0
 11
74.0518217349605
 21
-461.9095683928292
 31
0.0
  0
LINE
  5
AC
330
7B
100
AcDbEntity
  8
1
  6
Continuous
 62
     7
100
AcDbLine
 10
19.0518217349605
 20
-466.9095683928292
 30
0.0
 11
74.0518217349605
 21
-466.9095683928292
 31
0.0
  0
LINE
  5
AD
330
7B
100
AcDbEntity
  8
1
  6
Continuous
 62
     7
100
AcDbLine
 10
74.0518217349605
 20
-436.9095683928292
 30
0.0
 11
74.0518217349605
 21
-446.9095683928292
 31
0.0
  0
LINE
  5
AE
330
7B
100
AcDbEntity
  8
1
  6
Continuous
 62
     7
100
AcDbLine
 10
74.0518217349605
 20
-476.9095683928292
 30
0.0
 11
19.0518217349605
 21
-476.9095683928292
 31
0.0
  0
LINE
  5
AF
330
7B
100
AcDbEntity
  8
1
  6
Continuous
 62
     7
100
AcDbLine
 10
74.0518217349605
 20
-436.9095683928292
 30
0.0
 11
159.0518217349605
 21
-436.9095683928292
 31
0.0
  0
LINE
  5
B0
330
7B
100
AcDbEntity
  8
1
  6
Continuous
 62
     7
100
AcDbLine
 10
74.0518217349605
 20
-446.9095683928292
 30
0.0
 11
159.0518217349605
 21
-446.9095683928292
 31
0.0
  0
LINE
  5
B1
330
7B
100
AcDbEntity
  8
1
  6
Continuous
 62
     7
100
AcDbLine
 10
74.0518217349605
 20
-446.9095683928292
 30
0.0
 11
74.0518217349605
 21
-456.9095683928292
 31
0.0
  0
LINE
  5
B2
330
7B
100
AcDbEntity
  8
1
  6
Continuous
 62
     7
100
AcDbLine
 10
74.0518217349605
 20
-456.9095683928292
 30
0.0
 11
74.0518217349605
 21
-476.9095683928292
 31
0.0
  0
LINE
  5
B3
330
7B
100
AcDbEntity
  8
1
  6
Continuous
 62
     7
100
AcDbLine
 10
74.0518217349605
 20
-456.9095683928292
 30
0.0
 11
159.0518217349605
 21
-456.9095683928292
 31
0.0
  0
LINE
  5
B4
330
7B
100
AcDbEntity
  8
1
  6
Continuous
 62
     7
100
AcDbLine
 10
74.0518217349605
 20
-466.9095683928292
 30
0.0
 11
159.0518217349605
 21
-466.9095683928292
 31
0.0
  0
LINE
  5
B5
330
7B
100
AcDbEntity
  8
1
  6
Continuous
 62
     7
100
AcDbLine
 10
159.0518217349605
 20
-436.9095683928292
 30
0.0
 11
159.0518217349605
 21
-476.9095683928292
 31
0.0
  0
LINE
  5
B6
330
7B
100
AcDbEntity
  8
1
  6
Continuous
 62
     7
100
AcDbLine
 10
159.0518217349605
 20
-476.9095683928292
 30
0.0
 11
74.0518217349605
 21
-476.9095683928292
 31
0.0
  0
LINE
  5
B7
330
7B
100
AcDbEntity
  8
1
  6
Continuous
 62
     7
100
AcDbLine
 10
159.0518217349605
 20
-436.9095683928292
 30
0.0
 11
219.0518217349605
 21
-436.9095683928292
 31
0.0
  0
LINE
  5
B8
330
7B
100
AcDbEntity
  8
1
  6
Continuous
 62
     7
100
AcDbLine
 10
159.0518217349605
 20
-446.9095683928292
 30
0.0
 11
219.0518217349605
 21
-446.9095683928292
 31
0.0
  0
LINE
  5
B9
330
7B
100
AcDbEntity
  8
1
  6
Continuous
 62
     7
100
AcDbLine
 10
159.0518217349605
 20
-456.9095683928292
 30
0.0
 11
219.0518217349605
 21
-456.9095683928292
 31
0.0
  0
LINE
  5
BA
330
7B
100
AcDbEntity
  8
1
  6
Continuous
 62
     7
100
AcDbLine
 10
159.0518217349605
 20
-466.9095683928292
 30
0.0
 11
219.0518217349605
 21
-466.9095683928292
 31
0.0
  0
LINE
  5
BB
330
7B
100
AcDbEntity
  8
1
  6
Continuous
 62
     7
100
AcDbLine
 10
159.0518217349605
 20
-471.9095683928292
 30
0.0
 11
219.0518217349605
 21
-471.9095683928292
 31
0.0
  0
TEXT
  5
BD
330
7B
100
AcDbEntity
  8
1
 62
     1
100
AcDbText
 10
52.5518217349605
 20
-445.6595683928292
 30
0.0
 40
2.5
  1
Tolloschek
 41
0.72
  7
CONVERTER_11
100
AcDbText
  0
TEXT
  5
BF
330
7B
100
AcDbEntity
  8
TEXT
 62
     5
100
AcDbText
 10
159.5518217349605
 20
-455.9095683928292
 30
0.0
 40
3.0
  1
 
 41
0.81
  7
CONVERTER_12
100
AcDbText
  0
TEXT
  5
C1
330
7B
100
AcDbEntity
  8
1
 62
     1
100
AcDbText
 10
40.97619101413659
 20
-475.9095683928292
 30
0.0
 40
3.0
  1
 
 41
0.9
  7
CONVERTER_13
100
AcDbText
  0
TEXT
  5
C2
330
7B
100
AcDbEntity
  8
1
 62
     5
100
AcDbText
 10
19.5518217349605
 20
-475.9095683928292
 30
0.0
 40
3.0
  1
Toleranz:
 41
0.9
  7
CONVERTER_13
100
AcDbText
  0
TEXT
  5
C3
330
7B
100
AcDbEntity
  8
1
 62
     1
100
AcDbText
 10
37.5518217349605
 20
-455.9095683928292
 30
0.0
 40
3.0
  1
 
 41
0.9
  7
CONVERTER_13
100
AcDbText
  0
TEXT
  5
C5
330
7B
100
AcDbEntity
  8
TEXT
 62
     5
100
AcDbText
 10
19.5518217349605
 20
-455.9095683928292
 30
0.0
 40
3.0
  1
Status:
 41
0.891
  7
CONVERTER_14
100
AcDbText
  0
TEXT
  5
C7
330
7B
100
AcDbEntity
  8
1
 62
     1
100
AcDbText
 10
75.0518217349605
 20
-454.9095683928292
 30
0.0
 40
3.0
  1
HL 66 Aufsatzrahmen
 41
0.855
  7
CONVERTER_15
100
AcDbText
  0
MTEXT
  5
C8
330
7B
100
AcDbEntity
  8
1
 62
     1
100
AcDbMText
 10
92.9480200126332
 20
-468.4095683928292
 30
0.0
 40
3.0
 41
0.0
 71
     1
 72
     1
  1
verschraubarem\PEdelstahl-Einlaufrost
  7
CONVERTER_15
 73
     1
 44
0.90036014405762
  0
MTEXT
  5
C9
330
7B
100
AcDbEntity
  8
1
 62
     1
100
AcDbMText
 10
92.9480200126332
 20
-458.4095683928292
 30
0.0
 40
3.0
 41
0.0
 71
     1
 72
     1
  1
Aufsatzrahmen \U+00d2145mm\Pm.Edelstahlrahmen
  7
CONVERTER_15
 73
     1
 44
0.90036014405762
  0
TEXT
  5
CA
330
7B
100
AcDbEntity
  8
1
 62
     1
100
AcDbText
 10
182.4197563080366
 20
-465.9095683928292
 30
0.0
 40
3.0
  1
 
 41
0.9
  7
CONVERTER_13
100
AcDbText
  0
TEXT
  5
CB
330
7B
100
AcDbEntity
  8
1
 62
     1
100
AcDbText
 10
42.06092086398809
 20
-465.9095683928292
 30
0.0
 40
3.0
  1
 
 41
0.9
  7
CONVERTER_13
100
AcDbText
  0
MTEXT
  5
CC
330
7B
100
AcDbEntity
  8
1
 62
     1
100
AcDbMText
 10
205.0518217349605
 20
-445.9095683928292
 30
0.0
 40
3.0
 41
0.0
 71
     9
 72
     1
  1
1
  7
CONVERTER_13
 73
     1
 44
0.90036014405762
  0
TEXT
  5
CD
330
7B
100
AcDbEntity
  8
1
 62
     1
100
AcDbText
 10
173.0518217349605
 20
-445.9095683928292
 30
0.0
 40
3.0
  1
a
 41
0.9
  7
CONVERTER_13
100
AcDbText
  0
TEXT
  5
CE
330
7B
100
AcDbEntity
  8
1
 62
     1
100
AcDbText
 10
177.7973414254403
 20
-475.9095683928292
 30
0.0
 40
3.0
  1
 
 41
0.9
  7
CONVERTER_13
100
AcDbText
  0
TEXT
  5
CF
330
7B
100
AcDbEntity
  8
1
 62
     1
100
AcDbText
 10
177.7973414254403
 20
-470.9095683928292
 30
0.0
 40
3.0
  1
 
 41
0.9
  7
CONVERTER_13
100
AcDbText
  0
TEXT
  5
D0
330
7B
100
AcDbEntity
  8
1
 62
     1
100
AcDbText
 10
187.2279255007623
 20
-460.9095683928292
 30
0.0
 40
3.0
  1
66
 41
0.9
  7
CONVERTER_13
100
AcDbText
  0
TEXT
  5
D1
330
7B
100
AcDbEntity
  8
1
 62
     1
100
AcDbText
 10
183.9097897703364
 20
-440.9095683928292
 30
0.0
 40
3.0
  1
HL66
 41
0.81
  7
CONVERTER_12
100
AcDbText
  0
MTEXT
  5
D3
330
7B
100
AcDbEntity
  8
1
 62
     1
100
AcDbMText
 10
116.4713208295662
 20
-439.9130028523942
 30
0.0
 40
4.0
 41
0.0
 71
     5
 72
     1
  1
HL Hutterer u. Lechner GmbH
  7
CONVERTER_16
 73
     1
 44
0.90036014405762
  0
MTEXT
  5
D5
330
7B
100
AcDbEntity
  8
1
 62
     1
100
AcDbMText
 10
116.4713208295662
 20
-444.4130028523942
 30
0.0
 40
3.0
 41
0.0
 71
     5
 72
     1
  1
Himberg bei Wien N.\U+00d6.
  7
CONVERTER_17
 73
     1
 44
0.90036014405762
  0
TEXT
  5
D6
330
7B
100
AcDbEntity
  8
TEXT
 62
     5
100
AcDbText
 10
19.5518217349605
 20
-445.9095683928292
 30
0.0
 40
3.0
  1
Gez.:
 41
0.891
  7
CONVERTER_14
100
AcDbText
  0
TEXT
  5
D7
330
7B
100
AcDbEntity
  8
TEXT
 62
     5
100
AcDbText
 10
159.5518217349605
 20
-440.9095683928292
 30
0.0
 40
3.0
  1
Zeichnung:
 41
0.891
  7
CONVERTER_14
100
AcDbText
  0
TEXT
  5
D8
330
7B
100
AcDbEntity
  8
TEXT
 62
     5
100
AcDbText
 10
159.5518217349605
 20
-445.7667113928292
 30
0.0
 40
3.0
  1
Index:
 41
0.891
  7
CONVERTER_14
100
AcDbText
  0
TEXT
  5
D9
330
7B
100
AcDbEntity
  8
TEXT
 62
     5
100
AcDbText
 10
189.5518217349605
 20
-445.9095683928292
 30
0.0
 40
3.0
  1
Blatt:
 41
0.891
  7
CONVERTER_14
100
AcDbText
  0
TEXT
  5
DA
330
7B
100
AcDbEntity
  8
TEXT
 62
     5
100
AcDbText
 10
159.5518217349605
 20
-450.9095683928292
 30
0.0
 40
3.0
  1
Ersatz f. Zg.Nr.-Index-Blatt:
 41
0.81
  7
CONVERTER_12
100
AcDbText
  0
TEXT
  5
DB
330
7B
100
AcDbEntity
  8
TEXT
 62
     5
100
AcDbText
 10
159.5518217349605
 20
-460.9095683928292
 30
0.0
 40
3.0
  1
Teilenummer:
 41
0.891
  7
CONVERTER_14
100
AcDbText
  0
TEXT
  5
DC
330
7B
100
AcDbEntity
  8
TEXT
 62
     5
100
AcDbText
 10
159.5518217349605
 20
-470.9095683928292
 30
0.0
 40
3.0
  1
Farbe:
 41
0.855
  7
CONVERTER_15
100
AcDbText
  0
TEXT
  5
DD
330
7B
100
AcDbEntity
  8
TEXT
 62
     5
100
AcDbText
 10
19.5518217349605
 20
-450.9095683928292
 30
0.0
 40
3.0
  1
Freigeg.:
 41
0.891
  7
CONVERTER_14
100
AcDbText
  0
TEXT
  5
DE
330
7B
100
AcDbEntity
  8
TEXT
 62
     5
100
AcDbText
 10
37.5518217349605
 20
-440.9095683928292
 30
0.0
 40
3.0
  1
Datum
 41
0.891
  7
CONVERTER_14
100
AcDbText
  0
TEXT
  5
DF
330
7B
100
AcDbEntity
  8
TEXT
 62
     5
100
AcDbText
 10
52.5518217349605
 20
-440.9095683928292
 30
0.0
 40
3.0
  1
Name
 41
0.891
  7
CONVERTER_14
100
AcDbText
  0
MTEXT
  5
E0
330
7B
100
AcDbEntity
  8
TEXT
 62
     5
100
AcDbMText
 10
19.5518217349605
 20
-465.9095683928292
 30
0.0
 40
3.0
 41
0.0
 71
     7
 72
     1
  1
Ma\U+00dfstab:
  7
CONVERTER_14
 73
     1
 44
0.60024009603842
  0
TEXT
  5
E1
330
7B
100
AcDbEntity
  8
TEXT
 62
     5
100
AcDbText
 10
159.5518217349605
 20
-465.7667113928292
 30
0.0
 40
3.0
  1
Werkstoff:
 41
0.891
  7
CONVERTER_14
100
AcDbText
  0
MTEXT
  5
E2
330
7B
100
AcDbEntity
  8
TEXT
 62
     5
100
AcDbMText
 10
19.5518217349605
 20
-470.9095683928292
 30
0.0
 40
3.0
 41
0.0
 71
     7
 72
     1
  1
Oberfl\U+00e4che:
  7
CONVERTER_14
 73
     1
 44
0.60024009603842
  0
TEXT
  5
E3
330
7B
100
AcDbEntity
  8
TEXT
 62
     5
100
AcDbText
 10
19.5518217349605
 20
-475.9095683928292
 30
0.0
 40
3.0
  1
 
 41
0.891
  7
CONVERTER_14
100
AcDbText
  0
TEXT
  5
E4
330
7B
100
AcDbEntity
  8
TEXT
 62
     5
100
AcDbText
 10
75.0518217349605
 20
-449.4095683928292
 30
0.0
 40
2.0
  1
Benennung Artikel:
 41
0.891
  7
CONVERTER_14
100
AcDbText
  0
MTEXT
  5
E5
330
7B
100
AcDbEntity
  8
TEXT
 62
     5
100
AcDbMText
 10
75.0518217349605
 20
-462.9095683928292
 30
0.0
 40
2.0
 41
0.0
 71
     7
 72
     1
  1
Benennung\PTeil:
  7
CONVERTER_14
 73
     1
 44
0.90036014405762
  0
TEXT
  5
E6
330
7B
100
AcDbEntity
  8
TEXT
 62
     5
100
AcDbText
 10
75.0518217349605
 20
-469.4095683928292
 30
0.0
 40
2.0
  1
Bemerkung:
 41
0.891
  7
CONVERTER_14
100
AcDbText
  0
TEXT
  5
E7
330
7B
100
AcDbEntity
  8
TEXT
 62
     5
100
AcDbText
 10
159.5518217349605
 20
-475.9095683928292
 30
0.0
 40
3.0
  1
Gewicht:
 41
0.891
  7
CONVERTER_14
100
AcDbText
  0
TEXT
  5
E8
330
7B
100
AcDbEntity
  8
1
 62
     1
100
AcDbText
 10
37.5518217349605
 20
-445.6595683928292
 30
0.0
 40
2.5
  1
24.08.09
 41
0.81
  7
CONVERTER_12
100
AcDbText
  0
TEXT
  5
E9
330
7B
100
AcDbEntity
  8
1
 62
     1
100
AcDbText
 10
37.5518217349605
 20
-450.6595683928292
 30
0.0
 40
2.5
  1
 
 41
0.81
  7
CONVERTER_12
100
AcDbText
  0
TEXT
  5
EA
330
7B
100
AcDbEntity
  8
1
 62
     1
100
AcDbText
 10
52.5518217349605
 20
-450.6595683928292
 30
0.0
 40
2.5
  1
 
 41
0.72
  7
CONVERTER_11
100
AcDbText
  0
TEXT
  5
EB
330
7B
100
AcDbEntity
  8
1
 62
     1
100
AcDbText
 10
208.5012810953743
 20
-445.9095683928292
 30
0.0
 40
3.0
  1
1
 41
0.9
  7
CONVERTER_13
100
AcDbText
  0
MTEXT
  5
EC
330
7B
100
AcDbEntity
  8
1
 62
     1
100
AcDbMText
 10
207.2098218676242
 20
-445.9095683928292
 30
0.0
 40
3.0
 41
0.0
 71
     9
 72
     1
  1
/
  7
CONVERTER_13
 73
     1
 44
0.90036014405762
  0
MTEXT
  5
ED
330
7B
100
AcDbEntity
  8
1
 62
     2
100
AcDbMText
 10
54.98233517889619
 20
-470.9095683928292
 30
0.0
 40
2.0
 41
0.0
 71
     9
 72
     1
  1
 
  7
CONVERTER_11
 73
     1
 44
1.32052821128451
  0
ENDBLK
  5
7D
330
7B
100
AcDbEntity
  8
0
100
AcDbBlockEnd
  0
BLOCK
  5
7F
330
7E
100
AcDbEntity
  8
0
100
AcDbBlockBegin
  2
066_3E_Aufsatzrahmen_verschraubbar__1
 70
     0
 10
-1.27994359786203
 20
-313.008437442917
 30
0.0
  3
066_3E_Aufsatzrahmen_verschraubbar__1
  1

  0
LINE
  5
EE
330
7E
100
AcDbEntity
  8
1
  6
PHANTOM
 62
     2
100
AcDbLine
 10
-81.35926203969802
 20
-312.484455885698
 30
0.0
 11
78.79937484397396
 21
-312.484455885698
 31
0.0
  0
LINE
  5
EF
330
7E
100
AcDbEntity
  8
1
  6
PHANTOM
 62
     2
100
AcDbLine
 10
0.0
 20
-232.533339832505
 30
0.0
 11
0.0
 21
-393.483535053329
 31
0.0
  0
LINE
  5
F0
330
7E
100
AcDbEntity
  8
LC-001-002-----0
  6
Continuous
 62
     7
100
AcDbLine
 10
66.5
 20
-242.984455885698
 30
0.0
 11
-66.5
 21
-242.984455885698
 31
0.0
  0
LINE
  5
F1
330
7E
100
AcDbEntity
  8
LC-001-002-----0
  6
Continuous
 62
     7
100
AcDbLine
 10
69.5
 20
-378.984455885698
 30
0.0
 11
69.5
 21
-245.984455885698
 31
0.0
  0
LINE
  5
F2
330
7E
100
AcDbEntity
  8
LC-001-002-----0
  6
Continuous
 62
     7
100
AcDbLine
 10
-66.5
 20
-381.984455885698
 30
0.0
 11
66.5
 21
-381.984455885698
 31
0.0
  0
LINE
  5
F3
330
7E
100
AcDbEntity
  8
LC-001-002-----0
  6
Continuous
 62
     7
100
AcDbLine
 10
-69.5
 20
-245.984455885698
 30
0.0
 11
-69.5
 21
-378.984455885698
 31
0.0
  0
LINE
  5
F4
330
7E
100
AcDbEntity
  8
LC-001-002-----0
  6
Continuous
 62
     7
100
AcDbLine
 10
72.5
 20
-236.984455885698
 30
0.0
 11
-72.5
 21
-236.984455885698
 31
0.0
  0
LINE
  5
F5
330
7E
100
AcDbEntity
  8
LC-001-002-----0
  6
Continuous
 62
     7
100
AcDbLine
 10
75.5
 20
-384.984455885698
 30
0.0
 11
75.5
 21
-239.984455885698
 31
0.0
  0
LINE
  5
F6
330
7E
100
AcDbEntity
  8
LC-001-002-----0
  6
Continuous
 62
     7
100
AcDbLine
 10
-72.5
 20
-387.984455885698
 30
0.0
 11
72.5
 21
-387.984455885698
 31
0.0
  0
LINE
  5
F7
330
7E
100
AcDbEntity
  8
LC-001-002-----0
  6
Continuous
 62
     7
100
AcDbLine
 10
-75.5
 20
-239.984455885698
 30
0.0
 11
-75.5
 21
-384.984455885698
 31
0.0
  0
ARC
  5
F8
330
7E
100
AcDbEntity
  8
LC-003-002-RND-0
  6
Continuous
 62
     7
100
AcDbCircle
 10
72.5
 20
-384.984455885698
 30
0.0
 40
3.0
100
AcDbArc
 50
270.0
 51
0.0
  0
ARC
  5
F9
330
7E
100
AcDbEntity
  8
LC-003-002-RND-0
  6
Continuous
 62
     7
100
AcDbCircle
 10
-72.5
 20
-384.984455885698
 30
0.0
 40
3.0
100
AcDbArc
 50
180.0
 51
270.0
  0
ARC
  5
FA
330
7E
100
AcDbEntity
  8
LC-003-002-RND-0
  6
Continuous
 62
     7
100
AcDbCircle
 10
-72.5
 20
-239.984455885698
 30
0.0
 40
3.0
100
AcDbArc
 50
90.0
 51
180.0
  0
ARC
  5
FB
330
7E
100
AcDbEntity
  8
LC-003-002-RND-0
  6
Continuous
 62
     7
100
AcDbCircle
 10
72.5
 20
-239.984455885698
 30
0.0
 40
3.0
100
AcDbArc
 50
0.0
 51
90.0
  0
ARC
  5
FC
330
7E
100
AcDbEntity
  8
LC-003-002-RND-0
  6
Continuous
 62
     7
100
AcDbCircle
 10
66.5
 20
-245.984455885698
 30
0.0
 40
3.0
100
AcDbArc
 50
0.0
 51
90.0
  0
ARC
  5
FD
330
7E
100
AcDbEntity
  8
LC-003-002-RND-0
  6
Continuous
 62
     7
100
AcDbCircle
 10
66.5
 20
-378.984455885698
 30
0.0
 40
3.0
100
AcDbArc
 50
270.0
 51
0.0
  0
ARC
  5
FE
330
7E
100
AcDbEntity
  8
LC-003-002-RND-0
  6
Continuous
 62
     7
100
AcDbCircle
 10
-66.5
 20
-378.984455885698
 30
0.0
 40
3.0
100
AcDbArc
 50
180.0
 51
270.0
  0
ARC
  5
FF
330
7E
100
AcDbEntity
  8
LC-003-002-RND-0
  6
Continuous
 62
     7
100
AcDbCircle
 10
-66.5
 20
-245.984455885698
 30
0.0
 40
3.0
100
AcDbArc
 50
90.0
 51
180.0
  0
ENDBLK
  5
80
330
7E
100
AcDbEntity
  8
0
100
AcDbBlockEnd
  0
BLOCK
  5
82
330
81
100
AcDbEntity
  8
0
100
AcDbBlockBegin
  2
066_3E_Aufsatzrahmen_verschraubbar__2
 70
     0
 10
0.0
 20
-103.5681780968438
 30
0.0
  3
066_3E_Aufsatzrahmen_verschraubbar__2
  1

  0
POINT
  5
100
330
81
100
AcDbEntity
  8
0
 62
     7
100
AcDbPoint
 10
-71.47520800000001
 20
0.0
 30
0.0
  0
POINT
  5
101
330
81
100
AcDbEntity
  8
0
 62
     7
100
AcDbPoint
 10
-76.5
 20
-15.0
 30
0.0
  0
POINT
  5
102
330
81
100
AcDbEntity
  8
0
 62
     7
100
AcDbPoint
 10
-72.5
 20
-199.0
 30
0.0
  0
POINT
  5
103
330
81
100
AcDbEntity
  8
0
 62
     7
100
AcDbPoint
 10
72.5
 20
-199.0
 30
0.0
  0
POINT
  5
104
330
81
100
AcDbEntity
  8
0
 62
     7
100
AcDbPoint
 10
-75.5
 20
-2.5
 30
0.0
  0
POINT
  5
105
330
81
100
AcDbEntity
  8
0
 62
     7
100
AcDbPoint
 10
75.5
 20
-4.02479199999999
 30
0.0
  0
POINT
  5
106
330
81
100
AcDbEntity
  8
0
 62
     7
100
AcDbPoint
 10
69.5
 20
-179.5
 30
0.0
  0
POINT
  5
107
330
81
100
AcDbEntity
  8
0
 62
     7
100
AcDbPoint
 10
71.47520800000001
 20
0.0
 30
0.0
  0
POINT
  5
108
330
81
100
AcDbEntity
  8
0
 62
     7
100
AcDbPoint
 10
69.5
 20
-179.5
 30
0.0
  0
POINT
  5
109
330
81
100
AcDbEntity
  8
0
 62
     7
100
AcDbPoint
 10
69.5
 20
-205.0
 30
0.0
  0
LINE
  5
10A
330
81
100
AcDbEntity
  8
1
  6
PHANTOM
 62
     2
100
AcDbLine
 10
0.0
 20
3.44574402013336
 30
0.0
 11
0.0
 21
-210.582100213821
 31
0.0
  0
LINE
  5
10B
330
81
100
AcDbEntity
  8
LC-002-005-----0
  6
Continuous
 62
     3
100
AcDbLine
 10
74.5
 20
-3.02534900000001
 30
0.0
 11
72.47465199999999
 21
-1.0
 31
0.0
  0
LINE
  5
10C
330
81
100
AcDbEntity
  8
LC-002-005-----0
  6
Continuous
 62
     3
100
AcDbLine
 10
74.5
 20
-6.56088199999999
 30
0.0
 11
70.5
 21
-2.56088199999999
 31
0.0
  0
LINE
  5
10D
330
81
100
AcDbEntity
  8
LC-002-005-----0
  6
Continuous
 62
     3
100
AcDbLine
 10
76.5
 20
-12.09641600000001
 30
0.0
 11
75.5
 21
-11.09641600000001
 31
0.0
  0
LINE
  5
10E
330
81
100
AcDbEntity
  8
LC-002-005-----0
  6
Continuous
 62
     3
100
AcDbLine
 10
74.5
 20
-10.09641600000001
 30
0.0
 11
70.5
 21
-6.096416
 31
0.0
  0
LINE
  5
10F
330
81
100
AcDbEntity
  8
LC-002-005-----0
  6
Continuous
 62
     3
100
AcDbLine
 10
75.86804999999998
 20
-15.0
 30
0.0
 11
70.5
 21
-9.63194999999999
 31
0.0
  0
LINE
  5
110
330
81
100
AcDbEntity
  8
LC-002-005-----0
  6
Continuous
 62
     3
100
AcDbLine
 10
72.5
 20
-15.167484
 30
0.0
 11
70.5
 21
-13.167484
 31
0.0
  0
LINE
  5
111
330
81
100
AcDbEntity
  8
LC-002-005-----0
  6
Continuous
 62
     3
100
AcDbLine
 10
72.5
 20
-18.70301799999999
 30
0.0
 11
70.5
 21
-16.70301799999999
 31
0.0
  0
LINE
  5
112
330
81
100
AcDbEntity
  8
LC-002-005-----0
  6
Continuous
 62
     3
100
AcDbLine
 10
72.5
 20
-22.238552
 30
0.0
 11
70.5
 21
-20.238552
 31
0.0
  0
LINE
  5
113
330
81
100
AcDbEntity
  8
LC-002-005-----0
  6
Continuous
 62
     3
100
AcDbLine
 10
72.5
 20
-25.77408600000001
 30
0.0
 11
69.5
 21
-22.77408600000001
 31
0.0
  0
LINE
  5
114
330
81
100
AcDbEntity
  8
LC-002-005-----0
  6
Continuous
 62
     3
100
AcDbLine
 10
72.5
 20
-29.30962
 30
0.0
 11
69.5
 21
-26.30962
 31
0.0
  0
LINE
  5
115
330
81
100
AcDbEntity
  8
LC-002-005-----0
  6
Continuous
 62
     3
100
AcDbLine
 10
72.5
 20
-32.84515400000001
 30
0.0
 11
69.5
 21
-29.84515400000001
 31
0.0
  0
LINE
  5
116
330
81
100
AcDbEntity
  8
LC-002-005-----0
  6
Continuous
 62
     3
100
AcDbLine
 10
72.5
 20
-36.38068799999999
 30
0.0
 11
69.5
 21
-33.38068799999999
 31
0.0
  0
LINE
  5
117
330
81
100
AcDbEntity
  8
LC-002-005-----0
  6
Continuous
 62
     3
100
AcDbLine
 10
72.5
 20
-39.91622200000001
 30
0.0
 11
69.5
 21
-36.91622200000001
 31
0.0
  0
LINE
  5
118
330
81
100
AcDbEntity
  8
LC-002-005-----0
  6
Continuous
 62
     3
100
AcDbLine
 10
72.5
 20
-43.45175499999999
 30
0.0
 11
69.5
 21
-40.45175499999999
 31
0.0
  0
LINE
  5
119
330
81
100
AcDbEntity
  8
LC-002-005-----0
  6
Continuous
 62
     3
100
AcDbLine
 10
72.5
 20
-46.987289
 30
0.0
 11
69.5
 21
-43.987289
 31
0.0
  0
LINE
  5
11A
330
81
100
AcDbEntity
  8
LC-002-005-----0
  6
Continuous
 62
     3
100
AcDbLine
 10
72.5
 20
-50.52282299999999
 30
0.0
 11
69.5
 21
-47.52282299999999
 31
0.0
  0
LINE
  5
11B
330
81
100
AcDbEntity
  8
LC-002-005-----0
  6
Continuous
 62
     3
100
AcDbLine
 10
72.5
 20
-54.058357
 30
0.0
 11
69.5
 21
-51.058357
 31
0.0
  0
LINE
  5
11C
330
81
100
AcDbEntity
  8
LC-002-005-----0
  6
Continuous
 62
     3
100
AcDbLine
 10
72.5
 20
-57.59389100000001
 30
0.0
 11
69.5
 21
-54.59389100000001
 31
0.0
  0
LINE
  5
11D
330
81
100
AcDbEntity
  8
LC-002-005-----0
  6
Continuous
 62
     3
100
AcDbLine
 10
72.5
 20
-61.129425
 30
0.0
 11
69.5
 21
-58.129425
 31
0.0
  0
LINE
  5
11E
330
81
100
AcDbEntity
  8
LC-002-005-----0
  6
Continuous
 62
     3
100
AcDbLine
 10
72.5
 20
-64.66495900000001
 30
0.0
 11
69.5
 21
-61.66495900000001
 31
0.0
  0
LINE
  5
11F
330
81
100
AcDbEntity
  8
LC-002-005-----0
  6
Continuous
 62
     3
100
AcDbLine
 10
72.5
 20
-68.200493
 30
0.0
 11
69.5
 21
-65.200493
 31
0.0
  0
LINE
  5
120
330
81
100
AcDbEntity
  8
LC-002-005-----0
  6
Continuous
 62
     3
100
AcDbLine
 10
72.5
 20
-71.736027
 30
0.0
 11
69.5
 21
-68.736027
 31
0.0
  0
LINE
  5
121
330
81
100
AcDbEntity
  8
LC-002-005-----0
  6
Continuous
 62
     3
100
AcDbLine
 10
72.5
 20
-75.271561
 30
0.0
 11
69.5
 21
-72.27156099999999
 31
0.0
  0
LINE
  5
122
330
81
100
AcDbEntity
  8
LC-002-005-----0
  6
Continuous
 62
     3
100
AcDbLine
 10
72.5
 20
-78.807094
 30
0.0
 11
69.5
 21
-75.807094
 31
0.0
  0
LINE
  5
123
330
81
100
AcDbEntity
  8
LC-002-005-----0
  6
Continuous
 62
     3
100
AcDbLine
 10
72.5
 20
-82.342628
 30
0.0
 11
69.5
 21
-79.342628
 31
0.0
  0
LINE
  5
124
330
81
100
AcDbEntity
  8
LC-002-005-----0
  6
Continuous
 62
     3
100
AcDbLine
 10
72.5
 20
-85.878162
 30
0.0
 11
69.5
 21
-82.878162
 31
0.0
  0
LINE
  5
125
330
81
100
AcDbEntity
  8
LC-002-005-----0
  6
Continuous
 62
     3
100
AcDbLine
 10
72.5
 20
-89.413696
 30
0.0
 11
69.5
 21
-86.413696
 31
0.0
  0
LINE
  5
126
330
81
100
AcDbEntity
  8
LC-002-005-----0
  6
Continuous
 62
     3
100
AcDbLine
 10
72.5
 20
-92.94923
 30
0.0
 11
69.5
 21
-89.94923
 31
0.0
  0
LINE
  5
127
330
81
100
AcDbEntity
  8
LC-002-005-----0
  6
Continuous
 62
     3
100
AcDbLine
 10
72.5
 20
-96.484764
 30
0.0
 11
69.5
 21
-93.484764
 31
0.0
  0
LINE
  5
128
330
81
100
AcDbEntity
  8
LC-002-005-----0
  6
Continuous
 62
     3
100
AcDbLine
 10
72.5
 20
-100.020298
 30
0.0
 11
69.5
 21
-97.020298
 31
0.0
  0
LINE
  5
129
330
81
100
AcDbEntity
  8
LC-002-005-----0
  6
Continuous
 62
     3
100
AcDbLine
 10
72.5
 20
-103.555832
 30
0.0
 11
69.5
 21
-100.555832
 31
0.0
  0
LINE
  5
12A
330
81
100
AcDbEntity
  8
LC-002-005-----0
  6
Continuous
 62
     3
100
AcDbLine
 10
72.5
 20
-107.091366
 30
0.0
 11
69.5
 21
-104.091366
 31
0.0
  0
LINE
  5
12B
330
81
100
AcDbEntity
  8
LC-002-005-----0
  6
Continuous
 62
     3
100
AcDbLine
 10
72.5
 20
-110.6269
 30
0.0
 11
69.5
 21
-107.6269
 31
0.0
  0
LINE
  5
12C
330
81
100
AcDbEntity
  8
LC-002-005-----0
  6
Continuous
 62
     3
100
AcDbLine
 10
72.5
 20
-114.162434
 30
0.0
 11
69.5
 21
-111.162434
 31
0.0
  0
LINE
  5
12D
330
81
100
AcDbEntity
  8
LC-002-005-----0
  6
Continuous
 62
     3
100
AcDbLine
 10
72.5
 20
-117.697967
 30
0.0
 11
69.5
 21
-114.697967
 31
0.0
  0
LINE
  5
12E
330
81
100
AcDbEntity
  8
LC-002-005-----0
  6
Continuous
 62
     3
100
AcDbLine
 10
72.5
 20
-121.233501
 30
0.0
 11
69.5
 21
-118.233501
 31
0.0
  0
LINE
  5
12F
330
81
100
AcDbEntity
  8
LC-002-005-----0
  6
Continuous
 62
     3
100
AcDbLine
 10
72.5
 20
-124.769035
 30
0.0
 11
69.5
 21
-121.769035
 31
0.0
  0
LINE
  5
130
330
81
100
AcDbEntity
  8
LC-002-005-----0
  6
Continuous
 62
     3
100
AcDbLine
 10
72.5
 20
-128.304569
 30
0.0
 11
69.5
 21
-125.304569
 31
0.0
  0
LINE
  5
131
330
81
100
AcDbEntity
  8
LC-002-005-----0
  6
Continuous
 62
     3
100
AcDbLine
 10
72.5
 20
-131.840103
 30
0.0
 11
69.5
 21
-128.840103
 31
0.0
  0
LINE
  5
132
330
81
100
AcDbEntity
  8
LC-002-005-----0
  6
Continuous
 62
     3
100
AcDbLine
 10
72.5
 20
-135.375637
 30
0.0
 11
69.5
 21
-132.375637
 31
0.0
  0
LINE
  5
133
330
81
100
AcDbEntity
  8
LC-002-005-----0
  6
Continuous
 62
     3
100
AcDbLine
 10
72.5
 20
-138.911171
 30
0.0
 11
69.5
 21
-135.911171
 31
0.0
  0
LINE
  5
134
330
81
100
AcDbEntity
  8
LC-002-005-----0
  6
Continuous
 62
     3
100
AcDbLine
 10
72.5
 20
-142.446705
 30
0.0
 11
69.5
 21
-139.446705
 31
0.0
  0
LINE
  5
135
330
81
100
AcDbEntity
  8
LC-002-005-----0
  6
Continuous
 62
     3
100
AcDbLine
 10
72.5
 20
-145.982239
 30
0.0
 11
69.5
 21
-142.982239
 31
0.0
  0
LINE
  5
136
330
81
100
AcDbEntity
  8
LC-002-005-----0
  6
Continuous
 62
     3
100
AcDbLine
 10
72.5
 20
-149.517773
 30
0.0
 11
69.5
 21
-146.517773
 31
0.0
  0
LINE
  5
137
330
81
100
AcDbEntity
  8
LC-002-005-----0
  6
Continuous
 62
     3
100
AcDbLine
 10
72.5
 20
-153.053307
 30
0.0
 11
69.5
 21
-150.053307
 31
0.0
  0
LINE
  5
138
330
81
100
AcDbEntity
  8
LC-002-005-----0
  6
Continuous
 62
     3
100
AcDbLine
 10
72.5
 20
-156.58884
 30
0.0
 11
69.5
 21
-153.58884
 31
0.0
  0
LINE
  5
139
330
81
100
AcDbEntity
  8
LC-002-005-----0
  6
Continuous
 62
     3
100
AcDbLine
 10
72.5
 20
-160.124374
 30
0.0
 11
69.5
 21
-157.124374
 31
0.0
  0
LINE
  5
13A
330
81
100
AcDbEntity
  8
LC-002-005-----0
  6
Continuous
 62
     3
100
AcDbLine
 10
72.5
 20
-163.659908
 30
0.0
 11
69.5
 21
-160.659908
 31
0.0
  0
LINE
  5
13B
330
81
100
AcDbEntity
  8
LC-002-005-----0
  6
Continuous
 62
     3
100
AcDbLine
 10
72.5
 20
-167.195442
 30
0.0
 11
69.5
 21
-164.195442
 31
0.0
  0
LINE
  5
13C
330
81
100
AcDbEntity
  8
LC-002-005-----0
  6
Continuous
 62
     3
100
AcDbLine
 10
72.5
 20
-170.730976
 30
0.0
 11
69.5
 21
-167.730976
 31
0.0
  0
LINE
  5
13D
330
81
100
AcDbEntity
  8
LC-002-005-----0
  6
Continuous
 62
     3
100
AcDbLine
 10
72.5
 20
-174.26651
 30
0.0
 11
69.5
 21
-171.26651
 31
0.0
  0
LINE
  5
13E
330
81
100
AcDbEntity
  8
LC-002-005-----0
  6
Continuous
 62
     3
100
AcDbLine
 10
72.5
 20
-177.802044
 30
0.0
 11
69.5
 21
-174.802044
 31
0.0
  0
LINE
  5
13F
330
81
100
AcDbEntity
  8
LC-002-005-----0
  6
Continuous
 62
     3
100
AcDbLine
 10
72.5
 20
-181.337578
 30
0.0
 11
69.5
 21
-178.337578
 31
0.0
  0
LINE
  5
140
330
81
100
AcDbEntity
  8
LC-002-005-----0
  6
Continuous
 62
     3
100
AcDbLine
 10
72.5
 20
-184.873112
 30
0.0
 11
69.5
 21
-181.873112
 31
0.0
  0
LINE
  5
141
330
81
100
AcDbEntity
  8
LC-002-005-----0
  6
Continuous
 62
     3
100
AcDbLine
 10
72.5
 20
-188.408646
 30
0.0
 11
69.5
 21
-185.408646
 31
0.0
  0
LINE
  5
142
330
81
100
AcDbEntity
  8
LC-002-005-----0
  6
Continuous
 62
     3
100
AcDbLine
 10
72.5
 20
-193.944179
 30
0.0
 11
69.5
 21
-190.944179
 31
0.0
  0
LINE
  5
143
330
81
100
AcDbEntity
  8
LC-002-005-----0
  6
Continuous
 62
     3
100
AcDbLine
 10
72.5
 20
-197.479713
 30
0.0
 11
69.5
 21
-194.479713
 31
0.0
  0
LINE
  5
144
330
81
100
AcDbEntity
  8
LC-002-005-----0
  6
Continuous
 62
     3
100
AcDbLine
 10
71.96846599999998
 20
-200.483713
 30
0.0
 11
69.5
 21
-198.015247
 31
0.0
  0
LINE
  5
145
330
81
100
AcDbEntity
  8
LC-002-005-----0
  6
Continuous
 62
     3
100
AcDbLine
 10
71.22131999999999
 20
-203.272101
 30
0.0
 11
69.5
 21
-201.550781
 31
0.0
  0
LINE
  5
146
330
81
100
AcDbEntity
  8
LC-002-005-----0
  6
Continuous
 62
     3
100
AcDbLine
 10
-70.5
 20
-2.98223899999999
 30
0.0
 11
-72.482238
 21
-1.0
 31
0.0
  0
LINE
  5
147
330
81
100
AcDbEntity
  8
LC-002-005-----0
  6
Continuous
 62
     3
100
AcDbLine
 10
-70.5
 20
-6.51777300000001
 30
0.0
 11
-74.5
 21
-2.517773
 31
0.0
  0
LINE
  5
148
330
81
100
AcDbEntity
  8
LC-002-005-----0
  6
Continuous
 62
     3
100
AcDbLine
 10
-70.5
 20
-10.05330699999999
 30
0.0
 11
-74.5
 21
-6.05330699999999
 31
0.0
  0
LINE
  5
149
330
81
100
AcDbEntity
  8
LC-002-005-----0
  6
Continuous
 62
     3
100
AcDbLine
 10
-70.5
 20
-13.58884000000001
 30
0.0
 11
-74.5
 21
-9.58884
 31
0.0
  0
LINE
  5
14A
330
81
100
AcDbEntity
  8
LC-002-005-----0
  6
Continuous
 62
     3
100
AcDbLine
 10
-70.5
 20
-17.12437399999999
 30
0.0
 11
-76.5
 21
-11.12437399999999
 31
0.0
  0
LINE
  5
14B
330
81
100
AcDbEntity
  8
LC-002-005-----0
  6
Continuous
 62
     3
100
AcDbLine
 10
-69.5
 20
-21.659908
 30
0.0
 11
-70.15990800000003
 21
-21.0
 31
0.0
  0
LINE
  5
14C
330
81
100
AcDbEntity
  8
LC-002-005-----0
  6
Continuous
 62
     3
100
AcDbLine
 10
-70.5
 20
-20.659908
 30
0.0
 11
-72.5
 21
-18.659908
 31
0.0
  0
LINE
  5
14D
330
81
100
AcDbEntity
  8
LC-002-005-----0
  6
Continuous
 62
     3
100
AcDbLine
 10
-76.159908
 20
-15.0
 30
0.0
 11
-76.5
 21
-14.659908
 31
0.0
  0
LINE
  5
14E
330
81
100
AcDbEntity
  8
LC-002-005-----0
  6
Continuous
 62
     3
100
AcDbLine
 10
-69.5
 20
-25.19544200000001
 30
0.0
 11
-72.5
 21
-22.19544200000001
 31
0.0
  0
LINE
  5
14F
330
81
100
AcDbEntity
  8
LC-002-005-----0
  6
Continuous
 62
     3
100
AcDbLine
 10
-69.5
 20
-28.730976
 30
0.0
 11
-72.5
 21
-25.730976
 31
0.0
  0
LINE
  5
150
330
81
100
AcDbEntity
  8
LC-002-005-----0
  6
Continuous
 62
     3
100
AcDbLine
 10
-69.5
 20
-32.26651000000001
 30
0.0
 11
-72.5
 21
-29.26651000000001
 31
0.0
  0
LINE
  5
151
330
81
100
AcDbEntity
  8
LC-002-005-----0
  6
Continuous
 62
     3
100
AcDbLine
 10
-69.5
 20
-35.802044
 30
0.0
 11
-72.5
 21
-32.802044
 31
0.0
  0
LINE
  5
152
330
81
100
AcDbEntity
  8
LC-002-005-----0
  6
Continuous
 62
     3
100
AcDbLine
 10
-69.5
 20
-39.33757800000001
 30
0.0
 11
-72.5
 21
-36.33757800000001
 31
0.0
  0
LINE
  5
153
330
81
100
AcDbEntity
  8
LC-002-005-----0
  6
Continuous
 62
     3
100
AcDbLine
 10
-69.5
 20
-42.87311199999999
 30
0.0
 11
-72.5
 21
-39.87311199999999
 31
0.0
  0
LINE
  5
154
330
81
100
AcDbEntity
  8
LC-002-005-----0
  6
Continuous
 62
     3
100
AcDbLine
 10
-69.5
 20
-46.40864600000001
 30
0.0
 11
-72.5
 21
-43.40864600000001
 31
0.0
  0
LINE
  5
155
330
81
100
AcDbEntity
  8
LC-002-005-----0
  6
Continuous
 62
     3
100
AcDbLine
 10
-69.5
 20
-49.94417899999999
 30
0.0
 11
-72.5
 21
-46.94417899999999
 31
0.0
  0
LINE
  5
156
330
81
100
AcDbEntity
  8
LC-002-005-----0
  6
Continuous
 62
     3
100
AcDbLine
 10
-69.5
 20
-53.479713
 30
0.0
 11
-72.5
 21
-50.479713
 31
0.0
  0
LINE
  5
157
330
81
100
AcDbEntity
  8
LC-002-005-----0
  6
Continuous
 62
     3
100
AcDbLine
 10
-69.5
 20
-57.01524699999999
 30
0.0
 11
-72.5
 21
-54.01524699999999
 31
0.0
  0
LINE
  5
158
330
81
100
AcDbEntity
  8
LC-002-005-----0
  6
Continuous
 62
     3
100
AcDbLine
 10
-69.5
 20
-60.550781
 30
0.0
 11
-72.5
 21
-57.550781
 31
0.0
  0
LINE
  5
159
330
81
100
AcDbEntity
  8
LC-002-005-----0
  6
Continuous
 62
     3
100
AcDbLine
 10
-69.5
 20
-64.08631500000001
 30
0.0
 11
-72.5
 21
-61.08631500000001
 31
0.0
  0
LINE
  5
15A
330
81
100
AcDbEntity
  8
LC-002-005-----0
  6
Continuous
 62
     3
100
AcDbLine
 10
-69.5
 20
-67.621849
 30
0.0
 11
-72.5
 21
-64.621849
 31
0.0
  0
LINE
  5
15B
330
81
100
AcDbEntity
  8
LC-002-005-----0
  6
Continuous
 62
     3
100
AcDbLine
 10
-69.5
 20
-71.15738300000001
 30
0.0
 11
-72.5
 21
-68.15738300000001
 31
0.0
  0
LINE
  5
15C
330
81
100
AcDbEntity
  8
LC-002-005-----0
  6
Continuous
 62
     3
100
AcDbLine
 10
-69.5
 20
-74.692917
 30
0.0
 11
-72.5
 21
-71.692917
 31
0.0
  0
LINE
  5
15D
330
81
100
AcDbEntity
  8
LC-002-005-----0
  6
Continuous
 62
     3
100
AcDbLine
 10
-69.5
 20
-78.228451
 30
0.0
 11
-72.5
 21
-75.228451
 31
0.0
  0
LINE
  5
15E
330
81
100
AcDbEntity
  8
LC-002-005-----0
  6
Continuous
 62
     3
100
AcDbLine
 10
-69.5
 20
-81.763985
 30
0.0
 11
-72.5
 21
-78.763985
 31
0.0
  0
LINE
  5
15F
330
81
100
AcDbEntity
  8
LC-002-005-----0
  6
Continuous
 62
     3
100
AcDbLine
 10
-69.5
 20
-85.299519
 30
0.0
 11
-72.5
 21
-82.299519
 31
0.0
  0
LINE
  5
160
330
81
100
AcDbEntity
  8
LC-002-005-----0
  6
Continuous
 62
     3
100
AcDbLine
 10
-69.5
 20
-88.835052
 30
0.0
 11
-72.5
 21
-85.835052
 31
0.0
  0
LINE
  5
161
330
81
100
AcDbEntity
  8
LC-002-005-----0
  6
Continuous
 62
     3
100
AcDbLine
 10
-69.5
 20
-92.370586
 30
0.0
 11
-72.5
 21
-89.370586
 31
0.0
  0
LINE
  5
162
330
81
100
AcDbEntity
  8
LC-002-005-----0
  6
Continuous
 62
     3
100
AcDbLine
 10
-69.5
 20
-95.90612
 30
0.0
 11
-72.5
 21
-92.90612
 31
0.0
  0
LINE
  5
163
330
81
100
AcDbEntity
  8
LC-002-005-----0
  6
Continuous
 62
     3
100
AcDbLine
 10
-69.5
 20
-99.441654
 30
0.0
 11
-72.5
 21
-96.441654
 31
0.0
  0
LINE
  5
164
330
81
100
AcDbEntity
  8
LC-002-005-----0
  6
Continuous
 62
     3
100
AcDbLine
 10
-69.5
 20
-102.977188
 30
0.0
 11
-72.5
 21
-99.977188
 31
0.0
  0
LINE
  5
165
330
81
100
AcDbEntity
  8
LC-002-005-----0
  6
Continuous
 62
     3
100
AcDbLine
 10
-69.5
 20
-106.512722
 30
0.0
 11
-72.5
 21
-103.512722
 31
0.0
  0
LINE
  5
166
330
81
100
AcDbEntity
  8
LC-002-005-----0
  6
Continuous
 62
     3
100
AcDbLine
 10
-69.5
 20
-110.048256
 30
0.0
 11
-72.5
 21
-107.048256
 31
0.0
  0
LINE
  5
167
330
81
100
AcDbEntity
  8
LC-002-005-----0
  6
Continuous
 62
     3
100
AcDbLine
 10
-69.5
 20
-113.58379
 30
0.0
 11
-72.5
 21
-110.58379
 31
0.0
  0
LINE
  5
168
330
81
100
AcDbEntity
  8
LC-002-005-----0
  6
Continuous
 62
     3
100
AcDbLine
 10
-69.5
 20
-117.119324
 30
0.0
 11
-72.5
 21
-114.119324
 31
0.0
  0
LINE
  5
169
330
81
100
AcDbEntity
  8
LC-002-005-----0
  6
Continuous
 62
     3
100
AcDbLine
 10
-69.5
 20
-120.654858
 30
0.0
 11
-72.5
 21
-117.654858
 31
0.0
  0
LINE
  5
16A
330
81
100
AcDbEntity
  8
LC-002-005-----0
  6
Continuous
 62
     3
100
AcDbLine
 10
-69.5
 20
-124.190392
 30
0.0
 11
-72.5
 21
-121.190392
 31
0.0
  0
LINE
  5
16B
330
81
100
AcDbEntity
  8
LC-002-005-----0
  6
Continuous
 62
     3
100
AcDbLine
 10
69.84779099999997
 20
-21.0
 30
0.0
 11
69.5
 21
-20.652209
 31
0.0
  0
LINE
  5
16C
330
81
100
AcDbEntity
  8
LC-002-005-----0
  6
Continuous
 62
     3
100
AcDbLine
 10
70.5
 20
-18.82378199999999
 30
0.0
 11
69.5
 21
-17.82378199999999
 31
0.0
  0
LINE
  5
16D
330
81
100
AcDbEntity
  8
LC-002-005-----0
  6
Continuous
 62
     3
100
AcDbLine
 10
70.5
 20
-15.99535499999999
 30
0.0
 11
69.5
 21
-14.99535499999999
 31
0.0
  0
LINE
  5
16E
330
81
100
AcDbEntity
  8
LC-002-005-----0
  6
Continuous
 62
     3
100
AcDbLine
 10
70.5
 20
-13.16692699999999
 30
0.0
 11
69.5
 21
-12.16692699999999
 31
0.0
  0
LINE
  5
16F
330
81
100
AcDbEntity
  8
LC-002-005-----0
  6
Continuous
 62
     3
100
AcDbLine
 10
70.5
 20
-10.33850000000001
 30
0.0
 11
69.5
 21
-9.33850000000001
 31
0.0
  0
LINE
  5
170
330
81
100
AcDbEntity
  8
LC-002-005-----0
  6
Continuous
 62
     3
100
AcDbLine
 10
70.5
 20
-7.51007300000001
 30
0.0
 11
69.5
 21
-6.51007300000001
 31
0.0
  0
LINE
  5
171
330
81
100
AcDbEntity
  8
LC-002-005-----0
  6
Continuous
 62
     3
100
AcDbLine
 10
75.5
 20
-9.681646
 30
0.0
 11
74.5
 21
-8.681646
 31
0.0
  0
LINE
  5
172
330
81
100
AcDbEntity
  8
LC-002-005-----0
  6
Continuous
 62
     3
100
AcDbLine
 10
70.5
 20
-4.681646
 30
0.0
 11
69.5
 21
-3.681646
 31
0.0
  0
LINE
  5
173
330
81
100
AcDbEntity
  8
LC-002-005-----0
  6
Continuous
 62
     3
100
AcDbLine
 10
75.5
 20
-6.853219
 30
0.0
 11
74.5
 21
-5.853219
 31
0.0
  0
LINE
  5
174
330
81
100
AcDbEntity
  8
LC-002-005-----0
  6
Continuous
 62
     3
100
AcDbLine
 10
-69.5
 20
-127.725925
 30
0.0
 11
-72.5
 21
-124.725925
 31
0.0
  0
LINE
  5
175
330
81
100
AcDbEntity
  8
LC-001-002-----0
  6
Continuous
 62
     7
100
AcDbLine
 10
72.5
 20
-26.5
 30
0.0
 11
72.5
 21
-199.0
 31
0.0
  0
LINE
  5
176
330
81
100
AcDbEntity
  8
LC-001-002-----0
  6
Continuous
 62
     7
100
AcDbLine
 10
69.5
 20
-21.0
 30
0.0
 11
69.5
 21
-205.0
 31
0.0
  0
LINE
  5
177
330
81
100
AcDbEntity
  8
LC-001-002-----0
  6
Continuous
 62
     7
100
AcDbLine
 10
70.89230500000002
 20
-205.0
 30
0.0
 11
-70.89230500000002
 21
-205.0
 31
0.0
  0
LINE
  5
178
330
81
100
AcDbEntity
  8
LC-002-005-----0
  6
Continuous
 62
     3
100
AcDbLine
 10
-69.84779100000003
 20
-21.0
 30
0.0
 11
-69.5
 21
-20.652209
 31
0.0
  0
LINE
  5
179
330
81
100
AcDbEntity
  8
LC-002-005-----0
  6
Continuous
 62
     3
100
AcDbLine
 10
-70.5
 20
-18.82378199999999
 30
0.0
 11
-69.5
 21
-17.82378199999999
 31
0.0
  0
LINE
  5
17A
330
81
100
AcDbEntity
  8
LC-002-005-----0
  6
Continuous
 62
     3
100
AcDbLine
 10
-70.5
 20
-15.99535499999999
 30
0.0
 11
-69.5
 21
-14.99535499999999
 31
0.0
  0
LINE
  5
17B
330
81
100
AcDbEntity
  8
LC-002-005-----0
  6
Continuous
 62
     3
100
AcDbLine
 10
-70.5
 20
-13.16692699999999
 30
0.0
 11
-69.5
 21
-12.16692699999999
 31
0.0
  0
LINE
  5
17C
330
81
100
AcDbEntity
  8
LC-002-005-----0
  6
Continuous
 62
     3
100
AcDbLine
 10
-70.5
 20
-10.33850000000001
 30
0.0
 11
-69.5
 21
-9.33850000000001
 31
0.0
  0
LINE
  5
17D
330
81
100
AcDbEntity
  8
LC-002-005-----0
  6
Continuous
 62
     3
100
AcDbLine
 10
-70.5
 20
-7.51007300000001
 30
0.0
 11
-69.5
 21
-6.51007300000001
 31
0.0
  0
LINE
  5
17E
330
81
100
AcDbEntity
  8
LC-002-005-----0
  6
Continuous
 62
     3
100
AcDbLine
 10
-75.5
 20
-9.681646
 30
0.0
 11
-74.5
 21
-8.681646
 31
0.0
  0
LINE
  5
17F
330
81
100
AcDbEntity
  8
LC-002-005-----0
  6
Continuous
 62
     3
100
AcDbLine
 10
-70.5
 20
-4.681646
 30
0.0
 11
-69.5
 21
-3.681646
 31
0.0
  0
LINE
  5
180
330
81
100
AcDbEntity
  8
LC-002-005-----0
  6
Continuous
 62
     3
100
AcDbLine
 10
-75.5
 20
-6.853219
 30
0.0
 11
-74.5
 21
-5.853219
 31
0.0
  0
LINE
  5
181
330
81
100
AcDbEntity
  8
LC-001-002-----0
  6
Continuous
 62
     7
100
AcDbLine
 10
-72.5
 20
-26.5
 30
0.0
 11
-72.5
 21
-199.0
 31
0.0
  0
LINE
  5
182
330
81
100
AcDbEntity
  8
LC-001-002-----0
  6
Continuous
 62
     7
100
AcDbLine
 10
-69.5
 20
-21.0
 30
0.0
 11
-69.5
 21
-205.0
 31
0.0
  0
LINE
  5
183
330
81
100
AcDbEntity
  8
LC-001-002-----0
  6
Continuous
 62
     7
100
AcDbLine
 10
-72.5
 20
-199.0
 30
0.0
 11
-70.89230500000002
 21
-205.0
 31
0.0
  0
LINE
  5
184
330
81
100
AcDbEntity
  8
LC-002-005-----0
  6
Continuous
 62
     3
100
AcDbLine
 10
-70.602306
 20
-1.95552499999999
 30
0.0
 11
-69.85787199999999
 21
-1.21109100000001
 31
0.0
  0
LINE
  5
185
330
81
100
AcDbEntity
  8
LC-002-005-----0
  6
Continuous
 62
     3
100
AcDbLine
 10
-75.5
 20
-4.02479199999999
 30
0.0
 11
-74.5
 21
-3.02479199999999
 31
0.0
  0
LINE
  5
186
330
81
100
AcDbEntity
  8
LC-002-005-----0
  6
Continuous
 62
     3
100
AcDbLine
 10
-72.47520800000001
 20
-1.0
 30
0.0
 11
-71.52143899999999
 21
-0.046232
 31
0.0
  0
LINE
  5
187
330
81
100
AcDbEntity
  8
LC-001-002-----0
  6
Continuous
 62
     7
100
AcDbLine
 10
72.5
 20
-199.0
 30
0.0
 11
70.89230500000002
 21
-205.0
 31
0.0
  0
LINE
  5
188
330
81
100
AcDbEntity
  8
LC-001-002-----0
  6
Continuous
 62
     7
100
AcDbLine
 10
-72.5
 20
-1.0
 30
0.0
 11
-72.5
 21
-1.0
 31
0.0
  0
LINE
  5
189
330
81
100
AcDbEntity
  8
LC-001-002-----0
  6
Continuous
 62
     7
100
AcDbLine
 10
-75.5
 20
-11.5
 30
0.0
 11
-74.5
 21
-11.5
 31
0.0
  0
LINE
  5
18A
330
81
100
AcDbEntity
  8
LC-001-002-----0
  6
Continuous
 62
     7
100
AcDbLine
 10
-74.5
 20
-2.5
 30
0.0
 11
-74.5
 21
-11.5
 31
0.0
  0
LINE
  5
18B
330
81
100
AcDbEntity
  8
LC-001-002-----0
  6
Continuous
 62
     7
100
AcDbLine
 10
-75.5
 20
-10.0
 30
0.0
 11
-75.5
 21
-11.5
 31
0.0
  0
LINE
  5
18C
330
81
100
AcDbEntity
  8
LC-001-002-----0
  6
Continuous
 62
     7
100
AcDbLine
 10
-76.5
 20
-10.0
 30
0.0
 11
-75.5
 21
-10.0
 31
0.0
  0
LINE
  5
18D
330
81
100
AcDbEntity
  8
LC-001-002-----0
  6
Continuous
 62
     7
100
AcDbLine
 10
-76.5
 20
-10.0
 30
0.0
 11
-76.5
 21
-15.0
 31
0.0
  0
LINE
  5
18E
330
81
100
AcDbEntity
  8
LC-001-002-----0
  6
Continuous
 62
     7
100
AcDbLine
 10
-76.5
 20
-15.0
 30
0.0
 11
-72.5
 21
-15.0
 31
0.0
  0
LINE
  5
18F
330
81
100
AcDbEntity
  8
LC-002-005-----0
  6
Continuous
 62
     3
100
AcDbLine
 10
-69.5
 20
-131.261459
 30
0.0
 11
-72.5
 21
-128.261459
 31
0.0
  0
LINE
  5
190
330
81
100
AcDbEntity
  8
LC-002-005-----0
  6
Continuous
 62
     3
100
AcDbLine
 10
-69.5
 20
-134.796993
 30
0.0
 11
-72.5
 21
-131.796993
 31
0.0
  0
LINE
  5
191
330
81
100
AcDbEntity
  8
LC-002-005-----0
  6
Continuous
 62
     3
100
AcDbLine
 10
70.602307
 20
-1.95552499999999
 30
0.0
 11
69.85787199999999
 21
-1.21109100000001
 31
0.0
  0
LINE
  5
192
330
81
100
AcDbEntity
  8
LC-002-005-----0
  6
Continuous
 62
     3
100
AcDbLine
 10
75.5
 20
-4.02479199999999
 30
0.0
 11
74.5
 21
-3.02479199999999
 31
0.0
  0
LINE
  5
193
330
81
100
AcDbEntity
  8
LC-002-005-----0
  6
Continuous
 62
     3
100
AcDbLine
 10
72.47520800000001
 20
-1.0
 30
0.0
 11
71.52143999999998
 21
-0.046232
 31
0.0
  0
LINE
  5
194
330
81
100
AcDbEntity
  8
LC-001-002-----0
  6
Continuous
 62
     7
100
AcDbLine
 10
72.5
 20
-1.0
 30
0.0
 11
72.5
 21
-1.0
 31
0.0
  0
LINE
  5
195
330
81
100
AcDbEntity
  8
LC-001-002-----0
  6
Continuous
 62
     7
100
AcDbLine
 10
75.5
 20
-11.5
 30
0.0
 11
74.5
 21
-11.5
 31
0.0
  0
LINE
  5
196
330
81
100
AcDbEntity
  8
LC-001-002-----0
  6
Continuous
 62
     7
100
AcDbLine
 10
74.5
 20
-2.5
 30
0.0
 11
74.5
 21
-11.5
 31
0.0
  0
LINE
  5
197
330
81
100
AcDbEntity
  8
LC-001-002-----0
  6
Continuous
 62
     7
100
AcDbLine
 10
75.5
 20
-10.0
 30
0.0
 11
75.5
 21
-11.5
 31
0.0
  0
LINE
  5
198
330
81
100
AcDbEntity
  8
LC-001-002-----0
  6
Continuous
 62
     7
100
AcDbLine
 10
76.5
 20
-10.0
 30
0.0
 11
75.5
 21
-10.0
 31
0.0
  0
LINE
  5
199
330
81
100
AcDbEntity
  8
LC-001-002-----0
  6
Continuous
 62
     7
100
AcDbLine
 10
76.5
 20
-10.0
 30
0.0
 11
76.5
 21
-15.0
 31
0.0
  0
LINE
  5
19A
330
81
100
AcDbEntity
  8
LC-001-002-----0
  6
Continuous
 62
     7
100
AcDbLine
 10
76.5
 20
-15.0
 30
0.0
 11
72.5
 21
-15.0
 31
0.0
  0
LINE
  5
19B
330
81
100
AcDbEntity
  8
LC-002-005-----0
  6
Continuous
 62
     3
100
AcDbLine
 10
-69.5
 20
-138.332527
 30
0.0
 11
-72.5
 21
-135.332527
 31
0.0
  0
LINE
  5
19C
330
81
100
AcDbEntity
  8
LC-002-005-----0
  6
Continuous
 62
     3
100
AcDbLine
 10
-69.5
 20
-141.868061
 30
0.0
 11
-72.5
 21
-138.868061
 31
0.0
  0
LINE
  5
19D
330
81
100
AcDbEntity
  8
LC-002-005-----0
  6
Continuous
 62
     3
100
AcDbLine
 10
-69.5
 20
-145.403595
 30
0.0
 11
-72.5
 21
-142.403595
 31
0.0
  0
LINE
  5
19E
330
81
100
AcDbEntity
  8
LC-002-005-----0
  6
Continuous
 62
     3
100
AcDbLine
 10
-69.5
 20
-148.939129
 30
0.0
 11
-72.5
 21
-145.939129
 31
0.0
  0
LINE
  5
19F
330
81
100
AcDbEntity
  8
LC-001-002-----0
  6
Continuous
 62
     7
100
AcDbLine
 10
-69.5
 20
-21.0
 30
0.0
 11
-69.5
 21
-21.0
 31
0.0
  0
LINE
  5
1A0
330
81
100
AcDbEntity
  8
LC-001-002-----0
  6
Continuous
 62
     7
100
AcDbLine
 10
-72.5
 20
-15.0
 30
0.0
 11
-72.5
 21
-26.5
 31
0.0
  0
LINE
  5
1A1
330
81
100
AcDbEntity
  8
LC-001-002-----0
  6
Continuous
 62
     7
100
AcDbLine
 10
69.5
 20
-21.0
 30
0.0
 11
69.5
 21
-21.0
 31
0.0
  0
LINE
  5
1A2
330
81
100
AcDbEntity
  8
LC-001-002-----0
  6
Continuous
 62
     7
100
AcDbLine
 10
-75.5
 20
-11.5
 30
0.0
 11
-75.5
 21
-2.5
 31
0.0
  0
LINE
  5
1A3
330
81
100
AcDbEntity
  8
LC-001-002-----0
  6
Continuous
 62
     7
100
AcDbLine
 10
-72.0
 20
0.0
 30
0.0
 11
72.0
 21
0.0
 31
0.0
  0
LINE
  5
1A4
330
81
100
AcDbEntity
  8
LC-001-002-----0
  6
Continuous
 62
     7
100
AcDbLine
 10
72.5
 20
-15.0
 30
0.0
 11
72.5
 21
-26.5
 31
0.0
  0
LINE
  5
1A5
330
81
100
AcDbEntity
  8
LC-001-002-----0
  6
Continuous
 62
     7
100
AcDbLine
 10
-73.0
 20
-1.0
 30
0.0
 11
-72.0
 21
-1.0
 31
0.0
  0
LINE
  5
1A6
330
81
100
AcDbEntity
  8
LC-001-002-----0
  6
Continuous
 62
     7
100
AcDbLine
 10
75.5
 20
-11.5
 30
0.0
 11
75.5
 21
-2.5
 31
0.0
  0
LINE
  5
1A7
330
81
100
AcDbEntity
  8
LC-001-002-----0
  6
Continuous
 62
     7
100
AcDbLine
 10
-74.5
 20
-11.5
 30
0.0
 11
-74.5
 21
-2.5
 31
0.0
  0
LINE
  5
1A8
330
81
100
AcDbEntity
  8
LC-001-002-----0
  6
Continuous
 62
     7
100
AcDbLine
 10
-75.5
 20
-11.5
 30
0.0
 11
-74.5
 21
-11.5
 31
0.0
  0
LINE
  5
1A9
330
81
100
AcDbEntity
  8
LC-001-002-----0
  6
Continuous
 62
     7
100
AcDbLine
 10
-68.5
 20
-6.0
 30
0.0
 11
0.0
 21
-6.0
 31
0.0
  0
LINE
  5
1AA
330
81
100
AcDbEntity
  8
LC-001-002-----0
  6
Continuous
 62
     7
100
AcDbLine
 10
-69.5
 20
-21.0
 30
0.0
 11
-69.5
 21
-2.5
 31
0.0
  0
LINE
  5
1AB
330
81
100
AcDbEntity
  8
LC-001-002-----0
  6
Continuous
 62
     7
100
AcDbLine
 10
-70.5
 20
-21.0
 30
0.0
 11
-70.5
 21
-2.5
 31
0.0
  0
LINE
  5
1AC
330
81
100
AcDbEntity
  8
LC-001-002-----0
  6
Continuous
 62
     7
100
AcDbLine
 10
-70.5
 20
-21.0
 30
0.0
 11
-69.5
 21
-21.0
 31
0.0
  0
LINE
  5
1AD
330
81
100
AcDbEntity
  8
LC-001-002-----0
  6
Continuous
 62
     7
100
AcDbLine
 10
-69.5
 20
-21.0
 30
0.0
 11
0.0
 21
-21.0
 31
0.0
  0
LINE
  5
1AE
330
81
100
AcDbEntity
  8
LC-001-002-----0
  6
Continuous
 62
     7
100
AcDbLine
 10
-37.74109700000003
 20
-7.5
 30
0.0
 11
-37.74109700000003
 21
-8.0
 31
0.0
  0
LINE
  5
1AF
330
81
100
AcDbEntity
  8
LC-002-005-----0
  6
Continuous
 62
     3
100
AcDbLine
 10
-69.5
 20
-152.474663
 30
0.0
 11
-72.5
 21
-149.474663
 31
0.0
  0
LINE
  5
1B0
330
81
100
AcDbEntity
  8
LC-002-005-----0
  6
Continuous
 62
     3
100
AcDbLine
 10
-69.5
 20
-156.010197
 30
0.0
 11
-72.5
 21
-153.010197
 31
0.0
  0
LINE
  5
1B1
330
81
100
AcDbEntity
  8
LC-001-002-----0
  6
Continuous
 62
     7
100
AcDbLine
 10
-58.95430099999999
 20
-8.0
 30
0.0
 11
-58.95430099999999
 21
-7.5
 31
0.0
  0
LINE
  5
1B2
330
81
100
AcDbEntity
  8
LC-001-002-----0
  6
Continuous
 62
     7
100
AcDbLine
 10
-37.74109700000003
 20
-8.0
 30
0.0
 11
-58.95430099999999
 21
-8.0
 31
0.0
  0
LINE
  5
1B3
330
81
100
AcDbEntity
  8
LC-001-002-----0
  6
Continuous
 62
     7
100
AcDbLine
 10
73.0
 20
-1.0
 30
0.0
 11
72.0
 21
-1.0
 31
0.0
  0
LINE
  5
1B4
330
81
100
AcDbEntity
  8
LC-001-002-----0
  6
Continuous
 62
     7
100
AcDbLine
 10
74.5
 20
-11.5
 30
0.0
 11
74.5
 21
-2.5
 31
0.0
  0
LINE
  5
1B5
330
81
100
AcDbEntity
  8
LC-001-002-----0
  6
Continuous
 62
     7
100
AcDbLine
 10
75.5
 20
-11.5
 30
0.0
 11
74.5
 21
-11.5
 31
0.0
  0
LINE
  5
1B6
330
81
100
AcDbEntity
  8
LC-001-002-----0
  6
Continuous
 62
     7
100
AcDbLine
 10
68.5
 20
-6.0
 30
0.0
 11
0.0
 21
-6.0
 31
0.0
  0
LINE
  5
1B7
330
81
100
AcDbEntity
  8
LC-001-002-----0
  6
Continuous
 62
     7
100
AcDbLine
 10
69.5
 20
-21.0
 30
0.0
 11
69.5
 21
-2.5
 31
0.0
  0
LINE
  5
1B8
330
81
100
AcDbEntity
  8
LC-001-002-----0
  6
Continuous
 62
     7
100
AcDbLine
 10
70.5
 20
-21.0
 30
0.0
 11
70.5
 21
-2.5
 31
0.0
  0
LINE
  5
1B9
330
81
100
AcDbEntity
  8
LC-001-002-----0
  6
Continuous
 62
     7
100
AcDbLine
 10
70.5
 20
-21.0
 30
0.0
 11
69.5
 21
-21.0
 31
0.0
  0
LINE
  5
1BA
330
81
100
AcDbEntity
  8
LC-001-002-----0
  6
Continuous
 62
     7
100
AcDbLine
 10
69.5
 20
-21.0
 30
0.0
 11
0.0
 21
-21.0
 31
0.0
  0
LINE
  5
1BB
330
81
100
AcDbEntity
  8
LC-001-002-----0
  6
Continuous
 62
     7
100
AcDbLine
 10
37.74109800000002
 20
-7.5
 30
0.0
 11
37.74109800000002
 21
-8.0
 31
0.0
  0
LINE
  5
1BC
330
81
100
AcDbEntity
  8
LC-001-002-----0
  6
Continuous
 62
     7
100
AcDbLine
 10
-73.0
 20
0.0
 30
0.0
 11
-72.0
 21
0.0
 31
0.0
  0
LINE
  5
1BD
330
81
100
AcDbEntity
  8
LC-001-002-----0
  6
Continuous
 62
     7
100
AcDbLine
 10
58.95430099999999
 20
-8.0
 30
0.0
 11
58.95430099999999
 21
-7.5
 31
0.0
  0
LINE
  5
1BE
330
81
100
AcDbEntity
  8
LC-001-002-----0
  6
Continuous
 62
     7
100
AcDbLine
 10
37.74109800000002
 20
-8.0
 30
0.0
 11
58.95430099999999
 21
-8.0
 31
0.0
  0
LINE
  5
1BF
330
81
100
AcDbEntity
  8
LC-001-002-----0
  6
Continuous
 62
     7
100
AcDbLine
 10
73.0
 20
0.0
 30
0.0
 11
72.0
 21
0.0
 31
0.0
  0
LINE
  5
1C0
330
81
100
AcDbEntity
  8
LC-001-002-----0
  6
Continuous
 62
     7
100
AcDbLine
 10
70.5
 20
-21.0
 30
0.0
 11
70.5
 21
-2.5
 31
0.0
  0
LINE
  5
1C1
330
81
100
AcDbEntity
  8
LC-001-002-----0
  6
Continuous
 62
     7
100
AcDbLine
 10
70.5
 20
-21.0
 30
0.0
 11
69.5
 21
-21.0
 31
0.0
  0
LINE
  5
1C2
330
81
100
AcDbEntity
  8
LC-001-002-----0
  6
Continuous
 62
     7
100
AcDbLine
 10
0.0
 20
-21.0
 30
0.0
 11
69.5
 21
-21.0
 31
0.0
  0
LINE
  5
1C3
330
81
100
AcDbEntity
  8
LC-001-002-----0
  6
Continuous
 62
     7
100
AcDbLine
 10
-70.5
 20
-21.0
 30
0.0
 11
-70.5
 21
-2.5
 31
0.0
  0
LINE
  5
1C4
330
81
100
AcDbEntity
  8
LC-001-002-----0
  6
Continuous
 62
     7
100
AcDbLine
 10
-70.5
 20
-21.0
 30
0.0
 11
-69.5
 21
-21.0
 31
0.0
  0
LINE
  5
1C5
330
81
100
AcDbEntity
  8
LC-001-002-----0
  6
Continuous
 62
     7
100
AcDbLine
 10
0.0
 20
-21.0
 30
0.0
 11
-69.5
 21
-21.0
 31
0.0
  0
LINE
  5
1C6
330
81
100
AcDbEntity
  8
LC-002-005-----0
  6
Continuous
 62
     3
100
AcDbLine
 10
-69.5
 20
-159.545731
 30
0.0
 11
-72.5
 21
-156.545731
 31
0.0
  0
LINE
  5
1C7
330
81
100
AcDbEntity
  8
LC-002-005-----0
  6
Continuous
 62
     3
100
AcDbLine
 10
-69.5
 20
-163.081264
 30
0.0
 11
-72.5
 21
-160.081264
 31
0.0
  0
LINE
  5
1C8
330
81
100
AcDbEntity
  8
LC-002-005-----0
  6
Continuous
 62
     3
100
AcDbLine
 10
-69.5
 20
-166.616798
 30
0.0
 11
-72.5
 21
-163.616798
 31
0.0
  0
LINE
  5
1C9
330
81
100
AcDbEntity
  8
LC-002-005-----0
  6
Continuous
 62
     3
100
AcDbLine
 10
-69.5
 20
-170.152332
 30
0.0
 11
-72.5
 21
-167.152332
 31
0.0
  0
LINE
  5
1CA
330
81
100
AcDbEntity
  8
LC-002-005-----0
  6
Continuous
 62
     3
100
AcDbLine
 10
-69.5
 20
-173.687866
 30
0.0
 11
-72.5
 21
-170.687866
 31
0.0
  0
LINE
  5
1CB
330
81
100
AcDbEntity
  8
LC-002-005-----0
  6
Continuous
 62
     3
100
AcDbLine
 10
-69.5
 20
-177.2234
 30
0.0
 11
-72.5
 21
-174.2234
 31
0.0
  0
LINE
  5
1CC
330
81
100
AcDbEntity
  8
LC-002-005-----0
  6
Continuous
 62
     3
100
AcDbLine
 10
-69.5
 20
-180.758934
 30
0.0
 11
-72.5
 21
-177.758934
 31
0.0
  0
LINE
  5
1CD
330
81
100
AcDbEntity
  8
LC-002-005-----0
  6
Continuous
 62
     3
100
AcDbLine
 10
-69.5
 20
-184.294468
 30
0.0
 11
-72.5
 21
-181.294468
 31
0.0
  0
LINE
  5
1CE
330
81
100
AcDbEntity
  8
LC-002-005-----0
  6
Continuous
 62
     3
100
AcDbLine
 10
-69.5
 20
-187.830002
 30
0.0
 11
-72.5
 21
-184.830002
 31
0.0
  0
LINE
  5
1CF
330
81
100
AcDbEntity
  8
LC-002-005-----0
  6
Continuous
 62
     3
100
AcDbLine
 10
-69.5
 20
-191.365536
 30
0.0
 11
-72.5
 21
-188.365536
 31
0.0
  0
LINE
  5
1D0
330
81
100
AcDbEntity
  8
LC-002-005-----0
  6
Continuous
 62
     3
100
AcDbLine
 10
-69.50000000000001
 20
-196.90107
 30
0.0
 11
-72.5
 21
-193.90107
 31
0.0
  0
LINE
  5
1D1
330
81
100
AcDbEntity
  8
LC-002-005-----0
  6
Continuous
 62
     3
100
AcDbLine
 10
-69.5
 20
-200.436604
 30
0.0
 11
-72.5
 21
-197.436604
 31
0.0
  0
LINE
  5
1D2
330
81
100
AcDbEntity
  8
LC-002-005-----0
  6
Continuous
 62
     3
100
AcDbLine
 10
-69.5
 20
-203.972137
 30
0.0
 11
-71.59513500000003
 21
-201.877003
 31
0.0
  0
ARC
  5
1D3
330
81
100
AcDbEntity
  8
LC-003-002-RND-0
  6
Continuous
 62
     7
100
AcDbCircle
 10
-36.24109700000003
 20
-7.5
 30
0.0
 40
1.5
100
AcDbArc
 50
90.0
 51
180.0
  0
ARC
  5
1D4
330
81
100
AcDbEntity
  8
LC-003-002-RND-0
  6
Continuous
 62
     7
100
AcDbCircle
 10
36.24109800000002
 20
-7.5
 30
0.0
 40
1.5
100
AcDbArc
 50
0.0
 51
90.0
  0
ARC
  5
1D5
330
81
100
AcDbEntity
  8
LC-003-002-RND-0
  6
Continuous
 62
     7
100
AcDbCircle
 10
-72.0
 20
-2.5
 30
0.0
 40
1.5
100
AcDbArc
 50
0.0
 51
90.0
  0
ARC
  5
1D6
330
81
100
AcDbEntity
  8
LC-003-002-RND-0
  6
Continuous
 62
     7
100
AcDbCircle
 10
-73.0
 20
-2.5
 30
0.0
 40
1.5
100
AcDbArc
 50
90.0
 51
180.0
  0
ARC
  5
1D7
330
81
100
AcDbEntity
  8
LC-003-002-RND-0
  6
Continuous
 62
     7
100
AcDbCircle
 10
72.0
 20
-2.5
 30
0.0
 40
1.5
100
AcDbArc
 50
90.0
 51
180.0
  0
ARC
  5
1D8
330
81
100
AcDbEntity
  8
LC-003-002-RND-0
  6
Continuous
 62
     7
100
AcDbCircle
 10
73.0
 20
-2.5
 30
0.0
 40
1.5
100
AcDbArc
 50
0.0
 51
90.0
  0
ARC
  5
1D9
330
81
100
AcDbEntity
  8
LC-003-002-RND-0
  6
Continuous
 62
     7
100
AcDbCircle
 10
-73.0
 20
-2.5
 30
0.0
 40
1.5
100
AcDbArc
 50
90.0
 51
180.0
  0
ARC
  5
1DA
330
81
100
AcDbEntity
  8
LC-003-002-RND-0
  6
Continuous
 62
     7
100
AcDbCircle
 10
-72.0
 20
-2.5
 30
0.0
 40
1.5
100
AcDbArc
 50
0.0
 51
90.0
  0
ARC
  5
1DB
330
81
100
AcDbEntity
  8
LC-003-002-RND-0
  6
Continuous
 62
     7
100
AcDbCircle
 10
-73.0
 20
-2.5
 30
0.0
 40
2.5
100
AcDbArc
 50
90.0
 51
180.0
  0
ARC
  5
1DC
330
81
100
AcDbEntity
  8
LC-003-002-RND-0
  6
Continuous
 62
     7
100
AcDbCircle
 10
-72.0
 20
-2.5
 30
0.0
 40
2.5
100
AcDbArc
 50
0.0
 51
90.0
  0
ARC
  5
1DD
330
81
100
AcDbEntity
  8
LC-003-002-RND-0
  6
Continuous
 62
     7
100
AcDbCircle
 10
73.0
 20
-2.5
 30
0.0
 40
1.5
100
AcDbArc
 50
0.0
 51
90.0
  0
ARC
  5
1DE
330
81
100
AcDbEntity
  8
LC-003-002-RND-0
  6
Continuous
 62
     7
100
AcDbCircle
 10
72.0
 20
-2.5
 30
0.0
 40
1.5
100
AcDbArc
 50
90.0
 51
180.0
  0
ARC
  5
1DF
330
81
100
AcDbEntity
  8
LC-003-002-RND-0
  6
Continuous
 62
     7
100
AcDbCircle
 10
-68.5
 20
-5.0
 30
0.0
 40
1.0
100
AcDbArc
 50
180.0
 51
270.0
  0
ARC
  5
1E0
330
81
100
AcDbEntity
  8
LC-003-002-RND-0
  6
Continuous
 62
     7
100
AcDbCircle
 10
73.0
 20
-2.5
 30
0.0
 40
2.5
100
AcDbArc
 50
0.0
 51
90.0
  0
ARC
  5
1E1
330
81
100
AcDbEntity
  8
LC-003-002-RND-0
  6
Continuous
 62
     7
100
AcDbCircle
 10
72.0
 20
-2.5
 30
0.0
 40
2.5
100
AcDbArc
 50
90.0
 51
180.0
  0
ARC
  5
1E2
330
81
100
AcDbEntity
  8
LC-003-002-RND-0
  6
Continuous
 62
     7
100
AcDbCircle
 10
-60.45430099999999
 20
-7.5
 30
0.0
 40
1.5
100
AcDbArc
 50
0.0
 51
90.0
  0
ARC
  5
1E3
330
81
100
AcDbEntity
  8
LC-003-002-RND-0
  6
Continuous
 62
     7
100
AcDbCircle
 10
68.5
 20
-5.0
 30
0.0
 40
1.0
100
AcDbArc
 50
270.0
 51
0.0
  0
ARC
  5
1E4
330
81
100
AcDbEntity
  8
LC-003-002-RND-0
  6
Continuous
 62
     7
100
AcDbCircle
 10
60.45430099999999
 20
-7.5
 30
0.0
 40
1.5
100
AcDbArc
 50
90.0
 51
180.0
  0
ENDBLK
  5
83
330
81
100
AcDbEntity
  8
0
100
AcDbBlockEnd
  0
BLOCK
  5
85
330
84
100
AcDbEntity
  8
0
100
AcDbBlockBegin
  2
066_1E_Edelstahlrost_verschraubbar__3
 70
     0
 10
0.0
 20
-2.79740150000001
 30
0.0
  3
066_1E_Edelstahlrost_verschraubbar__3
  1

  0
LINE
  5
1E5
330
84
100
AcDbEntity
  8
LC-001-002-----0
  6
Continuous
 62
     7
100
AcDbLine
 10
21.5
 20
-5.30000000000001
 30
0.0
 11
41.96649500000001
 21
-5.30000000000001
 31
0.0
  0
LINE
  5
1E6
330
84
100
AcDbEntity
  8
LC-001-002-----0
  6
Continuous
 62
     7
100
AcDbLine
 10
41.5
 20
-5.30000000000001
 30
0.0
 11
61.537284
 21
-5.30000000000001
 31
0.0
  0
LINE
  5
1E7
330
84
100
AcDbEntity
  8
LC-002-005-----0
  6
Continuous
 62
     3
100
AcDbLine
 10
63.36803500000002
 20
-5.30000000000001
 30
0.0
 11
68.36803500000002
 21
-0.30000000000001
 31
0.0
  0
LINE
  5
1E8
330
84
100
AcDbEntity
  8
LC-002-005-----0
  6
Continuous
 62
     3
100
AcDbLine
 10
60.53960799999999
 20
-5.30000000000001
 30
0.0
 11
65.53960799999999
 21
-0.30000000000001
 31
0.0
  0
LINE
  5
1E9
330
84
100
AcDbEntity
  8
LC-002-005-----0
  6
Continuous
 62
     3
100
AcDbLine
 10
59.5
 20
-3.51117999999997
 30
0.0
 11
62.71118000000001
 21
-0.30000000000001
 31
0.0
  0
LINE
  5
1EA
330
84
100
AcDbEntity
  8
LC-002-005-----0
  6
Continuous
 62
     3
100
AcDbLine
 10
52.054326
 20
-5.30000000000001
 30
0.0
 11
52.5
 21
-4.85432600000001
 31
0.0
  0
LINE
  5
1EB
330
84
100
AcDbEntity
  8
LC-002-005-----0
  6
Continuous
 62
     3
100
AcDbLine
 10
49.22589899999997
 20
-5.30000000000001
 30
0.0
 11
52.5
 21
-2.02589899999998
 31
0.0
  0
LINE
  5
1EC
330
84
100
AcDbEntity
  8
LC-002-005-----0
  6
Continuous
 62
     3
100
AcDbLine
 10
46.39747199999999
 20
-5.30000000000001
 30
0.0
 11
51.39747199999999
 21
-0.30000000000001
 31
0.0
  0
LINE
  5
1ED
330
84
100
AcDbEntity
  8
LC-002-005-----0
  6
Continuous
 62
     3
100
AcDbLine
 10
43.56904500000002
 20
-5.30000000000001
 30
0.0
 11
48.56904500000002
 21
-0.30000000000001
 31
0.0
  0
LINE
  5
1EE
330
84
100
AcDbEntity
  8
LC-002-005-----0
  6
Continuous
 62
     3
100
AcDbLine
 10
43.5
 20
-2.54061799999999
 30
0.0
 11
45.74061799999998
 21
-0.30000000000001
 31
0.0
  0
LINE
  5
1EF
330
84
100
AcDbEntity
  8
LC-002-005-----0
  6
Continuous
 62
     3
100
AcDbLine
 10
35.08376299999998
 20
-5.30000000000001
 30
0.0
 11
36.5
 21
-3.88376299999999
 31
0.0
  0
LINE
  5
1F0
330
84
100
AcDbEntity
  8
LC-002-005-----0
  6
Continuous
 62
     3
100
AcDbLine
 10
32.255336
 20
-5.30000000000001
 30
0.0
 11
36.5
 21
-1.05533600000001
 31
0.0
  0
LINE
  5
1F1
330
84
100
AcDbEntity
  8
LC-002-005-----0
  6
Continuous
 62
     3
100
AcDbLine
 10
29.42690899999997
 20
-5.30000000000001
 30
0.0
 11
34.42690899999997
 21
-0.30000000000001
 31
0.0
  0
LINE
  5
1F2
330
84
100
AcDbEntity
  8
LC-002-005-----0
  6
Continuous
 62
     3
100
AcDbLine
 10
66.196462
 20
-5.30000000000001
 30
0.0
 11
69.0
 21
-2.49646200000001
 31
0.0
  0
LINE
  5
1F3
330
84
100
AcDbEntity
  8
LC-001-002-----0
  6
Continuous
 62
     7
100
AcDbLine
 10
69.0
 20
-5.30000000000001
 30
0.0
 11
69.0
 21
-0.30000000000001
 31
0.0
  0
LINE
  5
1F4
330
84
100
AcDbEntity
  8
LC-001-002-----0
  6
Continuous
 62
     7
100
AcDbLine
 10
61.5
 20
-5.30000000000001
 30
0.0
 11
69.0
 21
-5.30000000000001
 31
0.0
  0
LINE
  5
1F5
330
84
100
AcDbEntity
  8
LC-001-002-----0
  6
Continuous
 62
     7
100
AcDbLine
 10
69.0
 20
-0.30000000000001
 30
0.0
 11
61.5
 21
-0.30000000000001
 31
0.0
  0
LINE
  5
1F6
330
84
100
AcDbEntity
  8
LC-001-002-----0
  6
Continuous
 62
     7
100
AcDbLine
 10
62.35958599999998
 20
-0.30000000000001
 30
0.0
 11
41.5
 21
-0.30000000000001
 31
0.0
  0
LINE
  5
1F7
330
84
100
AcDbEntity
  8
LC-001-002-----0
  6
Continuous
 62
     7
100
AcDbLine
 10
41.96649500000001
 20
-0.30000000000001
 30
0.0
 11
21.5
 21
-0.30000000000001
 31
0.0
  0
LINE
  5
1F8
330
84
100
AcDbEntity
  8
LC-002-005-----0
  6
Continuous
 62
     3
100
AcDbLine
 10
59.5
 20
-0.68275299999999
 30
0.0
 11
59.88275299999998
 21
-0.30000000000001
 31
0.0
  0
LINE
  5
1F9
330
84
100
AcDbEntity
  8
LC-001-002-----0
  6
Continuous
 62
     7
100
AcDbLine
 10
-38.5
 20
-5.30000000000001
 30
0.0
 11
-18.04806200000002
 21
-5.30000000000001
 31
0.0
  0
LINE
  5
1FA
330
84
100
AcDbEntity
  8
LC-001-002-----0
  6
Continuous
 62
     7
100
AcDbLine
 10
-36.5
 20
-5.30000000000001
 30
0.0
 11
-36.5
 21
-0.30000000000001
 31
0.0
  0
LINE
  5
1FB
330
84
100
AcDbEntity
  8
LC-001-002-----0
  6
Continuous
 62
     7
100
AcDbLine
 10
-52.5
 20
-5.30000000000001
 30
0.0
 11
-52.5
 21
-0.30000000000001
 31
0.0
  0
LINE
  5
1FC
330
84
100
AcDbEntity
  8
LC-001-002-----0
  6
Continuous
 62
     7
100
AcDbLine
 10
-43.5
 20
-5.30000000000001
 30
0.0
 11
-43.5
 21
-0.30000000000001
 31
0.0
  0
LINE
  5
1FD
330
84
100
AcDbEntity
  8
LC-001-002-----0
  6
Continuous
 62
     7
100
AcDbLine
 10
-59.5
 20
-5.30000000000001
 30
0.0
 11
-59.5
 21
-0.30000000000001
 31
0.0
  0
LINE
  5
1FE
330
84
100
AcDbEntity
  8
LC-001-002-----0
  6
Continuous
 62
     7
100
AcDbLine
 10
-69.0
 20
-5.30000000000001
 30
0.0
 11
-58.18692500000003
 21
-5.30000000000001
 31
0.0
  0
LINE
  5
1FF
330
84
100
AcDbEntity
  8
LC-001-002-----0
  6
Continuous
 62
     7
100
AcDbLine
 10
-69.0
 20
-0.30000000000001
 30
0.0
 11
-69.0
 21
-5.30000000000001
 31
0.0
  0
LINE
  5
200
330
84
100
AcDbEntity
  8
LC-001-002-----0
  6
Continuous
 62
     7
100
AcDbLine
 10
-58.5
 20
-0.30000000000001
 30
0.0
 11
-69.0
 21
-0.30000000000001
 31
0.0
  0
LINE
  5
201
330
84
100
AcDbEntity
  8
LC-001-002-----0
  6
Continuous
 62
     7
100
AcDbLine
 10
-61.5
 20
-0.30000000000001
 30
0.0
 11
-61.5
 21
-0.30000000000001
 31
0.0
  0
LINE
  5
202
330
84
100
AcDbEntity
  8
LC-001-002-----0
  6
Continuous
 62
     7
100
AcDbLine
 10
-18.5
 20
-0.30000000000001
 30
0.0
 11
-38.5
 21
-0.30000000000001
 31
0.0
  0
LINE
  5
203
330
84
100
AcDbEntity
  8
LC-001-002-----0
  6
Continuous
 62
     7
100
AcDbLine
 10
-58.5
 20
-5.30000000000001
 30
0.0
 11
-38.15278000000001
 21
-5.30000000000001
 31
0.0
  0
LINE
  5
204
330
84
100
AcDbEntity
  8
LC-001-002-----0
  6
Continuous
 62
     7
100
AcDbLine
 10
-58.5
 20
-0.30000000000001
 30
0.0
 11
-58.5
 21
-0.30000000000001
 31
0.0
  0
LINE
  5
205
330
84
100
AcDbEntity
  8
LC-001-002-----0
  6
Continuous
 62
     7
100
AcDbLine
 10
-38.5
 20
-0.30000000000001
 30
0.0
 11
-58.5
 21
-0.30000000000001
 31
0.0
  0
LINE
  5
206
330
84
100
AcDbEntity
  8
LC-001-002-----0
  6
Continuous
 62
     7
100
AcDbLine
 10
-38.5
 20
-0.30000000000001
 30
0.0
 11
-38.5
 21
-0.30000000000001
 31
0.0
  0
LINE
  5
207
330
84
100
AcDbEntity
  8
LC-002-005-----0
  6
Continuous
 62
     3
100
AcDbLine
 10
-61.08275900000001
 20
-5.30000000000001
 30
0.0
 11
-59.5
 21
-3.717241
 31
0.0
  0
LINE
  5
208
330
84
100
AcDbEntity
  8
LC-002-005-----0
  6
Continuous
 62
     3
100
AcDbLine
 10
-63.91118599999999
 20
-5.30000000000001
 30
0.0
 11
-59.5
 21
-0.88881400000002
 31
0.0
  0
LINE
  5
209
330
84
100
AcDbEntity
  8
LC-002-005-----0
  6
Continuous
 62
     3
100
AcDbLine
 10
-66.73961300000002
 20
-5.30000000000001
 30
0.0
 11
-61.73961300000002
 21
-0.30000000000001
 31
0.0
  0
LINE
  5
20A
330
84
100
AcDbEntity
  8
LC-002-005-----0
  6
Continuous
 62
     3
100
AcDbLine
 10
-69.0
 20
-4.73195999999996
 30
0.0
 11
-64.56804
 21
-0.30000000000001
 31
0.0
  0
LINE
  5
20B
330
84
100
AcDbEntity
  8
LC-002-005-----0
  6
Continuous
 62
     3
100
AcDbLine
 10
-69.0
 20
-1.90353300000004
 30
0.0
 11
-67.39646700000003
 21
-0.30000000000001
 31
0.0
  0
LINE
  5
20C
330
84
100
AcDbEntity
  8
LC-002-005-----0
  6
Continuous
 62
     3
100
AcDbLine
 10
-44.11219599999998
 20
-5.30000000000001
 30
0.0
 11
-43.5
 21
-4.68780400000003
 31
0.0
  0
LINE
  5
20D
330
84
100
AcDbEntity
  8
LC-002-005-----0
  6
Continuous
 62
     3
100
AcDbLine
 10
-46.94062300000002
 20
-5.30000000000001
 30
0.0
 11
-43.5
 21
-1.85937699999999
 31
0.0
  0
LINE
  5
20E
330
84
100
AcDbEntity
  8
LC-002-005-----0
  6
Continuous
 62
     3
100
AcDbLine
 10
-49.76904999999999
 20
-5.30000000000001
 30
0.0
 11
-44.76904999999999
 21
-0.30000000000001
 31
0.0
  0
LINE
  5
20F
330
84
100
AcDbEntity
  8
LC-002-005-----0
  6
Continuous
 62
     3
100
AcDbLine
 10
-52.5
 20
-5.20252199999999
 30
0.0
 11
-47.59747700000003
 21
-0.30000000000001
 31
0.0
  0
LINE
  5
210
330
84
100
AcDbEntity
  8
LC-002-005-----0
  6
Continuous
 62
     3
100
AcDbLine
 10
-52.5
 20
-2.37409500000001
 30
0.0
 11
-50.425905
 21
-0.30000000000001
 31
0.0
  0
LINE
  5
211
330
84
100
AcDbEntity
  8
LC-002-005-----0
  6
Continuous
 62
     3
100
AcDbLine
 10
-35.626915
 20
-5.30000000000001
 30
0.0
 11
-30.626915
 21
-0.30000000000001
 31
0.0
  0
LINE
  5
212
330
84
100
AcDbEntity
  8
LC-002-005-----0
  6
Continuous
 62
     3
100
AcDbLine
 10
-36.5
 20
-3.34465799999998
 30
0.0
 11
-33.45534200000003
 21
-0.30000000000001
 31
0.0
  0
LINE
  5
213
330
84
100
AcDbEntity
  8
LC-002-005-----0
  6
Continuous
 62
     3
100
AcDbLine
 10
-36.5
 20
-0.516231
 30
0.0
 11
-36.28376900000001
 21
-0.30000000000001
 31
0.0
  0
LINE
  5
214
330
84
100
AcDbEntity
  8
LC-001-002-----0
  6
Continuous
 62
     7
100
AcDbLine
 10
-27.5
 20
-5.30000000000001
 30
0.0
 11
-27.5
 21
-0.30000000000001
 31
0.0
  0
LINE
  5
215
330
84
100
AcDbEntity
  8
LC-002-005-----0
  6
Continuous
 62
     3
100
AcDbLine
 10
-29.97005999999999
 20
-5.30000000000001
 30
0.0
 11
-27.5
 21
-2.82993899999997
 31
0.0
  0
LINE
  5
216
330
84
100
AcDbEntity
  8
LC-002-005-----0
  6
Continuous
 62
     3
100
AcDbLine
 10
-32.79848800000002
 20
-5.30000000000001
 30
0.0
 11
-27.79848800000002
 21
-0.30000000000001
 31
0.0
  0
LINE
  5
217
330
84
100
AcDbEntity
  8
LC-001-002-----0
  6
Continuous
 62
     7
100
AcDbLine
 10
27.5
 20
-5.30000000000001
 30
0.0
 11
27.5
 21
-0.30000000000001
 31
0.0
  0
LINE
  5
218
330
84
100
AcDbEntity
  8
LC-001-002-----0
  6
Continuous
 62
     7
100
AcDbLine
 10
-18.5
 20
-5.30000000000001
 30
0.0
 11
1.64080100000001
 21
-5.30000000000001
 31
0.0
  0
LINE
  5
219
330
84
100
AcDbEntity
  8
LC-001-002-----0
  6
Continuous
 62
     7
100
AcDbLine
 10
22.39570500000002
 20
-0.30000000000001
 30
0.0
 11
-18.5
 21
-0.30000000000001
 31
0.0
  0
LINE
  5
21A
330
84
100
AcDbEntity
  8
LC-001-002-----0
  6
Continuous
 62
     7
100
AcDbLine
 10
1.5
 20
-5.30000000000001
 30
0.0
 11
21.737864
 21
-5.30000000000001
 31
0.0
  0
LINE
  5
21B
330
84
100
AcDbEntity
  8
LC-002-005-----0
  6
Continuous
 62
     4
100
AcDbLine
 10
34.0
 20
-0.37795299999999
 30
0.0
 11
34.08314999999999
 21
-0.294803
 31
0.0
  0
LINE
  5
21C
330
84
100
AcDbEntity
  8
LC-002-005-----0
  6
Continuous
 62
     3
100
AcDbLine
 10
27.5
 20
-1.57005500000003
 30
0.0
 11
28.77005500000001
 21
-0.30000000000001
 31
0.0
  0
LINE
  5
21D
330
84
100
AcDbEntity
  8
LC-002-005-----0
  6
Continuous
 62
     3
100
AcDbLine
 10
15.28477399999997
 20
-5.30000000000001
 30
0.0
 11
20.28477399999997
 21
-0.30000000000001
 31
0.0
  0
LINE
  5
21E
330
84
100
AcDbEntity
  8
LC-002-005-----0
  6
Continuous
 62
     3
100
AcDbLine
 10
12.456346
 20
-5.30000000000001
 30
0.0
 11
17.456346
 21
-0.30000000000001
 31
0.0
  0
LINE
  5
21F
330
84
100
AcDbEntity
  8
LC-002-005-----0
  6
Continuous
 62
     3
100
AcDbLine
 10
9.62791900000002
 20
-5.30000000000001
 30
0.0
 11
14.62791900000002
 21
-0.30000000000001
 31
0.0
  0
LINE
  5
220
330
84
100
AcDbEntity
  8
LC-002-005-----0
  6
Continuous
 62
     3
100
AcDbLine
 10
6.79949199999999
 20
-5.30000000000001
 30
0.0
 11
11.79949199999999
 21
-0.30000000000001
 31
0.0
  0
LINE
  5
221
330
84
100
AcDbEntity
  8
LC-002-005-----0
  6
Continuous
 62
     3
100
AcDbLine
 10
3.97106500000001
 20
-5.30000000000001
 30
0.0
 11
8.97106500000001
 21
-0.30000000000001
 31
0.0
  0
LINE
  5
222
330
84
100
AcDbEntity
  8
LC-002-005-----0
  6
Continuous
 62
     3
100
AcDbLine
 10
1.14263799999998
 20
-5.30000000000001
 30
0.0
 11
6.14263799999998
 21
-0.30000000000001
 31
0.0
  0
LINE
  5
223
330
84
100
AcDbEntity
  8
LC-002-005-----0
  6
Continuous
 62
     3
100
AcDbLine
 10
0.0
 20
-3.61421100000001
 30
0.0
 11
3.314211
 21
-0.30000000000001
 31
0.0
  0
LINE
  5
224
330
84
100
AcDbEntity
  8
LC-002-005-----0
  6
Continuous
 62
     3
100
AcDbLine
 10
0.0
 20
-0.78578400000004
 30
0.0
 11
0.48578399999997
 21
-0.30000000000001
 31
0.0
  0
LINE
  5
225
330
84
100
AcDbEntity
  8
LC-002-005-----0
  6
Continuous
 62
     3
100
AcDbLine
 10
-1.685789
 20
-5.30000000000001
 30
0.0
 11
0.0
 21
-3.61421100000001
 31
0.0
  0
LINE
  5
226
330
84
100
AcDbEntity
  8
LC-002-005-----0
  6
Continuous
 62
     3
100
AcDbLine
 10
-4.51421600000003
 20
-5.30000000000001
 30
0.0
 11
0.0
 21
-0.78578400000004
 31
0.0
  0
LINE
  5
227
330
84
100
AcDbEntity
  8
LC-002-005-----0
  6
Continuous
 62
     3
100
AcDbLine
 10
-7.34264300000001
 20
-5.30000000000001
 30
0.0
 11
-2.34264300000001
 21
-0.30000000000001
 31
0.0
  0
LINE
  5
228
330
84
100
AcDbEntity
  8
LC-002-005-----0
  6
Continuous
 62
     3
100
AcDbLine
 10
-10.17107099999998
 20
-5.30000000000001
 30
0.0
 11
-5.17107099999998
 21
-0.30000000000001
 31
0.0
  0
LINE
  5
229
330
84
100
AcDbEntity
  8
LC-002-005-----0
  6
Continuous
 62
     3
100
AcDbLine
 10
-12.99949800000002
 20
-5.30000000000001
 30
0.0
 11
-7.99949800000002
 21
-0.30000000000001
 31
0.0
  0
LINE
  5
22A
330
84
100
AcDbEntity
  8
LC-002-005-----0
  6
Continuous
 62
     3
100
AcDbLine
 10
-15.82792499999999
 20
-5.30000000000001
 30
0.0
 11
-10.82792499999999
 21
-0.30000000000001
 31
0.0
  0
LINE
  5
22B
330
84
100
AcDbEntity
  8
LC-002-005-----0
  6
Continuous
 62
     3
100
AcDbLine
 10
-18.65635200000003
 20
-5.30000000000001
 30
0.0
 11
-13.65635200000003
 21
-0.30000000000001
 31
0.0
  0
LINE
  5
22C
330
84
100
AcDbEntity
  8
LC-002-005-----0
  6
Continuous
 62
     3
100
AcDbLine
 10
-20.5
 20
-4.31522100000001
 30
0.0
 11
-16.484779
 21
-0.30000000000001
 31
0.0
  0
LINE
  5
22D
330
84
100
AcDbEntity
  8
LC-002-005-----0
  6
Continuous
 62
     3
100
AcDbLine
 10
-20.5
 20
-1.48679400000003
 30
0.0
 11
-19.31320599999998
 21
-0.30000000000001
 31
0.0
  0
LINE
  5
22E
330
84
100
AcDbEntity
  8
LC-001-002-----0
  6
Continuous
 62
     7
100
AcDbLine
 10
-20.5
 20
-5.30000000000001
 30
0.0
 11
-20.5
 21
-0.30000000000001
 31
0.0
  0
LINE
  5
22F
330
84
100
AcDbEntity
  8
LC-001-002-----0
  6
Continuous
 62
     7
100
AcDbLine
 10
20.5
 20
-5.30000000000001
 30
0.0
 11
20.5
 21
-0.30000000000001
 31
0.0
  0
LINE
  5
230
330
84
100
AcDbEntity
  8
LC-002-005-----0
  6
Continuous
 62
     3
100
AcDbLine
 10
18.113201
 20
-5.30000000000001
 30
0.0
 11
20.5
 21
-2.91320099999996
 31
0.0
  0
LINE
  5
231
330
84
100
AcDbEntity
  8
LC-002-005-----0
  6
Continuous
 62
     3
100
AcDbLine
 10
27.5
 20
-4.398482
 30
0.0
 11
31.59848199999999
 21
-0.30000000000001
 31
0.0
  0
LINE
  5
232
330
84
100
AcDbEntity
  8
LC-001-002-----0
  6
Continuous
 62
     7
100
AcDbLine
 10
36.5
 20
-5.30000000000001
 30
0.0
 11
36.5
 21
-0.30000000000001
 31
0.0
  0
LINE
  5
233
330
84
100
AcDbEntity
  8
LC-001-002-----0
  6
Continuous
 62
     7
100
AcDbLine
 10
43.5
 20
-5.30000000000001
 30
0.0
 11
43.5
 21
-0.30000000000001
 31
0.0
  0
LINE
  5
234
330
84
100
AcDbEntity
  8
LC-001-002-----0
  6
Continuous
 62
     7
100
AcDbLine
 10
59.5
 20
-5.30000000000001
 30
0.0
 11
59.5
 21
-0.30000000000001
 31
0.0
  0
LINE
  5
235
330
84
100
AcDbEntity
  8
LC-001-002-----0
  6
Continuous
 62
     7
100
AcDbLine
 10
52.5
 20
-5.30000000000001
 30
0.0
 11
52.5
 21
-0.30000000000001
 31
0.0
  0
ENDBLK
  5
86
330
84
100
AcDbEntity
  8
0
100
AcDbBlockEnd
  0
BLOCK
  5
88
330
87
100
AcDbEntity
  8
0
100
AcDbBlockBegin
  2
066_1E_Edelstahlrost_verschraubbar__4
 70
     0
 10
-0.00000000000003
 20
-312.484455885698
 30
0.0
  3
066_1E_Edelstahlrost_verschraubbar__4
  1

  0
LINE
  5
236
330
87
100
AcDbEntity
  8
LC-001-002-----0
  6
Continuous
 62
     7
100
AcDbLine
 10
68.97799999999995
 20
-247.296455885698
 30
0.0
 11
68.97799999999995
 21
-377.672455885698
 31
0.0
  0
LINE
  5
237
330
87
100
AcDbEntity
  8
LC-001-002-----0
  6
Continuous
 62
     7
100
AcDbLine
 10
-65.18799999999999
 20
-243.506455885698
 30
0.0
 11
65.18799999999999
 21
-243.506455885698
 31
0.0
  0
LINE
  5
238
330
87
100
AcDbEntity
  8
LC-001-002-----0
  6
Continuous
 62
     7
100
AcDbLine
 10
-68.97800000000001
 20
-377.672455885698
 30
0.0
 11
-68.97800000000001
 21
-247.296455885698
 31
0.0
  0
LINE
  5
239
330
87
100
AcDbEntity
  8
LC-001-002-----0
  6
Continuous
 62
     7
100
AcDbLine
 10
65.18799999999999
 20
-381.462455885698
 30
0.0
 11
-65.18799999999999
 21
-381.462455885698
 31
0.0
  0
LINE
  5
23A
330
87
100
AcDbEntity
  8
1
  6
PHANTOM
 62
     2
100
AcDbLine
 10
59.0
 20
-248.534455885698
 30
0.0
 11
59.0
 21
-258.434455885698
 31
0.0
  0
LINE
  5
23B
330
87
100
AcDbEntity
  8
1
  6
PHANTOM
 62
     2
100
AcDbLine
 10
63.95000000000005
 20
-253.484455885698
 30
0.0
 11
54.04999999999996
 21
-253.484455885698
 31
0.0
  0
LINE
  5
23C
330
87
100
AcDbEntity
  8
1
  6
PHANTOM
 62
     2
100
AcDbLine
 10
-59.0
 20
-366.534455885698
 30
0.0
 11
-59.0
 21
-376.434455885698
 31
0.0
  0
LINE
  5
23D
330
87
100
AcDbEntity
  8
1
  6
PHANTOM
 62
     2
100
AcDbLine
 10
-54.05000000000001
 20
-371.484455885698
 30
0.0
 11
-63.94999999999999
 21
-371.484455885698
 31
0.0
  0
LINE
  5
23E
330
87
100
AcDbEntity
  8
LC-001-002-----0
  6
Continuous
 62
     7
100
AcDbLine
 10
-8.5
 20
-285.006455885698
 30
0.0
 11
8.5
 21
-285.006455885698
 31
0.0
  0
LINE
  5
23F
330
87
100
AcDbEntity
  8
LC-001-002-----0
  6
Continuous
 62
     7
100
AcDbLine
 10
-24.5
 20
-276.006455885698
 30
0.0
 11
24.5
 21
-276.006455885698
 31
0.0
  0
LINE
  5
240
330
87
100
AcDbEntity
  8
LC-001-002-----0
  6
Continuous
 62
     7
100
AcDbLine
 10
-24.5
 20
-269.006455885698
 30
0.0
 11
24.5
 21
-269.006455885698
 31
0.0
  0
LINE
  5
241
330
87
100
AcDbEntity
  8
LC-001-002-----0
  6
Continuous
 62
     7
100
AcDbLine
 10
-40.5
 20
-260.006455885698
 30
0.0
 11
40.5
 21
-260.006455885698
 31
0.0
  0
LINE
  5
242
330
87
100
AcDbEntity
  8
LC-001-002-----0
  6
Continuous
 62
     7
100
AcDbLine
 10
-40.5
 20
-253.006455885698
 30
0.0
 11
40.5
 21
-253.006455885698
 31
0.0
  0
LINE
  5
243
330
87
100
AcDbEntity
  8
LC-001-002-----0
  6
Continuous
 62
     7
100
AcDbLine
 10
20.47799999999995
 20
-303.984455885698
 30
0.0
 11
20.47799999999995
 21
-320.984455885698
 31
0.0
  0
LINE
  5
244
330
87
100
AcDbEntity
  8
LC-001-002-----0
  6
Continuous
 62
     7
100
AcDbLine
 10
27.47799999999995
 20
-303.984455885698
 30
0.0
 11
27.47799999999995
 21
-320.984455885698
 31
0.0
  0
LINE
  5
245
330
87
100
AcDbEntity
  8
LC-001-002-----0
  6
Continuous
 62
     7
100
AcDbLine
 10
-20.47799999999995
 20
-320.984455885698
 30
0.0
 11
-20.47799999999995
 21
-303.984455885698
 31
0.0
  0
LINE
  5
246
330
87
100
AcDbEntity
  8
LC-001-002-----0
  6
Continuous
 62
     7
100
AcDbLine
 10
-27.47799999999995
 20
-320.984455885698
 30
0.0
 11
-27.47799999999995
 21
-303.984455885698
 31
0.0
  0
LINE
  5
247
330
87
100
AcDbEntity
  8
LC-001-002-----0
  6
Continuous
 62
     7
100
AcDbLine
 10
36.47799999999995
 20
-287.984455885698
 30
0.0
 11
36.47799999999995
 21
-336.984455885698
 31
0.0
  0
LINE
  5
248
330
87
100
AcDbEntity
  8
LC-001-002-----0
  6
Continuous
 62
     7
100
AcDbLine
 10
43.47799999999995
 20
-287.984455885698
 30
0.0
 11
43.47799999999995
 21
-336.984455885698
 31
0.0
  0
LINE
  5
249
330
87
100
AcDbEntity
  8
LC-001-002-----0
  6
Continuous
 62
     7
100
AcDbLine
 10
-36.47799999999995
 20
-336.984455885698
 30
0.0
 11
-36.47799999999995
 21
-287.984455885698
 31
0.0
  0
LINE
  5
24A
330
87
100
AcDbEntity
  8
LC-001-002-----0
  6
Continuous
 62
     7
100
AcDbLine
 10
-43.47799999999995
 20
-336.984455885698
 30
0.0
 11
-43.47799999999995
 21
-287.984455885698
 31
0.0
  0
LINE
  5
24B
330
87
100
AcDbEntity
  8
LC-001-002-----0
  6
Continuous
 62
     7
100
AcDbLine
 10
52.47799999999995
 20
-271.984455885698
 30
0.0
 11
52.47799999999995
 21
-352.984455885698
 31
0.0
  0
LINE
  5
24C
330
87
100
AcDbEntity
  8
LC-001-002-----0
  6
Continuous
 62
     7
100
AcDbLine
 10
59.47799999999995
 20
-271.984455885698
 30
0.0
 11
59.47799999999995
 21
-352.984455885698
 31
0.0
  0
LINE
  5
24D
330
87
100
AcDbEntity
  8
LC-001-002-----0
  6
Continuous
 62
     7
100
AcDbLine
 10
-52.47799999999995
 20
-352.984455885698
 30
0.0
 11
-52.47799999999995
 21
-271.984455885698
 31
0.0
  0
LINE
  5
24E
330
87
100
AcDbEntity
  8
LC-001-002-----0
  6
Continuous
 62
     7
100
AcDbLine
 10
-59.47800000000001
 20
-352.984455885698
 30
0.0
 11
-59.47800000000001
 21
-271.984455885698
 31
0.0
  0
LINE
  5
24F
330
87
100
AcDbEntity
  8
LC-001-002-----0
  6
Continuous
 62
     7
100
AcDbLine
 10
8.5
 20
-332.962455885698
 30
0.0
 11
-8.5
 21
-332.962455885698
 31
0.0
  0
LINE
  5
250
330
87
100
AcDbEntity
  8
LC-001-002-----0
  6
Continuous
 62
     7
100
AcDbLine
 10
8.5
 20
-339.962455885698
 30
0.0
 11
-8.5
 21
-339.962455885698
 31
0.0
  0
LINE
  5
251
330
87
100
AcDbEntity
  8
LC-001-002-----0
  6
Continuous
 62
     7
100
AcDbLine
 10
24.5
 20
-348.962455885698
 30
0.0
 11
-24.5
 21
-348.962455885698
 31
0.0
  0
LINE
  5
252
330
87
100
AcDbEntity
  8
LC-001-002-----0
  6
Continuous
 62
     7
100
AcDbLine
 10
24.5
 20
-355.962455885698
 30
0.0
 11
-24.5
 21
-355.962455885698
 31
0.0
  0
LINE
  5
253
330
87
100
AcDbEntity
  8
LC-001-002-----0
  6
Continuous
 62
     7
100
AcDbLine
 10
40.5
 20
-364.962455885698
 30
0.0
 11
-40.5
 21
-364.962455885698
 31
0.0
  0
LINE
  5
254
330
87
100
AcDbEntity
  8
LC-001-002-----0
  6
Continuous
 62
     7
100
AcDbLine
 10
40.5
 20
-371.962455885698
 30
0.0
 11
-40.5
 21
-371.962455885698
 31
0.0
  0
LINE
  5
255
330
87
100
AcDbEntity
  8
LC-001-002-----0
  6
Continuous
 62
     7
100
AcDbLine
 10
-8.5
 20
-292.006455885698
 30
0.0
 11
8.5
 21
-292.006455885698
 31
0.0
  0
LINE
  5
256
330
87
100
AcDbEntity
  8
LC-001-002-----0
  6
Continuous
 62
     7
100
AcDbLine
 10
58.5
 20
-253.984455885698
 30
0.0
 11
56.5
 21
-253.984457885698
 31
0.0
  0
LINE
  5
257
330
87
100
AcDbEntity
  8
LC-001-002-----0
  6
Continuous
 62
     7
100
AcDbLine
 10
58.5
 20
-253.984455885698
 30
0.0
 11
58.500001
 21
-255.984455885698
 31
0.0
  0
LINE
  5
258
330
87
100
AcDbEntity
  8
LC-001-002-----0
  6
Continuous
 62
     7
100
AcDbLine
 10
59.499999
 20
-252.984455885698
 30
0.0
 11
59.49999800000001
 21
-250.984455885698
 31
0.0
  0
LINE
  5
259
330
87
100
AcDbEntity
  8
LC-001-002-----0
  6
Continuous
 62
     7
100
AcDbLine
 10
59.499999
 20
-252.984455885698
 30
0.0
 11
61.499999
 21
-252.984453885698
 31
0.0
  0
LINE
  5
25A
330
87
100
AcDbEntity
  8
LC-001-002-----0
  6
Continuous
 62
     7
100
AcDbLine
 10
56.499999
 20
-252.984457885698
 30
0.0
 11
58.499999
 21
-252.984455885698
 31
0.0
  0
LINE
  5
25B
330
87
100
AcDbEntity
  8
LC-001-002-----0
  6
Continuous
 62
     7
100
AcDbLine
 10
56.5
 20
-253.984457885698
 30
0.0
 11
56.499999
 21
-252.984457885698
 31
0.0
  0
LINE
  5
25C
330
87
100
AcDbEntity
  8
LC-001-002-----0
  6
Continuous
 62
     7
100
AcDbLine
 10
61.5
 20
-253.984453885698
 30
0.0
 11
59.5
 21
-253.984455885698
 31
0.0
  0
LINE
  5
25D
330
87
100
AcDbEntity
  8
LC-001-002-----0
  6
Continuous
 62
     7
100
AcDbLine
 10
61.499999
 20
-252.984453885698
 30
0.0
 11
61.5
 21
-253.984453885698
 31
0.0
  0
LINE
  5
25E
330
87
100
AcDbEntity
  8
LC-001-002-----0
  6
Continuous
 62
     7
100
AcDbLine
 10
59.500001
 20
-255.984455885698
 30
0.0
 11
59.5
 21
-253.984455885698
 31
0.0
  0
LINE
  5
25F
330
87
100
AcDbEntity
  8
LC-001-002-----0
  6
Continuous
 62
     7
100
AcDbLine
 10
58.500001
 20
-255.984455885698
 30
0.0
 11
59.500001
 21
-255.984455885698
 31
0.0
  0
LINE
  5
260
330
87
100
AcDbEntity
  8
LC-001-002-----0
  6
Continuous
 62
     7
100
AcDbLine
 10
58.49999800000001
 20
-250.984455885698
 30
0.0
 11
58.499999
 21
-252.984455885698
 31
0.0
  0
LINE
  5
261
330
87
100
AcDbEntity
  8
LC-001-002-----0
  6
Continuous
 62
     7
100
AcDbLine
 10
59.49999800000001
 20
-250.984455885698
 30
0.0
 11
58.49999800000001
 21
-250.984455885698
 31
0.0
  0
LINE
  5
262
330
87
100
AcDbEntity
  8
LC-001-002-----0
  6
Continuous
 62
     7
100
AcDbLine
 10
-58.5
 20
-370.984455885698
 30
0.0
 11
-58.499999
 21
-368.984455885698
 31
0.0
  0
LINE
  5
263
330
87
100
AcDbEntity
  8
LC-001-002-----0
  6
Continuous
 62
     7
100
AcDbLine
 10
-58.5
 20
-370.984455885698
 30
0.0
 11
-56.5
 21
-370.984457885698
 31
0.0
  0
LINE
  5
264
330
87
100
AcDbEntity
  8
LC-001-002-----0
  6
Continuous
 62
     7
100
AcDbLine
 10
-59.500001
 20
-371.984455885698
 30
0.0
 11
-61.500001
 21
-371.984453885698
 31
0.0
  0
LINE
  5
265
330
87
100
AcDbEntity
  8
LC-001-002-----0
  6
Continuous
 62
     7
100
AcDbLine
 10
-59.500001
 20
-371.984455885698
 30
0.0
 11
-59.500002
 21
-373.984455885698
 31
0.0
  0
LINE
  5
266
330
87
100
AcDbEntity
  8
LC-001-002-----0
  6
Continuous
 62
     7
100
AcDbLine
 10
-59.499999
 20
-368.984455885698
 30
0.0
 11
-59.5
 21
-370.984455885698
 31
0.0
  0
LINE
  5
267
330
87
100
AcDbEntity
  8
LC-001-002-----0
  6
Continuous
 62
     7
100
AcDbLine
 10
-58.499999
 20
-368.984455885698
 30
0.0
 11
-59.499999
 21
-368.984455885698
 31
0.0
  0
LINE
  5
268
330
87
100
AcDbEntity
  8
LC-001-002-----0
  6
Continuous
 62
     7
100
AcDbLine
 10
-58.500002
 20
-373.984455885698
 30
0.0
 11
-58.500001
 21
-371.984455885698
 31
0.0
  0
LINE
  5
269
330
87
100
AcDbEntity
  8
LC-001-002-----0
  6
Continuous
 62
     7
100
AcDbLine
 10
-59.500002
 20
-373.984455885698
 30
0.0
 11
-58.500002
 21
-373.984455885698
 31
0.0
  0
LINE
  5
26A
330
87
100
AcDbEntity
  8
LC-001-002-----0
  6
Continuous
 62
     7
100
AcDbLine
 10
-56.500001
 20
-371.984457885698
 30
0.0
 11
-58.500001
 21
-371.984455885698
 31
0.0
  0
LINE
  5
26B
330
87
100
AcDbEntity
  8
LC-001-002-----0
  6
Continuous
 62
     7
100
AcDbLine
 10
-56.5
 20
-370.984457885698
 30
0.0
 11
-56.500001
 21
-371.984457885698
 31
0.0
  0
LINE
  5
26C
330
87
100
AcDbEntity
  8
LC-001-002-----0
  6
Continuous
 62
     7
100
AcDbLine
 10
-61.5
 20
-370.984453885698
 30
0.0
 11
-59.5
 21
-370.984455885698
 31
0.0
  0
LINE
  5
26D
330
87
100
AcDbEntity
  8
LC-001-002-----0
  6
Continuous
 62
     7
100
AcDbLine
 10
-61.500001
 20
-371.984453885698
 30
0.0
 11
-61.5
 21
-370.984453885698
 31
0.0
  0
ARC
  5
26E
330
87
100
AcDbEntity
  8
LC-003-002-RND-0
  6
Continuous
 62
     7
100
AcDbCircle
 10
65.18799999999999
 20
-377.672455885698
 30
0.0
 40
3.789999999999964
100
AcDbArc
 50
270.0
 51
0.0
  0
ARC
  5
26F
330
87
100
AcDbEntity
  8
LC-003-002-RND-0
  6
Continuous
 62
     7
100
AcDbCircle
 10
65.18799999999999
 20
-247.296455885698
 30
0.0
 40
3.789999999999964
100
AcDbArc
 50
0.0
 51
90.0
  0
ARC
  5
270
330
87
100
AcDbEntity
  8
LC-003-002-RND-0
  6
Continuous
 62
     7
100
AcDbCircle
 10
-65.18799999999999
 20
-247.296455885698
 30
0.0
 40
3.79000000000002
100
AcDbArc
 50
90.0
 51
180.0
  0
ARC
  5
271
330
87
100
AcDbEntity
  8
LC-003-002-RND-0
  6
Continuous
 62
     7
100
AcDbCircle
 10
-65.18799999999999
 20
-377.672455885698
 30
0.0
 40
3.79000000000002
100
AcDbArc
 50
180.0
 51
270.0
  0
ARC
  5
272
330
87
100
AcDbEntity
  8
LC-001-002-----0
  6
Continuous
 62
     7
100
AcDbCircle
 10
8.5
 20
-288.506455885698
 30
0.0
 40
3.5
100
AcDbArc
 50
270.0
 51
90.0
  0
ARC
  5
273
330
87
100
AcDbEntity
  8
LC-001-002-----0
  6
Continuous
 62
     7
100
AcDbCircle
 10
-8.5
 20
-288.506455885698
 30
0.0
 40
3.5
100
AcDbArc
 50
90.0
 51
270.0
  0
ARC
  5
274
330
87
100
AcDbEntity
  8
LC-001-002-----0
  6
Continuous
 62
     7
100
AcDbCircle
 10
24.5
 20
-272.506455885698
 30
0.0
 40
3.5
100
AcDbArc
 50
270.0
 51
90.0
  0
ARC
  5
275
330
87
100
AcDbEntity
  8
LC-001-002-----0
  6
Continuous
 62
     7
100
AcDbCircle
 10
-24.5
 20
-272.506455885698
 30
0.0
 40
3.5
100
AcDbArc
 50
90.0
 51
270.0
  0
ARC
  5
276
330
87
100
AcDbEntity
  8
LC-001-002-----0
  6
Continuous
 62
     7
100
AcDbCircle
 10
40.5
 20
-256.506455885698
 30
0.0
 40
3.5
100
AcDbArc
 50
270.0
 51
90.0
  0
ARC
  5
277
330
87
100
AcDbEntity
  8
LC-001-002-----0
  6
Continuous
 62
     7
100
AcDbCircle
 10
-40.5
 20
-256.506455885698
 30
0.0
 40
3.500000000000028
100
AcDbArc
 50
90.0
 51
270.0
  0
ARC
  5
278
330
87
100
AcDbEntity
  8
LC-001-002-----0
  6
Continuous
 62
     7
100
AcDbCircle
 10
23.97799999999995
 20
-320.984455885698
 30
0.0
 40
3.5
100
AcDbArc
 50
180.0
 51
0.0
  0
ARC
  5
279
330
87
100
AcDbEntity
  8
LC-001-002-----0
  6
Continuous
 62
     7
100
AcDbCircle
 10
23.97799999999995
 20
-303.984455885698
 30
0.0
 40
3.5
100
AcDbArc
 50
0.0
 51
180.0
  0
ARC
  5
27A
330
87
100
AcDbEntity
  8
LC-001-002-----0
  6
Continuous
 62
     7
100
AcDbCircle
 10
-23.97799999999995
 20
-303.984455885698
 30
0.0
 40
3.5
100
AcDbArc
 50
0.0
 51
180.0
  0
ARC
  5
27B
330
87
100
AcDbEntity
  8
LC-001-002-----0
  6
Continuous
 62
     7
100
AcDbCircle
 10
-23.97799999999995
 20
-320.984455885698
 30
0.0
 40
3.5
100
AcDbArc
 50
180.0
 51
0.0
  0
ARC
  5
27C
330
87
100
AcDbEntity
  8
LC-001-002-----0
  6
Continuous
 62
     7
100
AcDbCircle
 10
39.97799999999995
 20
-336.984455885698
 30
0.0
 40
3.5
100
AcDbArc
 50
180.0
 51
0.0
  0
ARC
  5
27D
330
87
100
AcDbEntity
  8
LC-001-002-----0
  6
Continuous
 62
     7
100
AcDbCircle
 10
39.97799999999995
 20
-287.984455885698
 30
0.0
 40
3.5
100
AcDbArc
 50
0.0
 51
180.0
  0
ARC
  5
27E
330
87
100
AcDbEntity
  8
LC-001-002-----0
  6
Continuous
 62
     7
100
AcDbCircle
 10
-39.97799999999995
 20
-287.984455885698
 30
0.0
 40
3.5
100
AcDbArc
 50
0.0
 51
180.0
  0
ARC
  5
27F
330
87
100
AcDbEntity
  8
LC-001-002-----0
  6
Continuous
 62
     7
100
AcDbCircle
 10
-39.97799999999995
 20
-336.984455885698
 30
0.0
 40
3.5
100
AcDbArc
 50
180.0
 51
0.0
  0
ARC
  5
280
330
87
100
AcDbEntity
  8
LC-001-002-----0
  6
Continuous
 62
     7
100
AcDbCircle
 10
-55.97800000000001
 20
-271.984455885698
 30
0.0
 40
3.500000000000057
100
AcDbArc
 50
0.0
 51
180.0
  0
ARC
  5
281
330
87
100
AcDbEntity
  8
LC-001-002-----0
  6
Continuous
 62
     7
100
AcDbCircle
 10
-55.97800000000001
 20
-352.984455885698
 30
0.0
 40
3.5
100
AcDbArc
 50
180.0
 51
0.0
  0
ARC
  5
282
330
87
100
AcDbEntity
  8
LC-001-002-----0
  6
Continuous
 62
     7
100
AcDbCircle
 10
55.97799999999995
 20
-352.984455885698
 30
0.0
 40
3.5
100
AcDbArc
 50
180.0
 51
0.0
  0
ARC
  5
283
330
87
100
AcDbEntity
  8
LC-001-002-----0
  6
Continuous
 62
     7
100
AcDbCircle
 10
55.97799999999995
 20
-271.984455885698
 30
0.0
 40
3.5
100
AcDbArc
 50
0.0
 51
180.0
  0
ARC
  5
284
330
87
100
AcDbEntity
  8
LC-001-002-----0
  6
Continuous
 62
     7
100
AcDbCircle
 10
-8.5
 20
-336.462455885698
 30
0.0
 40
3.5
100
AcDbArc
 50
90.0
 51
270.0
  0
ARC
  5
285
330
87
100
AcDbEntity
  8
LC-001-002-----0
  6
Continuous
 62
     7
100
AcDbCircle
 10
8.5
 20
-336.462455885698
 30
0.0
 40
3.5
100
AcDbArc
 50
270.0
 51
90.0
  0
ARC
  5
286
330
87
100
AcDbEntity
  8
LC-001-002-----0
  6
Continuous
 62
     7
100
AcDbCircle
 10
-24.5
 20
-352.462455885698
 30
0.0
 40
3.5
100
AcDbArc
 50
90.0
 51
270.0
  0
ARC
  5
287
330
87
100
AcDbEntity
  8
LC-001-002-----0
  6
Continuous
 62
     7
100
AcDbCircle
 10
24.5
 20
-352.462455885698
 30
0.0
 40
3.5
100
AcDbArc
 50
270.0
 51
90.0
  0
ARC
  5
288
330
87
100
AcDbEntity
  8
LC-001-002-----0
  6
Continuous
 62
     7
100
AcDbCircle
 10
-40.5
 20
-368.462455885698
 30
0.0
 40
3.5
100
AcDbArc
 50
90.0
 51
270.0
  0
ARC
  5
289
330
87
100
AcDbEntity
  8
LC-001-002-----0
  6
Continuous
 62
     7
100
AcDbCircle
 10
40.5
 20
-368.462455885698
 30
0.0
 40
3.5
100
AcDbArc
 50
270.0
 51
90.0
  0
CIRCLE
  5
28A
330
87
100
AcDbEntity
  8
LC-001-002-----0
  6
Continuous
 62
     7
100
AcDbCircle
 10
59.0
 20
-253.484455885698
 30
0.0
 40
4.5
  0
CIRCLE
  5
28B
330
87
100
AcDbEntity
  8
LC-001-002-----0
  6
Continuous
 62
     7
100
AcDbCircle
 10
-59.0
 20
-371.484455885698
 30
0.0
 40
4.5
  0
ENDBLK
  5
89
330
87
100
AcDbEntity
  8
0
100
AcDbBlockEnd
  0
BLOCK
  5
8F
330
8A
100
AcDbEntity
  8
0
100
AcDbBlockBegin
  2
HL_66_Aufsatzrahmen
 70
     0
 10
14.05182173496049
 20
-184.9095683928292
 30
0.0
  3
HL_66_Aufsatzrahmen
  1

  0
INSERT
  5
8B
330
8A
100
AcDbEntity
  8
1
100
AcDbBlockReference
  2
066_3E_Aufsatzrahmen_verschraubbar__1
 10
-1.27994359786203
 20
-313.008437442917
 30
0.0
  0
INSERT
  5
8C
330
8A
100
AcDbEntity
  8
1
100
AcDbBlockReference
  2
066_3E_Aufsatzrahmen_verschraubbar__2
 10
0.0
 20
-103.5681780968438
 30
0.0
  0
INSERT
  5
8D
330
8A
100
AcDbEntity
  8
1
100
AcDbBlockReference
  2
066_1E_Edelstahlrost_verschraubbar__3
 10
0.0
 20
-2.79740150000001
 30
0.0
  0
INSERT
  5
8E
330
8A
100
AcDbEntity
  8
1
100
AcDbBlockReference
  2
066_1E_Edelstahlrost_verschraubbar__4
 10
-0.00000000000003
 20
-312.484455885698
 30
0.0
  0
DIMENSION
  5
296
330
8A
100
AcDbEntity
  8
1
100
AcDbDimension
  2
*D7
 10
75.5
 20
11.66439826767061
 30
0.0
 11
-12.34343652137905
 21
18.66439826767061
 31
0.0
 70
    32
  1
150x150
 71
     5
 42
-1.0
 53
0.00013888888889
  3
ME10_DIM_10
100
AcDbAlignedDimension
 13
-75.5
 23
-2.5
 33
0.0
 14
75.5
 24
-2.5
 34
0.0
100
AcDbRotatedDimension
  0
DIMENSION
  5
2A1
330
8A
100
AcDbEntity
  8
1
100
AcDbDimension
  2
*D8
 10
-72.5
 20
-222.659480381311
 30
0.0
 11
23.442763177063
 21
-215.659480381311
 31
0.0
 70
    32
  1
<>
 71
     5
 42
-1.0
 53
0.00013888888889
  3
ME10_DIM_11
100
AcDbAlignedDimension
 13
72.5
 23
-199.0
 33
0.0
 14
-72.5
 24
-199.0
 34
0.0
100
AcDbRotatedDimension
  0
DIMENSION
  5
2AE
330
8A
100
AcDbEntity
  8
1
100
AcDbDimension
  2
*D9
 10
92.89152723048699
 20
0.0
 30
0.0
 11
85.89152723048699
 21
-27.87440732237451
 31
0.0
 70
    32
  1
<>
 71
     5
 42
-1.0
 53
90.0
  3
ME10_DIM_12
100
AcDbAlignedDimension
 13
76.5
 23
-15.0
 33
0.0
 14
73.0
 24
0.0
 34
0.0
 50
90.0
100
AcDbRotatedDimension
  0
DIMENSION
  5
2B9
330
8A
100
AcDbEntity
  8
1
100
AcDbDimension
  2
*D10
 10
107.462905509619
 20
0.0
 30
0.0
 11
100.462905509619
 21
-109.0811946345241
 31
0.0
 70
    32
  1
<>
 71
     5
 42
-1.0
 53
90.0
  3
ME10_DIM_13
100
AcDbAlignedDimension
 13
70.89230500000002
 23
-205.0
 33
0.0
 14
73.0
 24
0.0
 34
0.0
 50
90.0
100
AcDbRotatedDimension
  0
ENDBLK
  5
90
330
8A
100
AcDbEntity
  8
0
100
AcDbBlockEnd
  0
BLOCK
  5
293
330
28C
100
AcDbEntity
  8
0
100
AcDbBlockBegin
  2
*D7
 70
     1
 10
0.0
 20
0.0
 30
0.0
  3
*D7
  1

  0
LINE
  5
28D
330
28C
100
AcDbEntity
  8
1
  6
Continuous
 62
     4
100
AcDbLine
 10
75.5
 20
11.66439826767061
 30
0.0
 11
-75.5
 21
11.66439826767061
 31
0.0
  0
LINE
  5
28E
330
28C
100
AcDbEntity
  8
1
  6
Continuous
 62
     4
100
AcDbLine
 10
-75.5
 20
-2.5
 30
0.0
 11
-75.5
 21
13.66439826767061
 31
0.0
  0
LINE
  5
28F
330
28C
100
AcDbEntity
  8
1
  6
Continuous
 62
     4
100
AcDbLine
 10
75.5
 20
-2.5
 30
0.0
 11
75.5
 21
13.66439826767061
 31
0.0
  0
SOLID
  5
290
330
28C
100
AcDbEntity
  8
1
 62
     4
100
AcDbTrace
 10
65.5
 20
10.34787329179665
 30
0.0
 11
65.5
 21
12.98092324354457
 31
0.0
 12
75.5
 22
11.66439826767061
 32
0.0
 13
75.5
 23
11.66439826767061
 33
0.0
  0
SOLID
  5
291
330
28C
100
AcDbEntity
  8
1
 62
     4
100
AcDbTrace
 10
-65.5
 20
12.98092324354457
 30
0.0
 11
-65.5
 21
10.34787329179665
 31
0.0
 12
-75.5
 22
11.66439826767061
 32
0.0
 13
-75.5
 23
11.66439826767061
 33
0.0
  0
MTEXT
  5
292
330
28C
100
AcDbEntity
  8
1
 62
     1
100
AcDbMText
 10
-40.34343652137905
 20
13.66439826767061
 30
0.0
 40
10.0
 41
0.0
 71
     7
 72
     1
  1
\C1;150\C1;x150
  7
CONVERTER_13
 11
0.9999999999970619
 21
2.424068405545306E-6
 31
0.0
 73
     1
 44
0.60024009603842
  0
ENDBLK
  5
294
330
28C
100
AcDbEntity
  8
0
100
AcDbBlockEnd
  0
BLOCK
  5
29E
330
297
100
AcDbEntity
  8
0
100
AcDbBlockBegin
  2
*D8
 70
     1
 10
0.0
 20
0.0
 30
0.0
  3
*D8
  1

  0
LINE
  5
298
330
297
100
AcDbEntity
  8
1
  6
Continuous
 62
     4
100
AcDbLine
 10
-72.5
 20
-222.659480381311
 30
0.0
 11
72.5
 21
-222.659480381311
 31
0.0
  0
LINE
  5
299
330
297
100
AcDbEntity
  8
1
  6
Continuous
 62
     4
100
AcDbLine
 10
72.5
 20
-199.0
 30
0.0
 11
72.5
 21
-224.659480381311
 31
0.0
  0
LINE
  5
29A
330
297
100
AcDbEntity
  8
1
  6
Continuous
 62
     4
100
AcDbLine
 10
-72.5
 20
-199.0
 30
0.0
 11
-72.5
 21
-224.659480381311
 31
0.0
  0
SOLID
  5
29B
330
297
100
AcDbEntity
  8
1
 62
     4
100
AcDbTrace
 10
-62.5
 20
-221.342955405437
 30
0.0
 11
-62.5
 21
-223.976005357185
 31
0.0
 12
-72.5
 22
-222.659480381311
 32
0.0
 13
-72.5
 23
-222.659480381311
 33
0.0
  0
SOLID
  5
29C
330
297
100
AcDbEntity
  8
1
 62
     4
100
AcDbTrace
 10
62.5
 20
-223.976005357185
 30
0.0
 11
62.5
 21
-221.342955405437
 31
0.0
 12
72.5
 22
-222.659480381311
 32
0.0
 13
72.5
 23
-222.659480381311
 33
0.0
  0
MTEXT
  5
29D
330
297
100
AcDbEntity
  8
1
 62
     1
100
AcDbMText
 10
10.74276317708709
 20
-220.6595002586719
 30
0.0
 40
10.0
 41
0.0
 71
     7
 72
     1
  1
\C1;%%c\C1;145
  7
CONVERTER_13
 11
0.9999999999970619
 21
2.424068405545306E-6
 31
0.0
 73
     1
 44
0.60024009603842
  0
ENDBLK
  5
29F
330
297
100
AcDbEntity
  8
0
100
AcDbBlockEnd
  0
BLOCK
  5
2AB
330
2A2
100
AcDbEntity
  8
0
100
AcDbBlockBegin
  2
*D9
 70
     1
 10
0.0
 20
0.0
 30
0.0
  3
*D9
  1

  0
LINE
  5
2A3
330
2A2
100
AcDbEntity
  8
1
  6
Continuous
 62
     4
100
AcDbLine
 10
92.89152723048699
 20
-15.0
 30
0.0
 11
92.89152723048699
 21
-35.0
 31
0.0
  0
LINE
  5
2A4
330
2A2
100
AcDbEntity
  8
1
  6
Continuous
 62
     4
100
AcDbLine
 10
92.89152723048699
 20
0.0
 30
0.0
 11
92.89152723048699
 21
-15.0
 31
0.0
  0
LINE
  5
2A5
330
2A2
100
AcDbEntity
  8
1
  6
Continuous
 62
     4
100
AcDbLine
 10
92.89152723048699
 20
20.0
 30
0.0
 11
92.89152723048699
 21
0.0
 31
0.0
  0
LINE
  5
2A6
330
2A2
100
AcDbEntity
  8
1
  6
Continuous
 62
     4
100
AcDbLine
 10
76.5
 20
-15.0
 30
0.0
 11
94.89152723048699
 21
-15.0
 31
0.0
  0
LINE
  5
2A7
330
2A2
100
AcDbEntity
  8
1
  6
Continuous
 62
     4
100
AcDbLine
 10
73.0
 20
0.0
 30
0.0
 11
94.89152723048699
 21
0.0
 31
0.0
  0
SOLID
  5
2A8
330
2A2
100
AcDbEntity
  8
1
 62
     4
100
AcDbTrace
 10
91.57500225461303
 20
10.0
 30
0.0
 11
94.20805220636095
 21
10.0
 31
0.0
 12
92.89152723048699
 22
0.0
 32
0.0
 13
92.89152723048699
 23
0.0
 33
0.0
  0
SOLID
  5
2A9
330
2A2
100
AcDbEntity
  8
1
 62
     4
100
AcDbTrace
 10
94.20805220636095
 20
-25.0
 30
0.0
 11
91.57500225461303
 21
-25.0
 31
0.0
 12
92.89152723048699
 22
-15.0
 32
0.0
 13
92.89152723048699
 23
-15.0
 33
0.0
  0
MTEXT
  5
2AA
330
2A2
100
AcDbEntity
  8
1
 62
     1
100
AcDbMText
 10
90.89152723048699
 20
-33.87440732237451
 30
0.0
 40
10.0
 41
0.0
 71
     7
 72
     1
  1
15
  7
CONVERTER_13
 11
0.0
 21
1.0
 31
0.0
 73
     1
 44
0.60024009603842
  0
ENDBLK
  5
2AC
330
2A2
100
AcDbEntity
  8
0
100
AcDbBlockEnd
  0
BLOCK
  5
2B6
330
2AF
100
AcDbEntity
  8
0
100
AcDbBlockBegin
  2
*D10
 70
     1
 10
0.0
 20
0.0
 30
0.0
  3
*D10
  1

  0
LINE
  5
2B0
330
2AF
100
AcDbEntity
  8
1
  6
Continuous
 62
     4
100
AcDbLine
 10
107.462905509619
 20
0.0
 30
0.0
 11
107.462905509619
 21
-205.0
 31
0.0
  0
LINE
  5
2B1
330
2AF
100
AcDbEntity
  8
1
  6
Continuous
 62
     4
100
AcDbLine
 10
70.89230500000002
 20
-205.0
 30
0.0
 11
109.462905509619
 21
-205.0
 31
0.0
  0
LINE
  5
2B2
330
2AF
100
AcDbEntity
  8
1
  6
Continuous
 62
     4
100
AcDbLine
 10
73.0
 20
0.0
 30
0.0
 11
109.462905509619
 21
0.0
 31
0.0
  0
SOLID
  5
2B3
330
2AF
100
AcDbEntity
  8
1
 62
     4
100
AcDbTrace
 10
108.779430485493
 20
-10.0
 30
0.0
 11
106.146380533745
 21
-10.0
 31
0.0
 12
107.462905509619
 22
0.0
 32
0.0
 13
107.462905509619
 23
0.0
 33
0.0
  0
SOLID
  5
2B4
330
2AF
100
AcDbEntity
  8
1
 62
     4
100
AcDbTrace
 10
106.146380533745
 20
-195.0
 30
0.0
 11
108.779430485493
 21
-195.0
 31
0.0
 12
107.462905509619
 22
-205.0
 32
0.0
 13
107.462905509619
 23
-205.0
 33
0.0
  0
MTEXT
  5
2B5
330
2AF
100
AcDbEntity
  8
1
 62
     1
100
AcDbMText
 10
105.462905509619
 20
-121.0811946345241
 30
0.0
 40
10.0
 41
0.0
 71
     7
 72
     1
  1
205
  7
CONVERTER_13
 11
0.0
 21
1.0
 31
0.0
 73
     1
 44
0.60024009603842
  0
ENDBLK
  5
2B7
330
2AF
100
AcDbEntity
  8
0
100
AcDbBlockEnd
  0
ENDSEC
  0
SECTION
  2
ENTITIES
  0
INSERT
  5
91
330
1F
100
AcDbEntity
  8
0
100
AcDbBlockReference
  2
DINA2_hoch_Artikel
 10
219.0518217349605
 20
-476.9095683928292
 30
0.0
  0
INSERT
  5
92
330
1F
100
AcDbEntity
  8
0
100
AcDbBlockReference
  2
HL_66_Aufsatzrahmen
 10
14.05182173496049
 20
-184.9095683928292
 30
0.0
  0
ENDSEC
  0
SECTION
  2
OBJECTS
  0
DICTIONARY
  5
C
330
0
100
AcDbDictionary
281
     1
  3
ACAD_GROUP
350
D
  3
ACAD_LAYOUT
350
1A
  3
ACAD_MATERIAL
350
43
  3
ACAD_MLEADERSTYLE
350
6B
  3
ACAD_MLINESTYLE
350
17
  3
ACAD_PLOTSETTINGS
350
19
  3
ACAD_PLOTSTYLENAME
350
E
  3
ACAD_SCALELIST
350
47
  3
ACAD_TABLESTYLE
350
69
  3
ACAD_VISUALSTYLE
350
2A
  3
AcDbVariableDictionary
350
2BA
  0
DICTIONARY
  5
2C1
330
8
100
AcDbDictionary
280
     1
281
     1
  3
ACAD_XREC_ROUNDTRIP
360
2C2
  0
DICTIONARY
  5
D
102
{ACAD_REACTORS
330
C
102
}
330
C
100
AcDbDictionary
281
     1
  0
DICTIONARY
  5
1A
102
{ACAD_REACTORS
330
C
102
}
330
C
100
AcDbDictionary
281
     1
  3
Layout1
350
1E
  3
Layout2
350
26
  3
Model
350
22
  0
DICTIONARY
  5
43
102
{ACAD_REACTORS
330
C
102
}
330
C
100
AcDbDictionary
281
     1
  3
ByBlock
350
45
  3
ByLayer
350
44
  3
Global
350
46
  0
DICTIONARY
  5
6B
102
{ACAD_REACTORS
330
C
102
}
330
C
100
AcDbDictionary
281
     1
  3
Standard
350
6C
  0
DICTIONARY
  5
17
102
{ACAD_REACTORS
330
C
102
}
330
C
100
AcDbDictionary
281
     1
  3
Standard
350
18
  0
DICTIONARY
  5
19
102
{ACAD_REACTORS
330
C
102
}
330
C
100
AcDbDictionary
281
     1
  0
ACDBDICTIONARYWDFLT
  5
E
102
{ACAD_REACTORS
330
C
102
}
330
C
100
AcDbDictionary
281
     1
  3
Normal
350
F
100
AcDbDictionaryWithDefault
340
F
  0
DICTIONARY
  5
47
102
{ACAD_REACTORS
330
C
102
}
330
C
100
AcDbDictionary
281
     1
  3
A0
350
48
  3
A1
350
49
  3
A2
350
4A
  3
A3
350
4B
  3
A4
350
4C
  3
A5
350
4D
  3
A6
350
4E
  3
A7
350
4F
  3
A8
350
50
  3
A9
350
51
  3
B0
350
52
  3
B1
350
53
  3
B2
350
54
  3
B3
350
55
  3
B4
350
56
  3
B5
350
57
  3
B6
350
58
  3
B7
350
59
  3
B8
350
5A
  3
B9
350
5B
  3
C0
350
5C
  3
C1
350
5D
  3
C2
350
5E
  3
C3
350
5F
  3
C4
350
60
  3
C5
350
61
  3
C6
350
62
  3
C7
350
63
  3
C8
350
64
  3
C9
350
65
  3
D0
350
66
  3
D1
350
67
  3
D2
350
68
  0
DICTIONARY
  5
69
102
{ACAD_REACTORS
330
C
102
}
330
C
100
AcDbDictionary
281
     1
  3
Standard
350
6A
  0
DICTIONARY
  5
2A
102
{ACAD_REACTORS
330
C
102
}
330
C
100
AcDbDictionary
281
     1
  3
2dWireframe
350
2F
  3
Basic
350
32
  3
Brighten
350
36
  3
ColorChange
350
3A
  3
Conceptual
350
34
  3
Dim
350
35
  3
EdgeColorOff
350
3D
  3
Facepattern
350
39
  3
Flat
350
2B
  3
FlatWithEdges
350
2C
  3
Gouraud
350
2D
  3
GouraudWithEdges
350
2E
  3
Hidden
350
31
  3
JitterOff
350
3B
  3
Linepattern
350
38
  3
OverhangOff
350
3C
  3
Realistic
350
33
  3
Shaded
350
42
  3
Shaded with edges
350
41
  3
Shades of Gray
350
3E
  3
Sketchy
350
3F
  3
Thicken
350
37
  3
Wireframe
350
30
  3
X-Ray
350
40
  0
DICTIONARY
  5
2BA
102
{ACAD_REACTORS
330
C
102
}
330
C
100
AcDbDictionary
281
     1
  3
CANNOSCALE
350
2C3
  3
CMLEADERSTYLE
350
2BC
  3
CTABLESTYLE
350
2BB
  3
DIMASSOC
350
2BF
  3
HIDETEXT
350
2C0
  3
MSLTSCALE
350
2C4
  0
XRECORD
  5
2C2
102
{ACAD_REACTORS
330
2C1
102
}
330
2C1
100
AcDbXrecord
280
     1
102
VTR_0.000_0.000_1.000_1.000_GRIDDISPLAY
 70
     3
102
VTR_0.000_0.000_1.000_1.000_GRIDMAJOR
 70
     5
102
VTR_0.000_0.000_1.000_1.000_DEFAULTLIGHTING
280
     1
102
VTR_0.000_0.000_1.000_1.000_DEFAULTLIGHTINGTYPE
 70
     1
102
VTR_0.000_0.000_1.000_1.000_BRIGHTNESS
141
0.0
102
VTR_0.000_0.000_1.000_1.000_CONTRAST
142
0.0
  0
LAYOUT
  5
1E
102
{ACAD_REACTORS
330
1A
102
}
330
1A
100
AcDbPlotSettings
  1

  2
none_device
  4

  6

 40
0.0
 41
0.0
 42
0.0
 43
0.0
 44
0.0
 45
0.0
 46
0.0
 47
0.0
 48
0.0
 49
0.0
140
0.0
141
0.0
142
1.0
143
1.0
 70
   688
 72
     0
 73
     0
 74
     5
  7

 75
    16
147
1.0
148
0.0
149
0.0
100
AcDbLayout
  1
Layout1
 70
     1
 71
     1
 10
0.0
 20
0.0
 11
12.0
 21
9.0
 12
0.0
 22
0.0
 32
0.0
 14
1.00000000000000E+20
 24
1.00000000000000E+20
 34
1.00000000000000E+20
 15
-1.00000000000000E+20
 25
-1.00000000000000E+20
 35
-1.00000000000000E+20
146
0.0
 13
0.0
 23
0.0
 33
0.0
 16
1.0
 26
0.0
 36
0.0
 17
0.0
 27
1.0
 37
0.0
 76
     0
330
1B
  0
LAYOUT
  5
26
102
{ACAD_REACTORS
330
1A
102
}
330
1A
100
AcDbPlotSettings
  1

  2
none_device
  4

  6

 40
0.0
 41
0.0
 42
0.0
 43
0.0
 44
0.0
 45
0.0
 46
0.0
 47
0.0
 48
0.0
 49
0.0
140
0.0
141
0.0
142
1.0
143
1.0
 70
   688
 72
     0
 73
     0
 74
     5
  7

 75
    16
147
1.0
148
0.0
149
0.0
100
AcDbLayout
  1
Layout2
 70
     1
 71
     2
 10
0.0
 20
0.0
 11
0.0
 21
0.0
 12
0.0
 22
0.0
 32
0.0
 14
0.0
 24
0.0
 34
0.0
 15
0.0
 25
0.0
 35
0.0
146
0.0
 13
0.0
 23
0.0
 33
0.0
 16
1.0
 26
0.0
 36
0.0
 17
0.0
 27
1.0
 37
0.0
 76
     0
330
23
  0
LAYOUT
  5
22
102
{ACAD_REACTORS
330
1A
102
}
330
1A
100
AcDbPlotSettings
  1

  2
none_device
  4
Letter_(8.50_x_11.00_Inches)
  6

 40
6.35
 41
6.35
 42
6.35000508
 43
6.35000508
 44
215.9
 45
279.4
 46
0.0
 47
0.0
 48
0.0
 49
0.0
140
0.0
141
0.0
142
1.0
143
1.0
 70
  1712
 72
     0
 73
     0
 74
     0
  7

 75
     0
147
1.0
148
0.0
149
0.0
100
AcDbLayout
  1
Model
 70
     1
 71
     0
 10
0.0
 20
0.0
 11
12.0
 21
9.0
 12
0.0
 22
0.0
 32
0.0
 14
-190.9481782650395
 24
-476.9095683928292
 34
0.0
 15
219.0518217349605
 25
107.0904316071709
 35
0.0
146
0.0
 13
0.0
 23
0.0
 33
0.0
 16
1.0
 26
0.0
 36
0.0
 17
0.0
 27
1.0
 37
0.0
 76
     0
330
1F
331
29
  0
MATERIAL
  5
45
102
{ACAD_REACTORS
330
43
102
}
102
{ACAD_XDICTIONARY
360
2F7
102
}
330
43
100
AcDbMaterial
  1
ByBlock
  0
MATERIAL
  5
44
102
{ACAD_REACTORS
330
43
102
}
102
{ACAD_XDICTIONARY
360
2F5
102
}
330
43
100
AcDbMaterial
  1
ByLayer
  0
MATERIAL
  5
46
102
{ACAD_REACTORS
330
43
102
}
102
{ACAD_XDICTIONARY
360
2F9
102
}
330
43
100
AcDbMaterial
  1
Global
  0
MLEADERSTYLE
  5
6C
102
{ACAD_REACTORS
330
6B
102
}
102
{ACAD_XDICTIONARY
360
2FC
102
}
330
6B
100
AcDbMLeaderStyle
170
     2
171
     1
172
     0
 90
        2
 40
0.0
 41
0.0
173
     1
 91
-1056964608
340
14
 92
       -2
290
     1
 42
0.09
291
     1
 43
0.36
  3
Standard
341
0
 44
0.18
300

342
11
174
     1
178
     6
175
     1
176
     0
 93
-1056964608
 45
0.18
292
     0
297
     0
 46
0.18
343
0
 94
-1056964608
 47
1.0
 49
1.0
140
1.0
293
     1
141
0.0
294
     1
177
     0
142
1.0
295
     0
296
     0
143
0.125
1001
ACAD_MLEADERVER
1070
     2
  0
MLINESTYLE
  5
18
102
{ACAD_REACTORS
330
17
102
}
330
17
100
AcDbMlineStyle
  2
Standard
 70
     0
  3

 62
   256
 51
90.0
 52
90.0
 71
     2
 49
0.5
 62
   256
  6
BYLAYER
 49
-0.5
 62
   256
  6
BYLAYER
  0
ACDBPLACEHOLDER
  5
F
102
{ACAD_REACTORS
330
E
102
}
330
E
  0
SCALE
  5
48
102
{ACAD_REACTORS
330
47
102
}
330
47
100
AcDbScale
 70
     0
300
1:1
140
1.0
141
1.0
290
     1
  0
SCALE
  5
49
102
{ACAD_REACTORS
330
47
102
}
330
47
100
AcDbScale
 70
     0
300
1:2
140
1.0
141
2.0
290
     0
  0
SCALE
  5
4A
102
{ACAD_REACTORS
330
47
102
}
330
47
100
AcDbScale
 70
     0
300
1:4
140
1.0
141
4.0
290
     0
  0
SCALE
  5
4B
102
{ACAD_REACTORS
330
47
102
}
330
47
100
AcDbScale
 70
     0
300
1:5
140
1.0
141
5.0
290
     0
  0
SCALE
  5
4C
102
{ACAD_REACTORS
330
47
102
}
330
47
100
AcDbScale
 70
     0
300
1:8
140
1.0
141
8.0
290
     0
  0
SCALE
  5
4D
102
{ACAD_REACTORS
330
47
102
}
330
47
100
AcDbScale
 70
     0
300
1:10
140
1.0
141
10.0
290
     0
  0
SCALE
  5
4E
102
{ACAD_REACTORS
330
47
102
}
330
47
100
AcDbScale
 70
     0
300
1:16
140
1.0
141
16.0
290
     0
  0
SCALE
  5
4F
102
{ACAD_REACTORS
330
47
102
}
330
47
100
AcDbScale
 70
     0
300
1:20
140
1.0
141
20.0
290
     0
  0
SCALE
  5
50
102
{ACAD_REACTORS
330
47
102
}
330
47
100
AcDbScale
 70
     0
300
1:30
140
1.0
141
30.0
290
     0
  0
SCALE
  5
51
102
{ACAD_REACTORS
330
47
102
}
330
47
100
AcDbScale
 70
     0
300
1:40
140
1.0
141
40.0
290
     0
  0
SCALE
  5
52
102
{ACAD_REACTORS
330
47
102
}
330
47
100
AcDbScale
 70
     0
300
1:50
140
1.0
141
50.0
290
     0
  0
SCALE
  5
53
102
{ACAD_REACTORS
330
47
102
}
330
47
100
AcDbScale
 70
     0
300
1:100
140
1.0
141
100.0
290
     0
  0
SCALE
  5
54
102
{ACAD_REACTORS
330
47
102
}
330
47
100
AcDbScale
 70
     0
300
2:1
140
2.0
141
1.0
290
     0
  0
SCALE
  5
55
102
{ACAD_REACTORS
330
47
102
}
330
47
100
AcDbScale
 70
     0
300
4:1
140
4.0
141
1.0
290
     0
  0
SCALE
  5
56
102
{ACAD_REACTORS
330
47
102
}
330
47
100
AcDbScale
 70
     0
300
8:1
140
8.0
141
1.0
290
     0
  0
SCALE
  5
57
102
{ACAD_REACTORS
330
47
102
}
330
47
100
AcDbScale
 70
     0
300
10:1
140
10.0
141
1.0
290
     0
  0
SCALE
  5
58
102
{ACAD_REACTORS
330
47
102
}
330
47
100
AcDbScale
 70
     0
300
100:1
140
100.0
141
1.0
290
     0
  0
SCALE
  5
59
102
{ACAD_REACTORS
330
47
102
}
330
47
100
AcDbScale
 70
     0
300
1/128" = 1'-0"
140
0.0078125
141
12.0
290
     0
  0
SCALE
  5
5A
102
{ACAD_REACTORS
330
47
102
}
330
47
100
AcDbScale
 70
     0
300
1/64" = 1'-0"
140
0.015625
141
12.0
290
     0
  0
SCALE
  5
5B
102
{ACAD_REACTORS
330
47
102
}
330
47
100
AcDbScale
 70
     0
300
1/32" = 1'-0"
140
0.03125
141
12.0
290
     0
  0
SCALE
  5
5C
102
{ACAD_REACTORS
330
47
102
}
330
47
100
AcDbScale
 70
     0
300
1/16" = 1'-0"
140
0.0625
141
12.0
290
     0
  0
SCALE
  5
5D
102
{ACAD_REACTORS
330
47
102
}
330
47
100
AcDbScale
 70
     0
300
3/32" = 1'-0"
140
0.09375
141
12.0
290
     0
  0
SCALE
  5
5E
102
{ACAD_REACTORS
330
47
102
}
330
47
100
AcDbScale
 70
     0
300
1/8" = 1'-0"
140
0.125
141
12.0
290
     0
  0
SCALE
  5
5F
102
{ACAD_REACTORS
330
47
102
}
330
47
100
AcDbScale
 70
     0
300
3/16" = 1'-0"
140
0.1875
141
12.0
290
     0
  0
SCALE
  5
60
102
{ACAD_REACTORS
330
47
102
}
330
47
100
AcDbScale
 70
     0
300
1/4" = 1'-0"
140
0.25
141
12.0
290
     0
  0
SCALE
  5
61
102
{ACAD_REACTORS
330
47
102
}
330
47
100
AcDbScale
 70
     0
300
3/8" = 1'-0"
140
0.375
141
12.0
290
     0
  0
SCALE
  5
62
102
{ACAD_REACTORS
330
47
102
}
330
47
100
AcDbScale
 70
     0
300
1/2" = 1'-0"
140
0.5
141
12.0
290
     0
  0
SCALE
  5
63
102
{ACAD_REACTORS
330
47
102
}
330
47
100
AcDbScale
 70
     0
300
3/4" = 1'-0"
140
0.75
141
12.0
290
     0
  0
SCALE
  5
64
102
{ACAD_REACTORS
330
47
102
}
330
47
100
AcDbScale
 70
     0
300
1" = 1'-0"
140
1.0
141
12.0
290
     0
  0
SCALE
  5
65
102
{ACAD_REACTORS
330
47
102
}
330
47
100
AcDbScale
 70
     0
300
1-1/2" = 1'-0"
140
1.5
141
12.0
290
     0
  0
SCALE
  5
66
102
{ACAD_REACTORS
330
47
102
}
330
47
100
AcDbScale
 70
     0
300
3" = 1'-0"
140
3.0
141
12.0
290
     0
  0
SCALE
  5
67
102
{ACAD_REACTORS
330
47
102
}
330
47
100
AcDbScale
 70
     0
300
6" = 1'-0"
140
6.0
141
12.0
290
     0
  0
SCALE
  5
68
102
{ACAD_REACTORS
330
47
102
}
330
47
100
AcDbScale
 70
     0
300
1'-0" = 1'-0"
140
12.0
141
12.0
290
     0
  0
TABLESTYLE
  5
6A
102
{ACAD_REACTORS
330
69
102
}
330
69
100
AcDbTableStyle
  3
Standard
 70
     0
 71
     0
 40
0.06
 41
0.06
280
     0
281
     0
  7
Standard
140
0.18
170
     2
 62
     0
 63
   257
283
     0
274
    -2
284
     1
 64
     0
275
    -2
285
     1
 65
     0
276
    -2
286
     1
 66
     0
277
    -2
287
     1
 67
     0
278
    -2
288
     1
 68
     0
279
    -2
289
     1
 69
     0
  7
Standard
140
0.25
170
     5
 62
     0
 63
   257
283
     0
274
    -2
284
     1
 64
     0
275
    -2
285
     1
 65
     0
276
    -2
286
     1
 66
     0
277
    -2
287
     1
 67
     0
278
    -2
288
     1
 68
     0
279
    -2
289
     1
 69
     0
  7
Standard
140
0.18
170
     5
 62
     0
 63
   257
283
     0
274
    -2
284
     1
 64
     0
275
    -2
285
     1
 65
     0
276
    -2
286
     1
 66
     0
277
    -2
287
     1
 67
     0
278
    -2
288
     1
 68
     0
279
    -2
289
     1
 69
     0
  0
VISUALSTYLE
  5
2F
102
{ACAD_REACTORS
330
2A
102
}
102
{ACAD_XDICTIONARY
360
2CD
102
}
330
2A
100
AcDbVisualStyle
  2
2dWireframe
 70
     4
 71
     0
 72
     2
 73
     0
 90
        0
 40
0.6
 41
30.0
 62
     5
 63
     7
 74
     1
 91
        4
 64
     7
 65
   257
 75
     1
175
     1
 42
1.0
 92
        0
 66
   257
 43
1.0
 76
     1
 77
     6
 78
     2
 67
     7
 79
     5
170
     0
171
     0
290
     0
174
     0
 93
        1
 44
0.0
173
     0
291
     0
 45
0.0
1001
ACAD
1000
AcDbSavedByObjectVersion
1070
     0
  0
VISUALSTYLE
  5
32
102
{ACAD_REACTORS
330
2A
102
}
102
{ACAD_XDICTIONARY
360
2D3
102
}
330
2A
100
AcDbVisualStyle
  2
Basic
 70
     7
 71
     1
 72
     0
 73
     1
 90
        0
 40
0.6
 41
30.0
 62
     5
 63
     7
 74
     0
 91
        4
 64
     7
 65
   257
 75
     1
175
     1
 42
1.0
 92
        8
 66
     7
 43
1.0
 76
     1
 77
     6
 78
     2
 67
     7
 79
     5
170
     0
171
     0
290
     0
174
     0
 93
        1
 44
0.0
173
     0
291
     1
 45
0.0
1001
ACAD
1000
AcDbSavedByObjectVersion
1070
     0
  0
VISUALSTYLE
  5
36
102
{ACAD_REACTORS
330
2A
102
}
102
{ACAD_XDICTIONARY
360
2DB
102
}
330
2A
100
AcDbVisualStyle
  2
Brighten
 70
    12
 71
     2
 72
     2
 73
     0
 90
        0
 40
0.6
 41
30.0
 62
     5
 63
     7
 74
     1
 91
        4
 64
     7
 65
   257
 75
     1
175
     1
 42
1.0
 92
        8
 66
     7
 43
1.0
 76
     1
 77
     6
 78
     2
 67
     7
 79
     5
170
     0
171
     0
290
     0
174
     0
 93
        1
 44
50.0
173
     0
291
     1
 45
0.0
1001
ACAD
1000
AcDbSavedByObjectVersion
1070
     0
  0
VISUALSTYLE
  5
3A
102
{ACAD_REACTORS
330
2A
102
}
102
{ACAD_XDICTIONARY
360
2E3
102
}
330
2A
100
AcDbVisualStyle
  2
ColorChange
 70
    16
 71
     2
 72
     2
 73
     3
 90
        0
 40
0.6
 41
30.0
 62
     5
 63
     8
 74
     1
 91
        4
 64
     7
 65
   257
 75
     1
175
     1
 42
1.0
 92
        8
 66
     8
 43
1.0
 76
     1
 77
     6
 78
     2
 67
     7
 79
     5
170
     0
171
     0
290
     0
174
     0
 93
        1
 44
0.0
173
     0
291
     1
 45
0.0
1001
ACAD
1000
AcDbSavedByObjectVersion
1070
     0
  0
VISUALSTYLE
  5
34
102
{ACAD_REACTORS
330
2A
102
}
102
{ACAD_XDICTIONARY
360
2D7
102
}
330
2A
100
AcDbVisualStyle
  2
Conceptual
 70
     9
 71
     3
 72
     2
 73
     0
 90
        0
 40
0.6
 41
30.0
 62
     5
 63
     7
 74
     2
 91
        2
 64
     7
 65
   257
 75
     1
175
     1
 42
179.0
 92
        8
 66
     7
 43
1.0
 76
     1
 77
     6
 78
     2
 67
     7
 79
     3
170
     0
171
     0
290
     0
174
     0
 93
        1
 44
0.0
173
     0
291
     0
 45
0.0
1001
ACAD
1000
AcDbSavedByObjectVersion
1070
     0
  0
VISUALSTYLE
  5
35
102
{ACAD_REACTORS
330
2A
102
}
102
{ACAD_XDICTIONARY
360
2D9
102
}
330
2A
100
AcDbVisualStyle
  2
Dim
 70
    11
 71
     2
 72
     2
 73
     0
 90
        0
 40
0.6
 41
30.0
 62
     5
 63
     7
 74
     1
 91
        4
 64
     7
 65
   257
 75
     1
175
     1
 42
1.0
 92
        8
 66
     7
 43
1.0
 76
     1
 77
     6
 78
     2
 67
     7
 79
     5
170
     0
171
     0
290
     0
174
     0
 93
        1
 44
-50.0
173
     0
291
     1
 45
0.0
1001
ACAD
1000
AcDbSavedByObjectVersion
1070
     0
  0
VISUALSTYLE
  5
3D
102
{ACAD_REACTORS
330
2A
102
}
102
{ACAD_XDICTIONARY
360
2E9
102
}
330
2A
100
AcDbVisualStyle
  2
EdgeColorOff
 70
    22
 71
     2
 72
     2
 73
     0
 90
        0
 40
0.6
 41
30.0
 62
     5
 63
     7
 74
     1
 91
        4
 64
     7
 65
   257
 75
     1
175
     1
 42
1.0
 92
        8
 66
     7
 43
1.0
 76
     1
 77
     6
 78
     2
 67
     7
 79
     5
170
     0
171
     0
290
     0
174
     0
 93
        1
 44
0.0
173
     0
291
     1
 45
0.0
1001
ACAD
1000
AcDbSavedByObjectVersion
1070
     0
  0
VISUALSTYLE
  5
39
102
{ACAD_REACTORS
330
2A
102
}
102
{ACAD_XDICTIONARY
360
2E1
102
}
330
2A
100
AcDbVisualStyle
  2
Facepattern
 70
    15
 71
     2
 72
     2
 73
     0
 90
        0
 40
0.6
 41
30.0
 62
     5
 63
     7
 74
     1
 91
        4
 64
     7
 65
   257
 75
     1
175
     1
 42
1.0
 92
        8
 66
     7
 43
1.0
 76
     1
 77
     6
 78
     2
 67
     7
 79
     5
170
     0
171
     0
290
     0
174
     0
 93
        1
 44
0.0
173
     0
291
     1
 45
0.0
1001
ACAD
1000
AcDbSavedByObjectVersion
1070
     0
  0
VISUALSTYLE
  5
2B
102
{ACAD_REACTORS
330
2A
102
}
102
{ACAD_XDICTIONARY
360
2C5
102
}
330
2A
100
AcDbVisualStyle
  2
Flat
 70
     0
 71
     2
 72
     1
 73
     1
 90
        2
 40
0.6
 41
30.0
 62
     5
 63
     7
 74
     0
 91
        0
 64
     7
 65
   257
 75
     1
175
     1
 42
1.0
 92
        8
 66
     7
 43
1.0
 76
     1
 77
     6
 78
     2
 67
     7
 79
     5
170
     0
171
     0
290
     0
174
     0
 93
       13
 44
0.0
173
     0
291
     1
 45
0.0
1001
ACAD
1000
AcDbSavedByObjectVersion
1070
     0
  0
VISUALSTYLE
  5
2C
102
{ACAD_REACTORS
330
2A
102
}
102
{ACAD_XDICTIONARY
360
2C7
102
}
330
2A
100
AcDbVisualStyle
  2
FlatWithEdges
 70
     1
 71
     2
 72
     1
 73
     1
 90
        2
 40
0.6
 41
30.0
 62
     5
 63
     7
 74
     1
 91
        0
 64
     7
 65
   257
 75
     1
175
     1
 42
1.0
 92
        0
 66
   257
 43
1.0
 76
     1
 77
     6
 78
     2
 67
     7
 79
     5
170
     0
171
     0
290
     0
174
     0
 93
       13
 44
0.0
173
     0
291
     1
 45
0.0
1001
ACAD
1000
AcDbSavedByObjectVersion
1070
     0
  0
VISUALSTYLE
  5
2D
102
{ACAD_REACTORS
330
2A
102
}
102
{ACAD_XDICTIONARY
360
2C9
102
}
330
2A
100
AcDbVisualStyle
  2
Gouraud
 70
     2
 71
     2
 72
     2
 73
     1
 90
        2
 40
0.6
 41
30.0
 62
     5
 63
     7
 74
     0
 91
        0
 64
     7
 65
   257
 75
     1
175
     1
 42
1.0
 92
        0
 66
     7
 43
1.0
 76
     1
 77
     6
 78
     2
 67
     7
 79
     5
170
     0
171
     0
290
     0
174
     0
 93
       13
 44
0.0
173
     0
291
     1
 45
0.0
1001
ACAD
1000
AcDbSavedByObjectVersion
1070
     0
  0
VISUALSTYLE
  5
2E
102
{ACAD_REACTORS
330
2A
102
}
102
{ACAD_XDICTIONARY
360
2CB
102
}
330
2A
100
AcDbVisualStyle
  2
GouraudWithEdges
 70
     3
 71
     2
 72
     2
 73
     1
 90
        2
 40
0.6
 41
30.0
 62
     5
 63
     7
 74
     1
 91
        0
 64
     7
 65
   257
 75
     1
175
     1
 42
1.0
 92
        0
 66
   257
 43
1.0
 76
     1
 77
     6
 78
     2
 67
     7
 79
     5
170
     0
171
     0
290
     0
174
     0
 93
       13
 44
0.0
173
     0
291
     1
 45
0.0
1001
ACAD
1000
AcDbSavedByObjectVersion
1070
     0
  0
VISUALSTYLE
  5
31
102
{ACAD_REACTORS
330
2A
102
}
102
{ACAD_XDICTIONARY
360
2D1
102
}
330
2A
100
AcDbVisualStyle
  2
Hidden
 70
     6
 71
     1
 72
     2
 73
     2
 90
        0
 40
0.6
 41
30.0
 62
     5
 63
     7
 74
     2
 91
        2
 64
     7
 65
   257
 75
     2
175
     1
 42
40.0
 92
        0
 66
   257
 43
1.0
 76
     1
 77
     6
 78
     2
 67
     7
 79
     3
170
     0
171
     0
290
     0
174
     0
 93
        1
 44
0.0
173
     0
291
     0
 45
0.0
1001
ACAD
1000
AcDbSavedByObjectVersion
1070
     0
  0
VISUALSTYLE
  5
3B
102
{ACAD_REACTORS
330
2A
102
}
102
{ACAD_XDICTIONARY
360
2E5
102
}
330
2A
100
AcDbVisualStyle
  2
JitterOff
 70
    20
 71
     2
 72
     2
 73
     0
 90
        0
 40
0.6
 41
30.0
 62
     5
 63
     7
 74
     1
 91
        4
 64
     7
 65
   257
 75
     1
175
     1
 42
1.0
 92
       10
 66
     7
 43
1.0
 76
     1
 77
     6
 78
     2
 67
     7
 79
     5
170
     0
171
     0
290
     0
174
     0
 93
        1
 44
0.0
173
     0
291
     1
 45
0.0
1001
ACAD
1000
AcDbSavedByObjectVersion
1070
     0
  0
VISUALSTYLE
  5
38
102
{ACAD_REACTORS
330
2A
102
}
102
{ACAD_XDICTIONARY
360
2DF
102
}
330
2A
100
AcDbVisualStyle
  2
Linepattern
 70
    14
 71
     2
 72
     2
 73
     0
 90
        0
 40
0.6
 41
30.0
 62
     5
 63
     7
 74
     1
 91
        4
 64
     7
 65
   257
 75
     7
175
     7
 42
1.0
 92
        8
 66
     7
 43
1.0
 76
     1
 77
     6
 78
     2
 67
     7
 79
     5
170
     0
171
     0
290
     0
174
     0
 93
        1
 44
0.0
173
     0
291
     1
 45
0.0
1001
ACAD
1000
AcDbSavedByObjectVersion
1070
     0
  0
VISUALSTYLE
  5
3C
102
{ACAD_REACTORS
330
2A
102
}
102
{ACAD_XDICTIONARY
360
2E7
102
}
330
2A
100
AcDbVisualStyle
  2
OverhangOff
 70
    21
 71
     2
 72
     2
 73
     0
 90
        0
 40
0.6
 41
30.0
 62
     5
 63
     7
 74
     1
 91
        4
 64
     7
 65
   257
 75
     1
175
     1
 42
1.0
 92
        9
 66
     7
 43
1.0
 76
     1
 77
     6
 78
     2
 67
     7
 79
     5
170
     0
171
     0
290
     0
174
     0
 93
        1
 44
0.0
173
     0
291
     1
 45
0.0
1001
ACAD
1000
AcDbSavedByObjectVersion
1070
     0
  0
VISUALSTYLE
  5
33
102
{ACAD_REACTORS
330
2A
102
}
102
{ACAD_XDICTIONARY
360
2D5
102
}
330
2A
100
AcDbVisualStyle
  2
Realistic
 70
     8
 71
     2
 72
     3
 73
     0
 90
        2
 40
0.6
 41
30.0
 62
     5
 63
     7
 74
     0
 91
        0
 64
     7
 65
   257
 75
     1
175
     1
 42
1.0
 92
        8
 66
   257
 43
1.0
 76
     1
 77
     6
 78
     2
 67
     7
 79
     3
170
     0
171
     0
290
     0
174
     0
 93
       13
 44
0.0
173
     0
291
     0
 45
0.0
1001
ACAD
1000
AcDbSavedByObjectVersion
1070
     0
  0
VISUALSTYLE
  5
42
102
{ACAD_REACTORS
330
2A
102
}
102
{ACAD_XDICTIONARY
360
2F3
102
}
330
2A
100
AcDbVisualStyle
  2
Shaded
 70
    27
 71
     2
 72
     2
 73
     1
 90
        2
 40
0.6
 41
30.0
 62
     5
 63
     7
 74
     0
 91
        4
 64
     7
 65
   257
 75
     1
175
     1
 42
1.0
 92
        8
 66
   257
 43
1.0
 76
     1
 77
     6
 78
     2
 67
     8
 79
     3
170
     0
171
     0
290
     0
174
     0
 93
        5
 44
0.0
173
     0
291
     0
 45
0.0
1001
ACAD
1000
AcDbSavedByObjectVersion
1070
     0
  0
VISUALSTYLE
  5
41
102
{ACAD_REACTORS
330
2A
102
}
102
{ACAD_XDICTIONARY
360
2F1
102
}
330
2A
100
AcDbVisualStyle
  2
Shaded with edges
 70
    26
 71
     2
 72
     2
 73
     1
 90
        2
 40
0.6
 41
30.0
 62
     5
 63
     7
 74
     1
 91
       10
 64
     7
 65
   257
 75
     2
175
     1
 42
1.0
 92
        8
 66
   257
 43
1.0
 76
     1
 77
     6
 78
     2
 67
     7
 79
     3
170
     0
171
     0
290
     0
174
     0
 93
        5
 44
0.0
173
     0
291
     0
 45
0.0
1001
ACAD
1000
AcDbSavedByObjectVersion
1070
     0
  0
VISUALSTYLE
  5
3E
102
{ACAD_REACTORS
330
2A
102
}
102
{ACAD_XDICTIONARY
360
2EB
102
}
330
2A
100
AcDbVisualStyle
  2
Shades of Gray
 70
    23
 71
     2
 72
     2
 73
     3
 90
        0
 40
0.6
 41
30.0
 62
     5
 63
     7
 74
     2
 91
        2
 64
     7
 65
     7
 75
     1
175
     1
 42
40.0
 92
        8
 66
     7
 43
1.0
 76
     1
 77
     6
 78
     2
 67
     7
 79
     3
170
     0
171
     0
290
     0
174
     0
 93
        1
 44
0.0
173
     0
291
     0
 45
0.0
1001
ACAD
1000
AcDbSavedByObjectVersion
1070
     0
  0
VISUALSTYLE
  5
3F
102
{ACAD_REACTORS
330
2A
102
}
102
{ACAD_XDICTIONARY
360
2ED
102
}
330
2A
100
AcDbVisualStyle
  2
Sketchy
 70
    24
 71
     1
 72
     2
 73
     2
 90
        0
 40
0.6
 41
30.0
 62
     5
 63
     7
 74
     2
 91
        2
 64
     7
 65
     7
 75
     1
175
     1
 42
40.0
 92
       11
 66
     7
 43
1.0
 76
     1
 77
     6
 78
     2
 67
     7
 79
     6
170
     0
171
     0
290
     0
174
     0
 93
        1
 44
0.0
173
     0
291
     0
 45
0.0
1001
ACAD
1000
AcDbSavedByObjectVersion
1070
     0
  0
VISUALSTYLE
  5
37
102
{ACAD_REACTORS
330
2A
102
}
102
{ACAD_XDICTIONARY
360
2DD
102
}
330
2A
100
AcDbVisualStyle
  2
Thicken
 70
    13
 71
     2
 72
     2
 73
     0
 90
        0
 40
0.6
 41
30.0
 62
     5
 63
     7
 74
     1
 91
        4
 64
     7
 65
   257
 75
     1
175
     1
 42
1.0
 92
       12
 66
     7
 43
1.0
 76
     1
 77
     6
 78
     2
 67
     7
 79
     5
170
     0
171
     0
290
     0
174
     0
 93
        1
 44
0.0
173
     0
291
     1
 45
0.0
1001
ACAD
1000
AcDbSavedByObjectVersion
1070
     0
  0
VISUALSTYLE
  5
30
102
{ACAD_REACTORS
330
2A
102
}
102
{ACAD_XDICTIONARY
360
2CF
102
}
330
2A
100
AcDbVisualStyle
  2
Wireframe
 70
     5
 71
     0
 72
     2
 73
     0
 90
        0
 40
0.6
 41
30.0
 62
     5
 63
     7
 74
     1
 91
        4
 64
     7
 65
   257
 75
     1
175
     1
 42
1.0
 92
        0
 66
   257
 43
1.0
 76
     1
 77
     6
 78
     2
 67
     7
 79
     3
170
     0
171
     0
290
     0
174
     0
 93
        1
 44
0.0
173
     0
291
     0
 45
0.0
1001
ACAD
1000
AcDbSavedByObjectVersion
1070
     0
  0
VISUALSTYLE
  5
40
102
{ACAD_REACTORS
330
2A
102
}
102
{ACAD_XDICTIONARY
360
2EF
102
}
330
2A
100
AcDbVisualStyle
  2
X-Ray
 70
    25
 71
     2
 72
     2
 73
     1
 90
        1
 40
0.5
 41
30.0
 62
     5
 63
     7
 74
     1
 91
        0
 64
     7
 65
   257
 75
     1
175
     1
 42
1.0
 92
        8
 66
     7
 43
1.0
 76
     1
 77
     6
 78
     2
 67
     7
 79
     3
170
     0
171
     0
290
     0
174
     0
 93
       13
 44
0.0
173
     0
291
     0
 45
0.0
1001
ACAD
1000
AcDbSavedByObjectVersion
1070
     0
  0
DICTIONARYVAR
  5
2C3
102
{ACAD_REACTORS
330
2BA
102
}
330
2BA
100
DictionaryVariables
280
     0
  1
1:1
  0
DICTIONARYVAR
  5
2BC
102
{ACAD_REACTORS
330
2BA
102
}
330
2BA
100
DictionaryVariables
280
     0
  1
Standard
  0
DICTIONARYVAR
  5
2BB
102
{ACAD_REACTORS
330
2BA
102
}
330
2BA
100
DictionaryVariables
280
     0
  1
Standard
  0
DICTIONARYVAR
  5
2BF
102
{ACAD_REACTORS
330
2BA
102
}
330
2BA
100
DictionaryVariables
280
     0
  1
2
  0
DICTIONARYVAR
  5
2C0
102
{ACAD_REACTORS
330
2BA
102
}
330
2BA
100
DictionaryVariables
280
     0
  1
1
  0
DICTIONARYVAR
  5
2C4
102
{ACAD_REACTORS
330
2BA
102
}
330
2BA
100
DictionaryVariables
280
     0
  1
1
  0
DICTIONARY
  5
2F7
330
45
100
AcDbDictionary
280
     1
281
     1
  3
ACAD_XREC_ROUNDTRIP
360
2F8
  0
DICTIONARY
  5
2F5
330
44
100
AcDbDictionary
280
     1
281
     1
  3
ACAD_XREC_ROUNDTRIP
360
2F6
  0
DICTIONARY
  5
2F9
330
46
100
AcDbDictionary
280
     1
281
     1
  3
ACAD_XREC_ROUNDTRIP
360
2FA
  0
DICTIONARY
  5
2FC
330
6C
100
AcDbDictionary
280
     1
281
     1
  3
ACAD_XREC_ROUNDTRIP
360
2FD
  0
DICTIONARY
  5
2CD
330
2F
100
AcDbDictionary
280
     1
281
     1
  3
ACAD_XREC_ROUNDTRIP
360
2CE
  0
DICTIONARY
  5
2D3
330
32
100
AcDbDictionary
280
     1
281
     1
  3
ACAD_XREC_ROUNDTRIP
360
2D4
  0
DICTIONARY
  5
2DB
330
36
100
AcDbDictionary
280
     1
281
     1
  3
ACAD_XREC_ROUNDTRIP
360
2DC
  0
DICTIONARY
  5
2E3
330
3A
100
AcDbDictionary
280
     1
281
     1
  3
ACAD_XREC_ROUNDTRIP
360
2E4
  0
DICTIONARY
  5
2D7
330
34
100
AcDbDictionary
280
     1
281
     1
  3
ACAD_XREC_ROUNDTRIP
360
2D8
  0
DICTIONARY
  5
2D9
330
35
100
AcDbDictionary
280
     1
281
     1
  3
ACAD_XREC_ROUNDTRIP
360
2DA
  0
DICTIONARY
  5
2E9
330
3D
100
AcDbDictionary
280
     1
281
     1
  3
ACAD_XREC_ROUNDTRIP
360
2EA
  0
DICTIONARY
  5
2E1
330
39
100
AcDbDictionary
280
     1
281
     1
  3
ACAD_XREC_ROUNDTRIP
360
2E2
  0
DICTIONARY
  5
2C5
330
2B
100
AcDbDictionary
280
     1
281
     1
  3
ACAD_XREC_ROUNDTRIP
360
2C6
  0
DICTIONARY
  5
2C7
330
2C
100
AcDbDictionary
280
     1
281
     1
  3
ACAD_XREC_ROUNDTRIP
360
2C8
  0
DICTIONARY
  5
2C9
330
2D
100
AcDbDictionary
280
     1
281
     1
  3
ACAD_XREC_ROUNDTRIP
360
2CA
  0
DICTIONARY
  5
2CB
330
2E
100
AcDbDictionary
280
     1
281
     1
  3
ACAD_XREC_ROUNDTRIP
360
2CC
  0
DICTIONARY
  5
2D1
330
31
100
AcDbDictionary
280
     1
281
     1
  3
ACAD_XREC_ROUNDTRIP
360
2D2
  0
DICTIONARY
  5
2E5
330
3B
100
AcDbDictionary
280
     1
281
     1
  3
ACAD_XREC_ROUNDTRIP
360
2E6
  0
DICTIONARY
  5
2DF
330
38
100
AcDbDictionary
280
     1
281
     1
  3
ACAD_XREC_ROUNDTRIP
360
2E0
  0
DICTIONARY
  5
2E7
330
3C
100
AcDbDictionary
280
     1
281
     1
  3
ACAD_XREC_ROUNDTRIP
360
2E8
  0
DICTIONARY
  5
2D5
330
33
100
AcDbDictionary
280
     1
281
     1
  3
ACAD_XREC_ROUNDTRIP
360
2D6
  0
DICTIONARY
  5
2F3
330
42
100
AcDbDictionary
280
     1
281
     1
  3
ACAD_XREC_ROUNDTRIP
360
2F4
  0
DICTIONARY
  5
2F1
330
41
100
AcDbDictionary
280
     1
281
     1
  3
ACAD_XREC_ROUNDTRIP
360
2F2
  0
DICTIONARY
  5
2EB
330
3E
100
AcDbDictionary
280
     1
281
     1
  3
ACAD_XREC_ROUNDTRIP
360
2EC
  0
DICTIONARY
  5
2ED
330
3F
100
AcDbDictionary
280
     1
281
     1
  3
ACAD_XREC_ROUNDTRIP
360
2EE
  0
DICTIONARY
  5
2DD
330
37
100
AcDbDictionary
280
     1
281
     1
  3
ACAD_XREC_ROUNDTRIP
360
2DE
  0
DICTIONARY
  5
2CF
330
30
100
AcDbDictionary
280
     1
281
     1
  3
ACAD_XREC_ROUNDTRIP
360
2D0
  0
DICTIONARY
  5
2EF
330
40
100
AcDbDictionary
280
     1
281
     1
  3
ACAD_XREC_ROUNDTRIP
360
2F0
  0
XRECORD
  5
2F8
102
{ACAD_REACTORS
330
2F7
102
}
330
2F7
100
AcDbXrecord
280
     1
102
MATERIAL
148
0.0
149
0.0
149
0.0
 93
        0
 94
      127
282
     0
 72
     1
 77
     1
171
     1
175
     1
179
     1
273
     0
  0
XRECORD
  5
2F6
102
{ACAD_REACTORS
330
2F5
102
}
330
2F5
100
AcDbXrecord
280
     1
102
MATERIAL
148
0.0
149
0.0
149
0.0
 93
        0
 94
      127
282
     0
 72
     1
 77
     1
171
     1
175
     1
179
     1
273
     0
  0
XRECORD
  5
2FA
102
{ACAD_REACTORS
330
2F9
102
}
330
2F9
100
AcDbXrecord
280
     1
102
MATERIAL
148
0.0
149
0.0
149
0.0
 93
        0
 94
      127
282
     0
 72
     1
 77
     1
171
     1
175
     1
179
     1
273
     0
  0
XRECORD
  5
2FD
102
{ACAD_REACTORS
330
2FC
102
}
330
2FC
100
AcDbXrecord
280
     1
102
ACAD_ROUNDTRIP_2010_MLEADER_STYLE
  0
XRECORD
  5
2CE
102
{ACAD_REACTORS
330
2CD
102
}
330
2CD
100
AcDbXrecord
280
     1
102
RTVSPropertyOp0
 70
     1
102
RTVSPropertyOp1
 70
     1
102
RTVSPropertyOp2
 70
     1
102
RTVSPropertyOp3
 70
     1
102
RTVSPropertyOp4
 70
     1
102
RTVSPropertyOp5
 70
     1
102
RTVSPropertyOp6
 70
     1
102
RTVSPropertyOp7
 70
     1
102
RTVSPropertyOp8
 70
     1
102
RTVSPropertyOp9
 70
     1
102
RTVSPropertyOp10
 70
     1
102
RTVSPropertyOp11
 70
     1
102
RTVSPropertyOp12
 70
     1
102
RTVSPropertyOp13
 70
     1
102
RTVSPropertyOp14
 70
     1
102
RTVSPropertyOp15
 70
     1
102
RTVSPropertyOp16
 70
     1
102
RTVSPropertyOp17
 70
     1
102
RTVSPropertyOp18
 70
     1
102
RTVSPropertyOp19
 70
     1
102
RTVSPropertyOp20
 70
     1
102
RTVSPropertyOp21
 70
     1
102
RTVSPropertyOp22
 70
     1
102
RTVSPropertyOp23
 70
     1
102
RTVSPropertyOp24
 70
     1
102
RTVSPropertyOp25
 70
     1
102
RTVSPropertyOp26
 70
     1
102
RTVSPropertyOp27
 70
     1
102
RTVSPropertyOp28
 70
     1
102
RTVSPropertyOp29
 70
     1
102
RTVSPropertyOp30
 70
     1
102
RTVSPropertyOp31
 70
     1
102
RTVSPropertyOp32
 70
     1
102
RTVSPropertyOp33
 70
     1
102
RTVSPropertyOp34
 70
     1
102
RTVSPropertyOp35
 70
     1
102
RTVSPropertyOp36
 70
     1
102
RTVSPropertyOp37
 70
     1
102
RTVSPropertyOp38
 70
     1
102
RTVSPropertyOp39
 70
     1
102
RTVSPropertyOp40
 70
     1
102
RTVSPropertyOp41
 70
     1
102
RTVSPropertyOp42
 70
     1
102
RTVSPropertyOp43
 70
     1
102
RTVSPropertyOp44
 70
     1
102
RTVSPropertyOp45
 70
     1
102
RTVSPropertyOp46
 70
     1
102
RTVSPropertyOp47
 70
     1
102
RTVSPropertyOp48
 70
     1
102
RTVSPropertyOp49
 70
     1
102
RTVSPropertyOp50
 70
     1
102
RTVSPropertyOp51
 70
     0
102
RTVSPropertyOp52
 70
     0
102
RTVSPropertyOp53
 70
     1
102
RTVSPropertyOp54
 70
     1
102
RTVSPropertyOp55
 70
     1
102
RTVSPropertyOp56
 70
     1
102
RTVSPropertyOp57
 70
     1
102
RTVSPost2010Prop28
280
     1
102
RTVSPost2010PropOp28
 70
     1
102
RTVSPost2010Prop29
280
     1
102
RTVSPost2010PropOp29
 70
     1
102
RTVSPost2010Prop30
280
     0
102
RTVSPost2010PropOp30
 70
     1
102
RTVSPost2010Prop31
280
     0
102
RTVSPost2010PropOp31
 70
     1
102
RTVSPost2010Prop32
280
     0
102
RTVSPost2010PropOp32
 70
     1
102
RTVSPost2010Prop33
280
     0
102
RTVSPost2010PropOp33
 70
     1
102
RTVSPost2010Prop34
280
     0
102
RTVSPost2010PropOp34
 70
     1
102
RTVSPost2010Prop35
280
     0
102
RTVSPost2010PropOp35
 70
     1
102
RTVSPost2010Prop36
280
     0
102
RTVSPost2010PropOp36
 70
     1
102
RTVSPost2010Prop37
 90
       50
102
RTVSPost2010PropOp37
 70
     1
102
RTVSPost2010Prop38
140
0.0
102
RTVSPost2010PropOp38
 70
     1
102
RTVSPost2010Prop39
140
1.0
102
RTVSPost2010PropOp39
 70
     1
102
RTVSPost2010Prop40
 90
        0
102
RTVSPost2010PropOp40
 70
     1
102
RTVSPost2010Prop41ColorIndex
 90
       18
102
RTVSPost2010Prop41ColorRGB
 90
        0
102
RTVSPost2010PropOp41
 70
     1
102
RTVSPost2010Prop42
 90
       50
102
RTVSPost2010PropOp42
 70
     1
102
RTVSPost2010Prop43
 90
        3
102
RTVSPost2010PropOp43
 70
     1
102
RTVSPost2010Prop44ColorIndex
 90
        5
102
RTVSPost2010Prop44ColorRGB
 90
      255
102
RTVSPost2010PropOp44
 70
     1
102
RTVSPost2010Prop45
280
     0
102
RTVSPost2010PropOp45
 70
     1
102
RTVSPost2010Prop46
 90
       50
102
RTVSPost2010PropOp46
 70
     1
102
RTVSPost2010Prop47
 90
       50
102
RTVSPost2010PropOp47
 70
     1
102
RTVSPost2010Prop48
 90
       50
102
RTVSPost2010PropOp48
 70
     1
102
RTVSPost2010Prop49
280
     0
102
RTVSPost2010PropOp49
 70
     1
102
RTVSPost2010Prop50
 90
       50
102
RTVSPost2010PropOp50
 70
     1
102
RTVSPost2010Prop51ColorIndex
 90
      256
102
RTVSPost2010Prop51ColorRGB
 90
-16777216
102
RTVSPost2010PropOp51
 70
     0
102
RTVSPost2010Prop52
140
1.0
102
RTVSPost2010PropOp52
 70
     0
102
RTVSPost2010Prop53
 90
        2
102
RTVSPost2010PropOp53
 70
     1
102
RTVSPost2010Prop54
  1
strokes_ogs.tif
102
RTVSPost2010PropOp54
 70
     1
102
RTVSPost2010Prop55
280
     0
102
RTVSPost2010PropOp55
 70
     1
102
RTVSPost2010Prop56
140
1.0
102
RTVSPost2010PropOp56
 70
     1
102
RTVSPost2010Prop57
140
1.0
102
RTVSPost2010PropOp57
 70
     1
  0
XRECORD
  5
2D4
102
{ACAD_REACTORS
330
2D3
102
}
330
2D3
100
AcDbXrecord
280
     1
102
RTVSPropertyOp0
 70
     1
102
RTVSPropertyOp1
 70
     1
102
RTVSPropertyOp2
 70
     1
102
RTVSPropertyOp3
 70
     1
102
RTVSPropertyOp4
 70
     1
102
RTVSPropertyOp5
 70
     1
102
RTVSPropertyOp6
 70
     1
102
RTVSPropertyOp7
 70
     1
102
RTVSPropertyOp8
 70
     1
102
RTVSPropertyOp9
 70
     1
102
RTVSPropertyOp10
 70
     1
102
RTVSPropertyOp11
 70
     1
102
RTVSPropertyOp12
 70
     1
102
RTVSPropertyOp13
 70
     1
102
RTVSPropertyOp14
 70
     1
102
RTVSPropertyOp15
 70
     1
102
RTVSPropertyOp16
 70
     1
102
RTVSPropertyOp17
 70
     1
102
RTVSPropertyOp18
 70
     1
102
RTVSPropertyOp19
 70
     1
102
RTVSPropertyOp20
 70
     1
102
RTVSPropertyOp21
 70
     1
102
RTVSPropertyOp22
 70
     1
102
RTVSPropertyOp23
 70
     1
102
RTVSPropertyOp24
 70
     1
102
RTVSPropertyOp25
 70
     1
102
RTVSPropertyOp26
 70
     1
102
RTVSPropertyOp27
 70
     1
102
RTVSPropertyOp28
 70
     1
102
RTVSPropertyOp29
 70
     1
102
RTVSPropertyOp30
 70
     1
102
RTVSPropertyOp31
 70
     1
102
RTVSPropertyOp32
 70
     1
102
RTVSPropertyOp33
 70
     1
102
RTVSPropertyOp34
 70
     1
102
RTVSPropertyOp35
 70
     1
102
RTVSPropertyOp36
 70
     1
102
RTVSPropertyOp37
 70
     1
102
RTVSPropertyOp38
 70
     1
102
RTVSPropertyOp39
 70
     1
102
RTVSPropertyOp40
 70
     1
102
RTVSPropertyOp41
 70
     1
102
RTVSPropertyOp42
 70
     1
102
RTVSPropertyOp43
 70
     1
102
RTVSPropertyOp44
 70
     1
102
RTVSPropertyOp45
 70
     1
102
RTVSPropertyOp46
 70
     1
102
RTVSPropertyOp47
 70
     1
102
RTVSPropertyOp48
 70
     1
102
RTVSPropertyOp49
 70
     1
102
RTVSPropertyOp50
 70
     1
102
RTVSPropertyOp51
 70
     0
102
RTVSPropertyOp52
 70
     0
102
RTVSPropertyOp53
 70
     1
102
RTVSPropertyOp54
 70
     1
102
RTVSPropertyOp55
 70
     1
102
RTVSPropertyOp56
 70
     1
102
RTVSPropertyOp57
 70
     1
102
RTVSPost2010Prop28
280
     0
102
RTVSPost2010PropOp28
 70
     1
102
RTVSPost2010Prop29
280
     1
102
RTVSPost2010PropOp29
 70
     1
102
RTVSPost2010Prop30
280
     1
102
RTVSPost2010PropOp30
 70
     1
102
RTVSPost2010Prop31
280
     0
102
RTVSPost2010PropOp31
 70
     1
102
RTVSPost2010Prop32
280
     0
102
RTVSPost2010PropOp32
 70
     1
102
RTVSPost2010Prop33
280
     0
102
RTVSPost2010PropOp33
 70
     1
102
RTVSPost2010Prop34
280
     0
102
RTVSPost2010PropOp34
 70
     1
102
RTVSPost2010Prop35
280
     0
102
RTVSPost2010PropOp35
 70
     1
102
RTVSPost2010Prop36
280
     0
102
RTVSPost2010PropOp36
 70
     1
102
RTVSPost2010Prop37
 90
       50
102
RTVSPost2010PropOp37
 70
     1
102
RTVSPost2010Prop38
140
0.0
102
RTVSPost2010PropOp38
 70
     1
102
RTVSPost2010Prop39
140
1.0
102
RTVSPost2010PropOp39
 70
     1
102
RTVSPost2010Prop40
 90
        0
102
RTVSPost2010PropOp40
 70
     1
102
RTVSPost2010Prop41ColorIndex
 90
       18
102
RTVSPost2010Prop41ColorRGB
 90
        0
102
RTVSPost2010PropOp41
 70
     1
102
RTVSPost2010Prop42
 90
       50
102
RTVSPost2010PropOp42
 70
     1
102
RTVSPost2010Prop43
 90
        3
102
RTVSPost2010PropOp43
 70
     1
102
RTVSPost2010Prop44ColorIndex
 90
        5
102
RTVSPost2010Prop44ColorRGB
 90
      255
102
RTVSPost2010PropOp44
 70
     1
102
RTVSPost2010Prop45
280
     0
102
RTVSPost2010PropOp45
 70
     1
102
RTVSPost2010Prop46
 90
       50
102
RTVSPost2010PropOp46
 70
     1
102
RTVSPost2010Prop47
 90
       50
102
RTVSPost2010PropOp47
 70
     1
102
RTVSPost2010Prop48
 90
       50
102
RTVSPost2010PropOp48
 70
     1
102
RTVSPost2010Prop49
280
     0
102
RTVSPost2010PropOp49
 70
     1
102
RTVSPost2010Prop50
 90
       50
102
RTVSPost2010PropOp50
 70
     1
102
RTVSPost2010Prop51ColorIndex
 90
      256
102
RTVSPost2010Prop51ColorRGB
 90
-16777216
102
RTVSPost2010PropOp51
 70
     0
102
RTVSPost2010Prop52
140
1.0
102
RTVSPost2010PropOp52
 70
     0
102
RTVSPost2010Prop53
 90
        2
102
RTVSPost2010PropOp53
 70
     1
102
RTVSPost2010Prop54
  1
strokes_ogs.tif
102
RTVSPost2010PropOp54
 70
     1
102
RTVSPost2010Prop55
280
     0
102
RTVSPost2010PropOp55
 70
     1
102
RTVSPost2010Prop56
140
1.0
102
RTVSPost2010PropOp56
 70
     1
102
RTVSPost2010Prop57
140
1.0
102
RTVSPost2010PropOp57
 70
     1
  0
XRECORD
  5
2DC
102
{ACAD_REACTORS
330
2DB
102
}
330
2DB
100
AcDbXrecord
280
     1
102
RTVSPropertyOp0
 70
     1
102
RTVSPropertyOp1
 70
     1
102
RTVSPropertyOp2
 70
     1
102
RTVSPropertyOp3
 70
     1
102
RTVSPropertyOp4
 70
     1
102
RTVSPropertyOp5
 70
     1
102
RTVSPropertyOp6
 70
     1
102
RTVSPropertyOp7
 70
     1
102
RTVSPropertyOp8
 70
     1
102
RTVSPropertyOp9
 70
     1
102
RTVSPropertyOp10
 70
     1
102
RTVSPropertyOp11
 70
     1
102
RTVSPropertyOp12
 70
     1
102
RTVSPropertyOp13
 70
     1
102
RTVSPropertyOp14
 70
     1
102
RTVSPropertyOp15
 70
     1
102
RTVSPropertyOp16
 70
     1
102
RTVSPropertyOp17
 70
     1
102
RTVSPropertyOp18
 70
     1
102
RTVSPropertyOp19
 70
     1
102
RTVSPropertyOp20
 70
     1
102
RTVSPropertyOp21
 70
     1
102
RTVSPropertyOp22
 70
     1
102
RTVSPropertyOp23
 70
     1
102
RTVSPropertyOp24
 70
     1
102
RTVSPropertyOp25
 70
     1
102
RTVSPropertyOp26
 70
     1
102
RTVSPropertyOp27
 70
     1
102
RTVSPropertyOp28
 70
     1
102
RTVSPropertyOp29
 70
     1
102
RTVSPropertyOp30
 70
     1
102
RTVSPropertyOp31
 70
     1
102
RTVSPropertyOp32
 70
     1
102
RTVSPropertyOp33
 70
     1
102
RTVSPropertyOp34
 70
     1
102
RTVSPropertyOp35
 70
     1
102
RTVSPropertyOp36
 70
     1
102
RTVSPropertyOp37
 70
     1
102
RTVSPropertyOp38
 70
     1
102
RTVSPropertyOp39
 70
     1
102
RTVSPropertyOp40
 70
     1
102
RTVSPropertyOp41
 70
     1
102
RTVSPropertyOp42
 70
     1
102
RTVSPropertyOp43
 70
     1
102
RTVSPropertyOp44
 70
     1
102
RTVSPropertyOp45
 70
     1
102
RTVSPropertyOp46
 70
     1
102
RTVSPropertyOp47
 70
     1
102
RTVSPropertyOp48
 70
     1
102
RTVSPropertyOp49
 70
     1
102
RTVSPropertyOp50
 70
     1
102
RTVSPropertyOp51
 70
     0
102
RTVSPropertyOp52
 70
     0
102
RTVSPropertyOp53
 70
     1
102
RTVSPropertyOp54
 70
     1
102
RTVSPropertyOp55
 70
     1
102
RTVSPropertyOp56
 70
     1
102
RTVSPropertyOp57
 70
     1
102
RTVSPost2010Prop28
280
     0
102
RTVSPost2010PropOp28
 70
     1
102
RTVSPost2010Prop29
280
     1
102
RTVSPost2010PropOp29
 70
     1
102
RTVSPost2010Prop30
280
     1
102
RTVSPost2010PropOp30
 70
     1
102
RTVSPost2010Prop31
280
     0
102
RTVSPost2010PropOp31
 70
     1
102
RTVSPost2010Prop32
280
     0
102
RTVSPost2010PropOp32
 70
     1
102
RTVSPost2010Prop33
280
     0
102
RTVSPost2010PropOp33
 70
     1
102
RTVSPost2010Prop34
280
     0
102
RTVSPost2010PropOp34
 70
     1
102
RTVSPost2010Prop35
280
     0
102
RTVSPost2010PropOp35
 70
     1
102
RTVSPost2010Prop36
280
     0
102
RTVSPost2010PropOp36
 70
     1
102
RTVSPost2010Prop37
 90
       50
102
RTVSPost2010PropOp37
 70
     1
102
RTVSPost2010Prop38
140
0.0
102
RTVSPost2010PropOp38
 70
     1
102
RTVSPost2010Prop39
140
1.0
102
RTVSPost2010PropOp39
 70
     1
102
RTVSPost2010Prop40
 90
        0
102
RTVSPost2010PropOp40
 70
     1
102
RTVSPost2010Prop41ColorIndex
 90
       18
102
RTVSPost2010Prop41ColorRGB
 90
        0
102
RTVSPost2010PropOp41
 70
     1
102
RTVSPost2010Prop42
 90
       50
102
RTVSPost2010PropOp42
 70
     1
102
RTVSPost2010Prop43
 90
        3
102
RTVSPost2010PropOp43
 70
     1
102
RTVSPost2010Prop44ColorIndex
 90
        5
102
RTVSPost2010Prop44ColorRGB
 90
      255
102
RTVSPost2010PropOp44
 70
     1
102
RTVSPost2010Prop45
280
     0
102
RTVSPost2010PropOp45
 70
     1
102
RTVSPost2010Prop46
 90
       50
102
RTVSPost2010PropOp46
 70
     1
102
RTVSPost2010Prop47
 90
       50
102
RTVSPost2010PropOp47
 70
     1
102
RTVSPost2010Prop48
 90
       50
102
RTVSPost2010PropOp48
 70
     1
102
RTVSPost2010Prop49
280
     0
102
RTVSPost2010PropOp49
 70
     1
102
RTVSPost2010Prop50
 90
       50
102
RTVSPost2010PropOp50
 70
     1
102
RTVSPost2010Prop51ColorIndex
 90
      256
102
RTVSPost2010Prop51ColorRGB
 90
-16777216
102
RTVSPost2010PropOp51
 70
     0
102
RTVSPost2010Prop52
140
1.0
102
RTVSPost2010PropOp52
 70
     0
102
RTVSPost2010Prop53
 90
        2
102
RTVSPost2010PropOp53
 70
     1
102
RTVSPost2010Prop54
  1
strokes_ogs.tif
102
RTVSPost2010PropOp54
 70
     1
102
RTVSPost2010Prop55
280
     0
102
RTVSPost2010PropOp55
 70
     1
102
RTVSPost2010Prop56
140
1.0
102
RTVSPost2010PropOp56
 70
     1
102
RTVSPost2010Prop57
140
1.0
102
RTVSPost2010PropOp57
 70
     1
  0
XRECORD
  5
2E4
102
{ACAD_REACTORS
330
2E3
102
}
330
2E3
100
AcDbXrecord
280
     1
102
RTVSPropertyOp0
 70
     1
102
RTVSPropertyOp1
 70
     1
102
RTVSPropertyOp2
 70
     1
102
RTVSPropertyOp3
 70
     1
102
RTVSPropertyOp4
 70
     1
102
RTVSPropertyOp5
 70
     1
102
RTVSPropertyOp6
 70
     1
102
RTVSPropertyOp7
 70
     1
102
RTVSPropertyOp8
 70
     1
102
RTVSPropertyOp9
 70
     1
102
RTVSPropertyOp10
 70
     1
102
RTVSPropertyOp11
 70
     1
102
RTVSPropertyOp12
 70
     1
102
RTVSPropertyOp13
 70
     1
102
RTVSPropertyOp14
 70
     1
102
RTVSPropertyOp15
 70
     1
102
RTVSPropertyOp16
 70
     1
102
RTVSPropertyOp17
 70
     1
102
RTVSPropertyOp18
 70
     1
102
RTVSPropertyOp19
 70
     1
102
RTVSPropertyOp20
 70
     1
102
RTVSPropertyOp21
 70
     1
102
RTVSPropertyOp22
 70
     1
102
RTVSPropertyOp23
 70
     1
102
RTVSPropertyOp24
 70
     1
102
RTVSPropertyOp25
 70
     1
102
RTVSPropertyOp26
 70
     1
102
RTVSPropertyOp27
 70
     1
102
RTVSPropertyOp28
 70
     1
102
RTVSPropertyOp29
 70
     1
102
RTVSPropertyOp30
 70
     1
102
RTVSPropertyOp31
 70
     1
102
RTVSPropertyOp32
 70
     1
102
RTVSPropertyOp33
 70
     1
102
RTVSPropertyOp34
 70
     1
102
RTVSPropertyOp35
 70
     1
102
RTVSPropertyOp36
 70
     1
102
RTVSPropertyOp37
 70
     1
102
RTVSPropertyOp38
 70
     1
102
RTVSPropertyOp39
 70
     1
102
RTVSPropertyOp40
 70
     1
102
RTVSPropertyOp41
 70
     1
102
RTVSPropertyOp42
 70
     1
102
RTVSPropertyOp43
 70
     1
102
RTVSPropertyOp44
 70
     1
102
RTVSPropertyOp45
 70
     1
102
RTVSPropertyOp46
 70
     1
102
RTVSPropertyOp47
 70
     1
102
RTVSPropertyOp48
 70
     1
102
RTVSPropertyOp49
 70
     1
102
RTVSPropertyOp50
 70
     1
102
RTVSPropertyOp51
 70
     0
102
RTVSPropertyOp52
 70
     0
102
RTVSPropertyOp53
 70
     1
102
RTVSPropertyOp54
 70
     1
102
RTVSPropertyOp55
 70
     1
102
RTVSPropertyOp56
 70
     1
102
RTVSPropertyOp57
 70
     1
102
RTVSPost2010Prop28
280
     0
102
RTVSPost2010PropOp28
 70
     1
102
RTVSPost2010Prop29
280
     1
102
RTVSPost2010PropOp29
 70
     1
102
RTVSPost2010Prop30
280
     1
102
RTVSPost2010PropOp30
 70
     1
102
RTVSPost2010Prop31
280
     0
102
RTVSPost2010PropOp31
 70
     1
102
RTVSPost2010Prop32
280
     0
102
RTVSPost2010PropOp32
 70
     1
102
RTVSPost2010Prop33
280
     0
102
RTVSPost2010PropOp33
 70
     1
102
RTVSPost2010Prop34
280
     0
102
RTVSPost2010PropOp34
 70
     1
102
RTVSPost2010Prop35
280
     0
102
RTVSPost2010PropOp35
 70
     1
102
RTVSPost2010Prop36
280
     0
102
RTVSPost2010PropOp36
 70
     1
102
RTVSPost2010Prop37
 90
       50
102
RTVSPost2010PropOp37
 70
     1
102
RTVSPost2010Prop38
140
0.0
102
RTVSPost2010PropOp38
 70
     1
102
RTVSPost2010Prop39
140
1.0
102
RTVSPost2010PropOp39
 70
     1
102
RTVSPost2010Prop40
 90
        0
102
RTVSPost2010PropOp40
 70
     1
102
RTVSPost2010Prop41ColorIndex
 90
       18
102
RTVSPost2010Prop41ColorRGB
 90
        0
102
RTVSPost2010PropOp41
 70
     1
102
RTVSPost2010Prop42
 90
       50
102
RTVSPost2010PropOp42
 70
     1
102
RTVSPost2010Prop43
 90
        3
102
RTVSPost2010PropOp43
 70
     1
102
RTVSPost2010Prop44ColorIndex
 90
        5
102
RTVSPost2010Prop44ColorRGB
 90
      255
102
RTVSPost2010PropOp44
 70
     1
102
RTVSPost2010Prop45
280
     0
102
RTVSPost2010PropOp45
 70
     1
102
RTVSPost2010Prop46
 90
       50
102
RTVSPost2010PropOp46
 70
     1
102
RTVSPost2010Prop47
 90
       50
102
RTVSPost2010PropOp47
 70
     1
102
RTVSPost2010Prop48
 90
       50
102
RTVSPost2010PropOp48
 70
     1
102
RTVSPost2010Prop49
280
     0
102
RTVSPost2010PropOp49
 70
     1
102
RTVSPost2010Prop50
 90
       50
102
RTVSPost2010PropOp50
 70
     1
102
RTVSPost2010Prop51ColorIndex
 90
      256
102
RTVSPost2010Prop51ColorRGB
 90
-16777216
102
RTVSPost2010PropOp51
 70
     0
102
RTVSPost2010Prop52
140
1.0
102
RTVSPost2010PropOp52
 70
     0
102
RTVSPost2010Prop53
 90
        2
102
RTVSPost2010PropOp53
 70
     1
102
RTVSPost2010Prop54
  1
strokes_ogs.tif
102
RTVSPost2010PropOp54
 70
     1
102
RTVSPost2010Prop55
280
     0
102
RTVSPost2010PropOp55
 70
     1
102
RTVSPost2010Prop56
140
1.0
102
RTVSPost2010PropOp56
 70
     1
102
RTVSPost2010Prop57
140
1.0
102
RTVSPost2010PropOp57
 70
     1
  0
XRECORD
  5
2D8
102
{ACAD_REACTORS
330
2D7
102
}
330
2D7
100
AcDbXrecord
280
     1
102
RTVSPropertyOp0
 70
     1
102
RTVSPropertyOp1
 70
     1
102
RTVSPropertyOp2
 70
     1
102
RTVSPropertyOp3
 70
     1
102
RTVSPropertyOp4
 70
     1
102
RTVSPropertyOp5
 70
     1
102
RTVSPropertyOp6
 70
     1
102
RTVSPropertyOp7
 70
     1
102
RTVSPropertyOp8
 70
     1
102
RTVSPropertyOp9
 70
     1
102
RTVSPropertyOp10
 70
     1
102
RTVSPropertyOp11
 70
     1
102
RTVSPropertyOp12
 70
     1
102
RTVSPropertyOp13
 70
     1
102
RTVSPropertyOp14
 70
     1
102
RTVSPropertyOp15
 70
     1
102
RTVSPropertyOp16
 70
     1
102
RTVSPropertyOp17
 70
     1
102
RTVSPropertyOp18
 70
     1
102
RTVSPropertyOp19
 70
     1
102
RTVSPropertyOp20
 70
     1
102
RTVSPropertyOp21
 70
     1
102
RTVSPropertyOp22
 70
     1
102
RTVSPropertyOp23
 70
     1
102
RTVSPropertyOp24
 70
     1
102
RTVSPropertyOp25
 70
     1
102
RTVSPropertyOp26
 70
     1
102
RTVSPropertyOp27
 70
     1
102
RTVSPropertyOp28
 70
     1
102
RTVSPropertyOp29
 70
     1
102
RTVSPropertyOp30
 70
     1
102
RTVSPropertyOp31
 70
     1
102
RTVSPropertyOp32
 70
     1
102
RTVSPropertyOp33
 70
     1
102
RTVSPropertyOp34
 70
     1
102
RTVSPropertyOp35
 70
     1
102
RTVSPropertyOp36
 70
     1
102
RTVSPropertyOp37
 70
     1
102
RTVSPropertyOp38
 70
     1
102
RTVSPropertyOp39
 70
     1
102
RTVSPropertyOp40
 70
     1
102
RTVSPropertyOp41
 70
     1
102
RTVSPropertyOp42
 70
     1
102
RTVSPropertyOp43
 70
     1
102
RTVSPropertyOp44
 70
     1
102
RTVSPropertyOp45
 70
     1
102
RTVSPropertyOp46
 70
     1
102
RTVSPropertyOp47
 70
     1
102
RTVSPropertyOp48
 70
     1
102
RTVSPropertyOp49
 70
     1
102
RTVSPropertyOp50
 70
     1
102
RTVSPropertyOp51
 70
     0
102
RTVSPropertyOp52
 70
     0
102
RTVSPropertyOp53
 70
     1
102
RTVSPropertyOp54
 70
     1
102
RTVSPropertyOp55
 70
     1
102
RTVSPropertyOp56
 70
     1
102
RTVSPropertyOp57
 70
     1
102
RTVSPost2010Prop28
280
     0
102
RTVSPost2010PropOp28
 70
     1
102
RTVSPost2010Prop29
280
     1
102
RTVSPost2010PropOp29
 70
     1
102
RTVSPost2010Prop30
280
     1
102
RTVSPost2010PropOp30
 70
     1
102
RTVSPost2010Prop31
280
     0
102
RTVSPost2010PropOp31
 70
     1
102
RTVSPost2010Prop32
280
     0
102
RTVSPost2010PropOp32
 70
     1
102
RTVSPost2010Prop33
280
     0
102
RTVSPost2010PropOp33
 70
     1
102
RTVSPost2010Prop34
280
     0
102
RTVSPost2010PropOp34
 70
     1
102
RTVSPost2010Prop35
280
     0
102
RTVSPost2010PropOp35
 70
     1
102
RTVSPost2010Prop36
280
     0
102
RTVSPost2010PropOp36
 70
     1
102
RTVSPost2010Prop37
 90
       50
102
RTVSPost2010PropOp37
 70
     1
102
RTVSPost2010Prop38
140
0.0
102
RTVSPost2010PropOp38
 70
     1
102
RTVSPost2010Prop39
140
1.0
102
RTVSPost2010PropOp39
 70
     1
102
RTVSPost2010Prop40
 90
        0
102
RTVSPost2010PropOp40
 70
     1
102
RTVSPost2010Prop41ColorIndex
 90
       18
102
RTVSPost2010Prop41ColorRGB
 90
        0
102
RTVSPost2010PropOp41
 70
     1
102
RTVSPost2010Prop42
 90
       50
102
RTVSPost2010PropOp42
 70
     1
102
RTVSPost2010Prop43
 90
        3
102
RTVSPost2010PropOp43
 70
     1
102
RTVSPost2010Prop44ColorIndex
 90
        5
102
RTVSPost2010Prop44ColorRGB
 90
      255
102
RTVSPost2010PropOp44
 70
     1
102
RTVSPost2010Prop45
280
     0
102
RTVSPost2010PropOp45
 70
     1
102
RTVSPost2010Prop46
 90
       50
102
RTVSPost2010PropOp46
 70
     1
102
RTVSPost2010Prop47
 90
       50
102
RTVSPost2010PropOp47
 70
     1
102
RTVSPost2010Prop48
 90
       50
102
RTVSPost2010PropOp48
 70
     1
102
RTVSPost2010Prop49
280
     0
102
RTVSPost2010PropOp49
 70
     1
102
RTVSPost2010Prop50
 90
       50
102
RTVSPost2010PropOp50
 70
     1
102
RTVSPost2010Prop51ColorIndex
 90
      256
102
RTVSPost2010Prop51ColorRGB
 90
-16777216
102
RTVSPost2010PropOp51
 70
     0
102
RTVSPost2010Prop52
140
1.0
102
RTVSPost2010PropOp52
 70
     0
102
RTVSPost2010Prop53
 90
        2
102
RTVSPost2010PropOp53
 70
     1
102
RTVSPost2010Prop54
  1
strokes_ogs.tif
102
RTVSPost2010PropOp54
 70
     1
102
RTVSPost2010Prop55
280
     0
102
RTVSPost2010PropOp55
 70
     1
102
RTVSPost2010Prop56
140
1.0
102
RTVSPost2010PropOp56
 70
     1
102
RTVSPost2010Prop57
140
1.0
102
RTVSPost2010PropOp57
 70
     1
  0
XRECORD
  5
2DA
102
{ACAD_REACTORS
330
2D9
102
}
330
2D9
100
AcDbXrecord
280
     1
102
RTVSPropertyOp0
 70
     1
102
RTVSPropertyOp1
 70
     1
102
RTVSPropertyOp2
 70
     1
102
RTVSPropertyOp3
 70
     1
102
RTVSPropertyOp4
 70
     1
102
RTVSPropertyOp5
 70
     1
102
RTVSPropertyOp6
 70
     1
102
RTVSPropertyOp7
 70
     1
102
RTVSPropertyOp8
 70
     1
102
RTVSPropertyOp9
 70
     1
102
RTVSPropertyOp10
 70
     1
102
RTVSPropertyOp11
 70
     1
102
RTVSPropertyOp12
 70
     1
102
RTVSPropertyOp13
 70
     1
102
RTVSPropertyOp14
 70
     1
102
RTVSPropertyOp15
 70
     1
102
RTVSPropertyOp16
 70
     1
102
RTVSPropertyOp17
 70
     1
102
RTVSPropertyOp18
 70
     1
102
RTVSPropertyOp19
 70
     1
102
RTVSPropertyOp20
 70
     1
102
RTVSPropertyOp21
 70
     1
102
RTVSPropertyOp22
 70
     1
102
RTVSPropertyOp23
 70
     1
102
RTVSPropertyOp24
 70
     1
102
RTVSPropertyOp25
 70
     1
102
RTVSPropertyOp26
 70
     1
102
RTVSPropertyOp27
 70
     1
102
RTVSPropertyOp28
 70
     1
102
RTVSPropertyOp29
 70
     1
102
RTVSPropertyOp30
 70
     1
102
RTVSPropertyOp31
 70
     1
102
RTVSPropertyOp32
 70
     1
102
RTVSPropertyOp33
 70
     1
102
RTVSPropertyOp34
 70
     1
102
RTVSPropertyOp35
 70
     1
102
RTVSPropertyOp36
 70
     1
102
RTVSPropertyOp37
 70
     1
102
RTVSPropertyOp38
 70
     1
102
RTVSPropertyOp39
 70
     1
102
RTVSPropertyOp40
 70
     1
102
RTVSPropertyOp41
 70
     1
102
RTVSPropertyOp42
 70
     1
102
RTVSPropertyOp43
 70
     1
102
RTVSPropertyOp44
 70
     1
102
RTVSPropertyOp45
 70
     1
102
RTVSPropertyOp46
 70
     1
102
RTVSPropertyOp47
 70
     1
102
RTVSPropertyOp48
 70
     1
102
RTVSPropertyOp49
 70
     1
102
RTVSPropertyOp50
 70
     1
102
RTVSPropertyOp51
 70
     0
102
RTVSPropertyOp52
 70
     0
102
RTVSPropertyOp53
 70
     1
102
RTVSPropertyOp54
 70
     1
102
RTVSPropertyOp55
 70
     1
102
RTVSPropertyOp56
 70
     1
102
RTVSPropertyOp57
 70
     1
102
RTVSPost2010Prop28
280
     0
102
RTVSPost2010PropOp28
 70
     1
102
RTVSPost2010Prop29
280
     1
102
RTVSPost2010PropOp29
 70
     1
102
RTVSPost2010Prop30
280
     1
102
RTVSPost2010PropOp30
 70
     1
102
RTVSPost2010Prop31
280
     0
102
RTVSPost2010PropOp31
 70
     1
102
RTVSPost2010Prop32
280
     0
102
RTVSPost2010PropOp32
 70
     1
102
RTVSPost2010Prop33
280
     0
102
RTVSPost2010PropOp33
 70
     1
102
RTVSPost2010Prop34
280
     0
102
RTVSPost2010PropOp34
 70
     1
102
RTVSPost2010Prop35
280
     0
102
RTVSPost2010PropOp35
 70
     1
102
RTVSPost2010Prop36
280
     0
102
RTVSPost2010PropOp36
 70
     1
102
RTVSPost2010Prop37
 90
       50
102
RTVSPost2010PropOp37
 70
     1
102
RTVSPost2010Prop38
140
0.0
102
RTVSPost2010PropOp38
 70
     1
102
RTVSPost2010Prop39
140
1.0
102
RTVSPost2010PropOp39
 70
     1
102
RTVSPost2010Prop40
 90
        0
102
RTVSPost2010PropOp40
 70
     1
102
RTVSPost2010Prop41ColorIndex
 90
       18
102
RTVSPost2010Prop41ColorRGB
 90
        0
102
RTVSPost2010PropOp41
 70
     1
102
RTVSPost2010Prop42
 90
       50
102
RTVSPost2010PropOp42
 70
     1
102
RTVSPost2010Prop43
 90
        3
102
RTVSPost2010PropOp43
 70
     1
102
RTVSPost2010Prop44ColorIndex
 90
        5
102
RTVSPost2010Prop44ColorRGB
 90
      255
102
RTVSPost2010PropOp44
 70
     1
102
RTVSPost2010Prop45
280
     0
102
RTVSPost2010PropOp45
 70
     1
102
RTVSPost2010Prop46
 90
       50
102
RTVSPost2010PropOp46
 70
     1
102
RTVSPost2010Prop47
 90
       50
102
RTVSPost2010PropOp47
 70
     1
102
RTVSPost2010Prop48
 90
       50
102
RTVSPost2010PropOp48
 70
     1
102
RTVSPost2010Prop49
280
     0
102
RTVSPost2010PropOp49
 70
     1
102
RTVSPost2010Prop50
 90
       50
102
RTVSPost2010PropOp50
 70
     1
102
RTVSPost2010Prop51ColorIndex
 90
      256
102
RTVSPost2010Prop51ColorRGB
 90
-16777216
102
RTVSPost2010PropOp51
 70
     0
102
RTVSPost2010Prop52
140
1.0
102
RTVSPost2010PropOp52
 70
     0
102
RTVSPost2010Prop53
 90
        2
102
RTVSPost2010PropOp53
 70
     1
102
RTVSPost2010Prop54
  1
strokes_ogs.tif
102
RTVSPost2010PropOp54
 70
     1
102
RTVSPost2010Prop55
280
     0
102
RTVSPost2010PropOp55
 70
     1
102
RTVSPost2010Prop56
140
1.0
102
RTVSPost2010PropOp56
 70
     1
102
RTVSPost2010Prop57
140
1.0
102
RTVSPost2010PropOp57
 70
     1
  0
XRECORD
  5
2EA
102
{ACAD_REACTORS
330
2E9
102
}
330
2E9
100
AcDbXrecord
280
     1
102
RTVSPropertyOp0
 70
     0
102
RTVSPropertyOp1
 70
     0
102
RTVSPropertyOp2
 70
     0
102
RTVSPropertyOp3
 70
     0
102
RTVSPropertyOp4
 70
     0
102
RTVSPropertyOp5
 70
     0
102
RTVSPropertyOp6
 70
     0
102
RTVSPropertyOp7
 70
     0
102
RTVSPropertyOp8
 70
     0
102
RTVSPropertyOp9
 70
     0
102
RTVSPropertyOp10
 70
     0
102
RTVSPropertyOp11
 70
     0
102
RTVSPropertyOp12
 70
     0
102
RTVSPropertyOp13
 70
     0
102
RTVSPropertyOp14
 70
     2
102
RTVSPropertyOp15
 70
     0
102
RTVSPropertyOp16
 70
     0
102
RTVSPropertyOp17
 70
     0
102
RTVSPropertyOp18
 70
     0
102
RTVSPropertyOp19
 70
     0
102
RTVSPropertyOp20
 70
     0
102
RTVSPropertyOp21
 70
     0
102
RTVSPropertyOp22
 70
     0
102
RTVSPropertyOp23
 70
     0
102
RTVSPropertyOp24
 70
     0
102
RTVSPropertyOp25
 70
     0
102
RTVSPropertyOp26
 70
     0
102
RTVSPropertyOp27
 70
     0
102
RTVSPropertyOp28
 70
     0
102
RTVSPropertyOp29
 70
     0
102
RTVSPropertyOp30
 70
     0
102
RTVSPropertyOp31
 70
     0
102
RTVSPropertyOp32
 70
     0
102
RTVSPropertyOp33
 70
     0
102
RTVSPropertyOp34
 70
     0
102
RTVSPropertyOp35
 70
     0
102
RTVSPropertyOp36
 70
     0
102
RTVSPropertyOp37
 70
     0
102
RTVSPropertyOp38
 70
     0
102
RTVSPropertyOp39
 70
     0
102
RTVSPropertyOp40
 70
     0
102
RTVSPropertyOp41
 70
     0
102
RTVSPropertyOp42
 70
     0
102
RTVSPropertyOp43
 70
     0
102
RTVSPropertyOp44
 70
     0
102
RTVSPropertyOp45
 70
     0
102
RTVSPropertyOp46
 70
     0
102
RTVSPropertyOp47
 70
     0
102
RTVSPropertyOp48
 70
     0
102
RTVSPropertyOp49
 70
     0
102
RTVSPropertyOp50
 70
     0
102
RTVSPropertyOp51
 70
     0
102
RTVSPropertyOp52
 70
     0
102
RTVSPropertyOp53
 70
     0
102
RTVSPropertyOp54
 70
     0
102
RTVSPropertyOp55
 70
     0
102
RTVSPropertyOp56
 70
     0
102
RTVSPropertyOp57
 70
     0
102
RTVSPost2010Prop28
280
     0
102
RTVSPost2010PropOp28
 70
     0
102
RTVSPost2010Prop29
280
     1
102
RTVSPost2010PropOp29
 70
     0
102
RTVSPost2010Prop30
280
     1
102
RTVSPost2010PropOp30
 70
     0
102
RTVSPost2010Prop31
280
     0
102
RTVSPost2010PropOp31
 70
     0
102
RTVSPost2010Prop32
280
     0
102
RTVSPost2010PropOp32
 70
     0
102
RTVSPost2010Prop33
280
     0
102
RTVSPost2010PropOp33
 70
     0
102
RTVSPost2010Prop34
280
     0
102
RTVSPost2010PropOp34
 70
     0
102
RTVSPost2010Prop35
280
     0
102
RTVSPost2010PropOp35
 70
     0
102
RTVSPost2010Prop36
280
     0
102
RTVSPost2010PropOp36
 70
     0
102
RTVSPost2010Prop37
 90
       50
102
RTVSPost2010PropOp37
 70
     0
102
RTVSPost2010Prop38
140
0.0
102
RTVSPost2010PropOp38
 70
     0
102
RTVSPost2010Prop39
140
1.0
102
RTVSPost2010PropOp39
 70
     0
102
RTVSPost2010Prop40
 90
        0
102
RTVSPost2010PropOp40
 70
     0
102
RTVSPost2010Prop41ColorIndex
 90
       18
102
RTVSPost2010Prop41ColorRGB
 90
        0
102
RTVSPost2010PropOp41
 70
     0
102
RTVSPost2010Prop42
 90
       50
102
RTVSPost2010PropOp42
 70
     0
102
RTVSPost2010Prop43
 90
        3
102
RTVSPost2010PropOp43
 70
     0
102
RTVSPost2010Prop44ColorIndex
 90
        5
102
RTVSPost2010Prop44ColorRGB
 90
      255
102
RTVSPost2010PropOp44
 70
     0
102
RTVSPost2010Prop45
280
     0
102
RTVSPost2010PropOp45
 70
     0
102
RTVSPost2010Prop46
 90
       50
102
RTVSPost2010PropOp46
 70
     0
102
RTVSPost2010Prop47
 90
       50
102
RTVSPost2010PropOp47
 70
     0
102
RTVSPost2010Prop48
 90
       50
102
RTVSPost2010PropOp48
 70
     0
102
RTVSPost2010Prop49
280
     0
102
RTVSPost2010PropOp49
 70
     0
102
RTVSPost2010Prop50
 90
       50
102
RTVSPost2010PropOp50
 70
     0
102
RTVSPost2010Prop51ColorIndex
 90
      256
102
RTVSPost2010Prop51ColorRGB
 90
-16777216
102
RTVSPost2010PropOp51
 70
     0
102
RTVSPost2010Prop52
140
1.0
102
RTVSPost2010PropOp52
 70
     0
102
RTVSPost2010Prop53
 90
        2
102
RTVSPost2010PropOp53
 70
     0
102
RTVSPost2010Prop54
  1
strokes_ogs.tif
102
RTVSPost2010PropOp54
 70
     0
102
RTVSPost2010Prop55
280
     0
102
RTVSPost2010PropOp55
 70
     0
102
RTVSPost2010Prop56
140
1.0
102
RTVSPost2010PropOp56
 70
     0
102
RTVSPost2010Prop57
140
1.0
102
RTVSPost2010PropOp57
 70
     0
  0
XRECORD
  5
2E2
102
{ACAD_REACTORS
330
2E1
102
}
330
2E1
100
AcDbXrecord
280
     1
102
RTVSPropertyOp0
 70
     1
102
RTVSPropertyOp1
 70
     1
102
RTVSPropertyOp2
 70
     1
102
RTVSPropertyOp3
 70
     1
102
RTVSPropertyOp4
 70
     1
102
RTVSPropertyOp5
 70
     1
102
RTVSPropertyOp6
 70
     1
102
RTVSPropertyOp7
 70
     1
102
RTVSPropertyOp8
 70
     1
102
RTVSPropertyOp9
 70
     1
102
RTVSPropertyOp10
 70
     1
102
RTVSPropertyOp11
 70
     1
102
RTVSPropertyOp12
 70
     1
102
RTVSPropertyOp13
 70
     1
102
RTVSPropertyOp14
 70
     1
102
RTVSPropertyOp15
 70
     1
102
RTVSPropertyOp16
 70
     1
102
RTVSPropertyOp17
 70
     1
102
RTVSPropertyOp18
 70
     1
102
RTVSPropertyOp19
 70
     1
102
RTVSPropertyOp20
 70
     1
102
RTVSPropertyOp21
 70
     1
102
RTVSPropertyOp22
 70
     1
102
RTVSPropertyOp23
 70
     1
102
RTVSPropertyOp24
 70
     1
102
RTVSPropertyOp25
 70
     1
102
RTVSPropertyOp26
 70
     1
102
RTVSPropertyOp27
 70
     1
102
RTVSPropertyOp28
 70
     1
102
RTVSPropertyOp29
 70
     1
102
RTVSPropertyOp30
 70
     1
102
RTVSPropertyOp31
 70
     1
102
RTVSPropertyOp32
 70
     1
102
RTVSPropertyOp33
 70
     1
102
RTVSPropertyOp34
 70
     1
102
RTVSPropertyOp35
 70
     1
102
RTVSPropertyOp36
 70
     1
102
RTVSPropertyOp37
 70
     1
102
RTVSPropertyOp38
 70
     1
102
RTVSPropertyOp39
 70
     1
102
RTVSPropertyOp40
 70
     1
102
RTVSPropertyOp41
 70
     1
102
RTVSPropertyOp42
 70
     1
102
RTVSPropertyOp43
 70
     1
102
RTVSPropertyOp44
 70
     1
102
RTVSPropertyOp45
 70
     1
102
RTVSPropertyOp46
 70
     1
102
RTVSPropertyOp47
 70
     1
102
RTVSPropertyOp48
 70
     1
102
RTVSPropertyOp49
 70
     1
102
RTVSPropertyOp50
 70
     1
102
RTVSPropertyOp51
 70
     0
102
RTVSPropertyOp52
 70
     0
102
RTVSPropertyOp53
 70
     1
102
RTVSPropertyOp54
 70
     1
102
RTVSPropertyOp55
 70
     1
102
RTVSPropertyOp56
 70
     1
102
RTVSPropertyOp57
 70
     1
102
RTVSPost2010Prop28
280
     0
102
RTVSPost2010PropOp28
 70
     1
102
RTVSPost2010Prop29
280
     1
102
RTVSPost2010PropOp29
 70
     1
102
RTVSPost2010Prop30
280
     1
102
RTVSPost2010PropOp30
 70
     1
102
RTVSPost2010Prop31
280
     0
102
RTVSPost2010PropOp31
 70
     1
102
RTVSPost2010Prop32
280
     0
102
RTVSPost2010PropOp32
 70
     1
102
RTVSPost2010Prop33
280
     0
102
RTVSPost2010PropOp33
 70
     1
102
RTVSPost2010Prop34
280
     0
102
RTVSPost2010PropOp34
 70
     1
102
RTVSPost2010Prop35
280
     0
102
RTVSPost2010PropOp35
 70
     1
102
RTVSPost2010Prop36
280
     0
102
RTVSPost2010PropOp36
 70
     1
102
RTVSPost2010Prop37
 90
       50
102
RTVSPost2010PropOp37
 70
     1
102
RTVSPost2010Prop38
140
0.0
102
RTVSPost2010PropOp38
 70
     1
102
RTVSPost2010Prop39
140
1.0
102
RTVSPost2010PropOp39
 70
     1
102
RTVSPost2010Prop40
 90
        0
102
RTVSPost2010PropOp40
 70
     1
102
RTVSPost2010Prop41ColorIndex
 90
       18
102
RTVSPost2010Prop41ColorRGB
 90
        0
102
RTVSPost2010PropOp41
 70
     1
102
RTVSPost2010Prop42
 90
       50
102
RTVSPost2010PropOp42
 70
     1
102
RTVSPost2010Prop43
 90
        3
102
RTVSPost2010PropOp43
 70
     1
102
RTVSPost2010Prop44ColorIndex
 90
        5
102
RTVSPost2010Prop44ColorRGB
 90
      255
102
RTVSPost2010PropOp44
 70
     1
102
RTVSPost2010Prop45
280
     0
102
RTVSPost2010PropOp45
 70
     1
102
RTVSPost2010Prop46
 90
       50
102
RTVSPost2010PropOp46
 70
     1
102
RTVSPost2010Prop47
 90
       50
102
RTVSPost2010PropOp47
 70
     1
102
RTVSPost2010Prop48
 90
       50
102
RTVSPost2010PropOp48
 70
     1
102
RTVSPost2010Prop49
280
     0
102
RTVSPost2010PropOp49
 70
     1
102
RTVSPost2010Prop50
 90
       50
102
RTVSPost2010PropOp50
 70
     1
102
RTVSPost2010Prop51ColorIndex
 90
      256
102
RTVSPost2010Prop51ColorRGB
 90
-16777216
102
RTVSPost2010PropOp51
 70
     0
102
RTVSPost2010Prop52
140
1.0
102
RTVSPost2010PropOp52
 70
     0
102
RTVSPost2010Prop53
 90
        2
102
RTVSPost2010PropOp53
 70
     1
102
RTVSPost2010Prop54
  1
strokes_ogs.tif
102
RTVSPost2010PropOp54
 70
     1
102
RTVSPost2010Prop55
280
     0
102
RTVSPost2010PropOp55
 70
     1
102
RTVSPost2010Prop56
140
1.0
102
RTVSPost2010PropOp56
 70
     1
102
RTVSPost2010Prop57
140
1.0
102
RTVSPost2010PropOp57
 70
     1
  0
XRECORD
  5
2C6
102
{ACAD_REACTORS
330
2C5
102
}
330
2C5
100
AcDbXrecord
280
     1
102
RTVSPropertyOp0
 70
     1
102
RTVSPropertyOp1
 70
     1
102
RTVSPropertyOp2
 70
     1
102
RTVSPropertyOp3
 70
     1
102
RTVSPropertyOp4
 70
     1
102
RTVSPropertyOp5
 70
     1
102
RTVSPropertyOp6
 70
     1
102
RTVSPropertyOp7
 70
     1
102
RTVSPropertyOp8
 70
     1
102
RTVSPropertyOp9
 70
     1
102
RTVSPropertyOp10
 70
     1
102
RTVSPropertyOp11
 70
     1
102
RTVSPropertyOp12
 70
     1
102
RTVSPropertyOp13
 70
     1
102
RTVSPropertyOp14
 70
     1
102
RTVSPropertyOp15
 70
     1
102
RTVSPropertyOp16
 70
     1
102
RTVSPropertyOp17
 70
     1
102
RTVSPropertyOp18
 70
     1
102
RTVSPropertyOp19
 70
     1
102
RTVSPropertyOp20
 70
     1
102
RTVSPropertyOp21
 70
     1
102
RTVSPropertyOp22
 70
     1
102
RTVSPropertyOp23
 70
     1
102
RTVSPropertyOp24
 70
     1
102
RTVSPropertyOp25
 70
     1
102
RTVSPropertyOp26
 70
     1
102
RTVSPropertyOp27
 70
     1
102
RTVSPropertyOp28
 70
     1
102
RTVSPropertyOp29
 70
     1
102
RTVSPropertyOp30
 70
     1
102
RTVSPropertyOp31
 70
     1
102
RTVSPropertyOp32
 70
     1
102
RTVSPropertyOp33
 70
     1
102
RTVSPropertyOp34
 70
     1
102
RTVSPropertyOp35
 70
     1
102
RTVSPropertyOp36
 70
     1
102
RTVSPropertyOp37
 70
     1
102
RTVSPropertyOp38
 70
     1
102
RTVSPropertyOp39
 70
     1
102
RTVSPropertyOp40
 70
     1
102
RTVSPropertyOp41
 70
     1
102
RTVSPropertyOp42
 70
     1
102
RTVSPropertyOp43
 70
     1
102
RTVSPropertyOp44
 70
     1
102
RTVSPropertyOp45
 70
     1
102
RTVSPropertyOp46
 70
     1
102
RTVSPropertyOp47
 70
     1
102
RTVSPropertyOp48
 70
     1
102
RTVSPropertyOp49
 70
     1
102
RTVSPropertyOp50
 70
     1
102
RTVSPropertyOp51
 70
     0
102
RTVSPropertyOp52
 70
     0
102
RTVSPropertyOp53
 70
     1
102
RTVSPropertyOp54
 70
     1
102
RTVSPropertyOp55
 70
     1
102
RTVSPropertyOp56
 70
     1
102
RTVSPropertyOp57
 70
     1
102
RTVSPost2010Prop28
280
     0
102
RTVSPost2010PropOp28
 70
     1
102
RTVSPost2010Prop29
280
     1
102
RTVSPost2010PropOp29
 70
     1
102
RTVSPost2010Prop30
280
     1
102
RTVSPost2010PropOp30
 70
     1
102
RTVSPost2010Prop31
280
     0
102
RTVSPost2010PropOp31
 70
     1
102
RTVSPost2010Prop32
280
     0
102
RTVSPost2010PropOp32
 70
     1
102
RTVSPost2010Prop33
280
     0
102
RTVSPost2010PropOp33
 70
     1
102
RTVSPost2010Prop34
280
     0
102
RTVSPost2010PropOp34
 70
     1
102
RTVSPost2010Prop35
280
     0
102
RTVSPost2010PropOp35
 70
     1
102
RTVSPost2010Prop36
280
     0
102
RTVSPost2010PropOp36
 70
     1
102
RTVSPost2010Prop37
 90
       50
102
RTVSPost2010PropOp37
 70
     1
102
RTVSPost2010Prop38
140
0.0
102
RTVSPost2010PropOp38
 70
     1
102
RTVSPost2010Prop39
140
1.0
102
RTVSPost2010PropOp39
 70
     1
102
RTVSPost2010Prop40
 90
        0
102
RTVSPost2010PropOp40
 70
     1
102
RTVSPost2010Prop41ColorIndex
 90
       18
102
RTVSPost2010Prop41ColorRGB
 90
        0
102
RTVSPost2010PropOp41
 70
     1
102
RTVSPost2010Prop42
 90
       50
102
RTVSPost2010PropOp42
 70
     1
102
RTVSPost2010Prop43
 90
        3
102
RTVSPost2010PropOp43
 70
     1
102
RTVSPost2010Prop44ColorIndex
 90
        5
102
RTVSPost2010Prop44ColorRGB
 90
      255
102
RTVSPost2010PropOp44
 70
     1
102
RTVSPost2010Prop45
280
     0
102
RTVSPost2010PropOp45
 70
     1
102
RTVSPost2010Prop46
 90
       50
102
RTVSPost2010PropOp46
 70
     1
102
RTVSPost2010Prop47
 90
       50
102
RTVSPost2010PropOp47
 70
     1
102
RTVSPost2010Prop48
 90
       50
102
RTVSPost2010PropOp48
 70
     1
102
RTVSPost2010Prop49
280
     0
102
RTVSPost2010PropOp49
 70
     1
102
RTVSPost2010Prop50
 90
       50
102
RTVSPost2010PropOp50
 70
     1
102
RTVSPost2010Prop51ColorIndex
 90
      256
102
RTVSPost2010Prop51ColorRGB
 90
-16777216
102
RTVSPost2010PropOp51
 70
     0
102
RTVSPost2010Prop52
140
1.0
102
RTVSPost2010PropOp52
 70
     0
102
RTVSPost2010Prop53
 90
        2
102
RTVSPost2010PropOp53
 70
     1
102
RTVSPost2010Prop54
  1
strokes_ogs.tif
102
RTVSPost2010PropOp54
 70
     1
102
RTVSPost2010Prop55
280
     0
102
RTVSPost2010PropOp55
 70
     1
102
RTVSPost2010Prop56
140
1.0
102
RTVSPost2010PropOp56
 70
     1
102
RTVSPost2010Prop57
140
1.0
102
RTVSPost2010PropOp57
 70
     1
  0
XRECORD
  5
2C8
102
{ACAD_REACTORS
330
2C7
102
}
330
2C7
100
AcDbXrecord
280
     1
102
RTVSPropertyOp0
 70
     1
102
RTVSPropertyOp1
 70
     1
102
RTVSPropertyOp2
 70
     1
102
RTVSPropertyOp3
 70
     1
102
RTVSPropertyOp4
 70
     1
102
RTVSPropertyOp5
 70
     1
102
RTVSPropertyOp6
 70
     1
102
RTVSPropertyOp7
 70
     1
102
RTVSPropertyOp8
 70
     1
102
RTVSPropertyOp9
 70
     1
102
RTVSPropertyOp10
 70
     1
102
RTVSPropertyOp11
 70
     1
102
RTVSPropertyOp12
 70
     1
102
RTVSPropertyOp13
 70
     1
102
RTVSPropertyOp14
 70
     1
102
RTVSPropertyOp15
 70
     1
102
RTVSPropertyOp16
 70
     1
102
RTVSPropertyOp17
 70
     1
102
RTVSPropertyOp18
 70
     1
102
RTVSPropertyOp19
 70
     1
102
RTVSPropertyOp20
 70
     1
102
RTVSPropertyOp21
 70
     1
102
RTVSPropertyOp22
 70
     1
102
RTVSPropertyOp23
 70
     1
102
RTVSPropertyOp24
 70
     1
102
RTVSPropertyOp25
 70
     1
102
RTVSPropertyOp26
 70
     1
102
RTVSPropertyOp27
 70
     1
102
RTVSPropertyOp28
 70
     1
102
RTVSPropertyOp29
 70
     1
102
RTVSPropertyOp30
 70
     1
102
RTVSPropertyOp31
 70
     1
102
RTVSPropertyOp32
 70
     1
102
RTVSPropertyOp33
 70
     1
102
RTVSPropertyOp34
 70
     1
102
RTVSPropertyOp35
 70
     1
102
RTVSPropertyOp36
 70
     1
102
RTVSPropertyOp37
 70
     1
102
RTVSPropertyOp38
 70
     1
102
RTVSPropertyOp39
 70
     1
102
RTVSPropertyOp40
 70
     1
102
RTVSPropertyOp41
 70
     1
102
RTVSPropertyOp42
 70
     1
102
RTVSPropertyOp43
 70
     1
102
RTVSPropertyOp44
 70
     1
102
RTVSPropertyOp45
 70
     1
102
RTVSPropertyOp46
 70
     1
102
RTVSPropertyOp47
 70
     1
102
RTVSPropertyOp48
 70
     1
102
RTVSPropertyOp49
 70
     1
102
RTVSPropertyOp50
 70
     1
102
RTVSPropertyOp51
 70
     0
102
RTVSPropertyOp52
 70
     0
102
RTVSPropertyOp53
 70
     1
102
RTVSPropertyOp54
 70
     1
102
RTVSPropertyOp55
 70
     1
102
RTVSPropertyOp56
 70
     1
102
RTVSPropertyOp57
 70
     1
102
RTVSPost2010Prop28
280
     0
102
RTVSPost2010PropOp28
 70
     1
102
RTVSPost2010Prop29
280
     1
102
RTVSPost2010PropOp29
 70
     1
102
RTVSPost2010Prop30
280
     1
102
RTVSPost2010PropOp30
 70
     1
102
RTVSPost2010Prop31
280
     0
102
RTVSPost2010PropOp31
 70
     1
102
RTVSPost2010Prop32
280
     0
102
RTVSPost2010PropOp32
 70
     1
102
RTVSPost2010Prop33
280
     0
102
RTVSPost2010PropOp33
 70
     1
102
RTVSPost2010Prop34
280
     0
102
RTVSPost2010PropOp34
 70
     1
102
RTVSPost2010Prop35
280
     0
102
RTVSPost2010PropOp35
 70
     1
102
RTVSPost2010Prop36
280
     0
102
RTVSPost2010PropOp36
 70
     1
102
RTVSPost2010Prop37
 90
       50
102
RTVSPost2010PropOp37
 70
     1
102
RTVSPost2010Prop38
140
0.0
102
RTVSPost2010PropOp38
 70
     1
102
RTVSPost2010Prop39
140
1.0
102
RTVSPost2010PropOp39
 70
     1
102
RTVSPost2010Prop40
 90
        0
102
RTVSPost2010PropOp40
 70
     1
102
RTVSPost2010Prop41ColorIndex
 90
       18
102
RTVSPost2010Prop41ColorRGB
 90
        0
102
RTVSPost2010PropOp41
 70
     1
102
RTVSPost2010Prop42
 90
       50
102
RTVSPost2010PropOp42
 70
     1
102
RTVSPost2010Prop43
 90
        3
102
RTVSPost2010PropOp43
 70
     1
102
RTVSPost2010Prop44ColorIndex
 90
        5
102
RTVSPost2010Prop44ColorRGB
 90
      255
102
RTVSPost2010PropOp44
 70
     1
102
RTVSPost2010Prop45
280
     0
102
RTVSPost2010PropOp45
 70
     1
102
RTVSPost2010Prop46
 90
       50
102
RTVSPost2010PropOp46
 70
     1
102
RTVSPost2010Prop47
 90
       50
102
RTVSPost2010PropOp47
 70
     1
102
RTVSPost2010Prop48
 90
       50
102
RTVSPost2010PropOp48
 70
     1
102
RTVSPost2010Prop49
280
     0
102
RTVSPost2010PropOp49
 70
     1
102
RTVSPost2010Prop50
 90
       50
102
RTVSPost2010PropOp50
 70
     1
102
RTVSPost2010Prop51ColorIndex
 90
      256
102
RTVSPost2010Prop51ColorRGB
 90
-16777216
102
RTVSPost2010PropOp51
 70
     0
102
RTVSPost2010Prop52
140
1.0
102
RTVSPost2010PropOp52
 70
     0
102
RTVSPost2010Prop53
 90
        2
102
RTVSPost2010PropOp53
 70
     1
102
RTVSPost2010Prop54
  1
strokes_ogs.tif
102
RTVSPost2010PropOp54
 70
     1
102
RTVSPost2010Prop55
280
     0
102
RTVSPost2010PropOp55
 70
     1
102
RTVSPost2010Prop56
140
1.0
102
RTVSPost2010PropOp56
 70
     1
102
RTVSPost2010Prop57
140
1.0
102
RTVSPost2010PropOp57
 70
     1
  0
XRECORD
  5
2CA
102
{ACAD_REACTORS
330
2C9
102
}
330
2C9
100
AcDbXrecord
280
     1
102
RTVSPropertyOp0
 70
     1
102
RTVSPropertyOp1
 70
     1
102
RTVSPropertyOp2
 70
     1
102
RTVSPropertyOp3
 70
     1
102
RTVSPropertyOp4
 70
     1
102
RTVSPropertyOp5
 70
     1
102
RTVSPropertyOp6
 70
     1
102
RTVSPropertyOp7
 70
     1
102
RTVSPropertyOp8
 70
     1
102
RTVSPropertyOp9
 70
     1
102
RTVSPropertyOp10
 70
     1
102
RTVSPropertyOp11
 70
     1
102
RTVSPropertyOp12
 70
     1
102
RTVSPropertyOp13
 70
     1
102
RTVSPropertyOp14
 70
     1
102
RTVSPropertyOp15
 70
     1
102
RTVSPropertyOp16
 70
     1
102
RTVSPropertyOp17
 70
     1
102
RTVSPropertyOp18
 70
     1
102
RTVSPropertyOp19
 70
     1
102
RTVSPropertyOp20
 70
     1
102
RTVSPropertyOp21
 70
     1
102
RTVSPropertyOp22
 70
     1
102
RTVSPropertyOp23
 70
     1
102
RTVSPropertyOp24
 70
     1
102
RTVSPropertyOp25
 70
     1
102
RTVSPropertyOp26
 70
     1
102
RTVSPropertyOp27
 70
     1
102
RTVSPropertyOp28
 70
     1
102
RTVSPropertyOp29
 70
     1
102
RTVSPropertyOp30
 70
     1
102
RTVSPropertyOp31
 70
     1
102
RTVSPropertyOp32
 70
     1
102
RTVSPropertyOp33
 70
     1
102
RTVSPropertyOp34
 70
     1
102
RTVSPropertyOp35
 70
     1
102
RTVSPropertyOp36
 70
     1
102
RTVSPropertyOp37
 70
     1
102
RTVSPropertyOp38
 70
     1
102
RTVSPropertyOp39
 70
     1
102
RTVSPropertyOp40
 70
     1
102
RTVSPropertyOp41
 70
     1
102
RTVSPropertyOp42
 70
     1
102
RTVSPropertyOp43
 70
     1
102
RTVSPropertyOp44
 70
     1
102
RTVSPropertyOp45
 70
     1
102
RTVSPropertyOp46
 70
     1
102
RTVSPropertyOp47
 70
     1
102
RTVSPropertyOp48
 70
     1
102
RTVSPropertyOp49
 70
     1
102
RTVSPropertyOp50
 70
     1
102
RTVSPropertyOp51
 70
     0
102
RTVSPropertyOp52
 70
     0
102
RTVSPropertyOp53
 70
     1
102
RTVSPropertyOp54
 70
     1
102
RTVSPropertyOp55
 70
     1
102
RTVSPropertyOp56
 70
     1
102
RTVSPropertyOp57
 70
     1
102
RTVSPost2010Prop28
280
     0
102
RTVSPost2010PropOp28
 70
     1
102
RTVSPost2010Prop29
280
     1
102
RTVSPost2010PropOp29
 70
     1
102
RTVSPost2010Prop30
280
     1
102
RTVSPost2010PropOp30
 70
     1
102
RTVSPost2010Prop31
280
     0
102
RTVSPost2010PropOp31
 70
     1
102
RTVSPost2010Prop32
280
     0
102
RTVSPost2010PropOp32
 70
     1
102
RTVSPost2010Prop33
280
     0
102
RTVSPost2010PropOp33
 70
     1
102
RTVSPost2010Prop34
280
     0
102
RTVSPost2010PropOp34
 70
     1
102
RTVSPost2010Prop35
280
     0
102
RTVSPost2010PropOp35
 70
     1
102
RTVSPost2010Prop36
280
     0
102
RTVSPost2010PropOp36
 70
     1
102
RTVSPost2010Prop37
 90
       50
102
RTVSPost2010PropOp37
 70
     1
102
RTVSPost2010Prop38
140
0.0
102
RTVSPost2010PropOp38
 70
     1
102
RTVSPost2010Prop39
140
1.0
102
RTVSPost2010PropOp39
 70
     1
102
RTVSPost2010Prop40
 90
        0
102
RTVSPost2010PropOp40
 70
     1
102
RTVSPost2010Prop41ColorIndex
 90
       18
102
RTVSPost2010Prop41ColorRGB
 90
        0
102
RTVSPost2010PropOp41
 70
     1
102
RTVSPost2010Prop42
 90
       50
102
RTVSPost2010PropOp42
 70
     1
102
RTVSPost2010Prop43
 90
        3
102
RTVSPost2010PropOp43
 70
     1
102
RTVSPost2010Prop44ColorIndex
 90
        5
102
RTVSPost2010Prop44ColorRGB
 90
      255
102
RTVSPost2010PropOp44
 70
     1
102
RTVSPost2010Prop45
280
     0
102
RTVSPost2010PropOp45
 70
     1
102
RTVSPost2010Prop46
 90
       50
102
RTVSPost2010PropOp46
 70
     1
102
RTVSPost2010Prop47
 90
       50
102
RTVSPost2010PropOp47
 70
     1
102
RTVSPost2010Prop48
 90
       50
102
RTVSPost2010PropOp48
 70
     1
102
RTVSPost2010Prop49
280
     0
102
RTVSPost2010PropOp49
 70
     1
102
RTVSPost2010Prop50
 90
       50
102
RTVSPost2010PropOp50
 70
     1
102
RTVSPost2010Prop51ColorIndex
 90
      256
102
RTVSPost2010Prop51ColorRGB
 90
-16777216
102
RTVSPost2010PropOp51
 70
     0
102
RTVSPost2010Prop52
140
1.0
102
RTVSPost2010PropOp52
 70
     0
102
RTVSPost2010Prop53
 90
        2
102
RTVSPost2010PropOp53
 70
     1
102
RTVSPost2010Prop54
  1
strokes_ogs.tif
102
RTVSPost2010PropOp54
 70
     1
102
RTVSPost2010Prop55
280
     0
102
RTVSPost2010PropOp55
 70
     1
102
RTVSPost2010Prop56
140
1.0
102
RTVSPost2010PropOp56
 70
     1
102
RTVSPost2010Prop57
140
1.0
102
RTVSPost2010PropOp57
 70
     1
  0
XRECORD
  5
2CC
102
{ACAD_REACTORS
330
2CB
102
}
330
2CB
100
AcDbXrecord
280
     1
102
RTVSPropertyOp0
 70
     1
102
RTVSPropertyOp1
 70
     1
102
RTVSPropertyOp2
 70
     1
102
RTVSPropertyOp3
 70
     1
102
RTVSPropertyOp4
 70
     1
102
RTVSPropertyOp5
 70
     1
102
RTVSPropertyOp6
 70
     1
102
RTVSPropertyOp7
 70
     1
102
RTVSPropertyOp8
 70
     1
102
RTVSPropertyOp9
 70
     1
102
RTVSPropertyOp10
 70
     1
102
RTVSPropertyOp11
 70
     1
102
RTVSPropertyOp12
 70
     1
102
RTVSPropertyOp13
 70
     1
102
RTVSPropertyOp14
 70
     1
102
RTVSPropertyOp15
 70
     1
102
RTVSPropertyOp16
 70
     1
102
RTVSPropertyOp17
 70
     1
102
RTVSPropertyOp18
 70
     1
102
RTVSPropertyOp19
 70
     1
102
RTVSPropertyOp20
 70
     1
102
RTVSPropertyOp21
 70
     1
102
RTVSPropertyOp22
 70
     1
102
RTVSPropertyOp23
 70
     1
102
RTVSPropertyOp24
 70
     1
102
RTVSPropertyOp25
 70
     1
102
RTVSPropertyOp26
 70
     1
102
RTVSPropertyOp27
 70
     1
102
RTVSPropertyOp28
 70
     1
102
RTVSPropertyOp29
 70
     1
102
RTVSPropertyOp30
 70
     1
102
RTVSPropertyOp31
 70
     1
102
RTVSPropertyOp32
 70
     1
102
RTVSPropertyOp33
 70
     1
102
RTVSPropertyOp34
 70
     1
102
RTVSPropertyOp35
 70
     1
102
RTVSPropertyOp36
 70
     1
102
RTVSPropertyOp37
 70
     1
102
RTVSPropertyOp38
 70
     1
102
RTVSPropertyOp39
 70
     1
102
RTVSPropertyOp40
 70
     1
102
RTVSPropertyOp41
 70
     1
102
RTVSPropertyOp42
 70
     1
102
RTVSPropertyOp43
 70
     1
102
RTVSPropertyOp44
 70
     1
102
RTVSPropertyOp45
 70
     1
102
RTVSPropertyOp46
 70
     1
102
RTVSPropertyOp47
 70
     1
102
RTVSPropertyOp48
 70
     1
102
RTVSPropertyOp49
 70
     1
102
RTVSPropertyOp50
 70
     1
102
RTVSPropertyOp51
 70
     0
102
RTVSPropertyOp52
 70
     0
102
RTVSPropertyOp53
 70
     1
102
RTVSPropertyOp54
 70
     1
102
RTVSPropertyOp55
 70
     1
102
RTVSPropertyOp56
 70
     1
102
RTVSPropertyOp57
 70
     1
102
RTVSPost2010Prop28
280
     0
102
RTVSPost2010PropOp28
 70
     1
102
RTVSPost2010Prop29
280
     1
102
RTVSPost2010PropOp29
 70
     1
102
RTVSPost2010Prop30
280
     1
102
RTVSPost2010PropOp30
 70
     1
102
RTVSPost2010Prop31
280
     0
102
RTVSPost2010PropOp31
 70
     1
102
RTVSPost2010Prop32
280
     0
102
RTVSPost2010PropOp32
 70
     1
102
RTVSPost2010Prop33
280
     0
102
RTVSPost2010PropOp33
 70
     1
102
RTVSPost2010Prop34
280
     0
102
RTVSPost2010PropOp34
 70
     1
102
RTVSPost2010Prop35
280
     0
102
RTVSPost2010PropOp35
 70
     1
102
RTVSPost2010Prop36
280
     0
102
RTVSPost2010PropOp36
 70
     1
102
RTVSPost2010Prop37
 90
       50
102
RTVSPost2010PropOp37
 70
     1
102
RTVSPost2010Prop38
140
0.0
102
RTVSPost2010PropOp38
 70
     1
102
RTVSPost2010Prop39
140
1.0
102
RTVSPost2010PropOp39
 70
     1
102
RTVSPost2010Prop40
 90
        0
102
RTVSPost2010PropOp40
 70
     1
102
RTVSPost2010Prop41ColorIndex
 90
       18
102
RTVSPost2010Prop41ColorRGB
 90
        0
102
RTVSPost2010PropOp41
 70
     1
102
RTVSPost2010Prop42
 90
       50
102
RTVSPost2010PropOp42
 70
     1
102
RTVSPost2010Prop43
 90
        3
102
RTVSPost2010PropOp43
 70
     1
102
RTVSPost2010Prop44ColorIndex
 90
        5
102
RTVSPost2010Prop44ColorRGB
 90
      255
102
RTVSPost2010PropOp44
 70
     1
102
RTVSPost2010Prop45
280
     0
102
RTVSPost2010PropOp45
 70
     1
102
RTVSPost2010Prop46
 90
       50
102
RTVSPost2010PropOp46
 70
     1
102
RTVSPost2010Prop47
 90
       50
102
RTVSPost2010PropOp47
 70
     1
102
RTVSPost2010Prop48
 90
       50
102
RTVSPost2010PropOp48
 70
     1
102
RTVSPost2010Prop49
280
     0
102
RTVSPost2010PropOp49
 70
     1
102
RTVSPost2010Prop50
 90
       50
102
RTVSPost2010PropOp50
 70
     1
102
RTVSPost2010Prop51ColorIndex
 90
      256
102
RTVSPost2010Prop51ColorRGB
 90
-16777216
102
RTVSPost2010PropOp51
 70
     0
102
RTVSPost2010Prop52
140
1.0
102
RTVSPost2010PropOp52
 70
     0
102
RTVSPost2010Prop53
 90
        2
102
RTVSPost2010PropOp53
 70
     1
102
RTVSPost2010Prop54
  1
strokes_ogs.tif
102
RTVSPost2010PropOp54
 70
     1
102
RTVSPost2010Prop55
280
     0
102
RTVSPost2010PropOp55
 70
     1
102
RTVSPost2010Prop56
140
1.0
102
RTVSPost2010PropOp56
 70
     1
102
RTVSPost2010Prop57
140
1.0
102
RTVSPost2010PropOp57
 70
     1
  0
XRECORD
  5
2D2
102
{ACAD_REACTORS
330
2D1
102
}
330
2D1
100
AcDbXrecord
280
     1
102
RTVSPropertyOp0
 70
     1
102
RTVSPropertyOp1
 70
     1
102
RTVSPropertyOp2
 70
     1
102
RTVSPropertyOp3
 70
     1
102
RTVSPropertyOp4
 70
     1
102
RTVSPropertyOp5
 70
     1
102
RTVSPropertyOp6
 70
     1
102
RTVSPropertyOp7
 70
     1
102
RTVSPropertyOp8
 70
     1
102
RTVSPropertyOp9
 70
     1
102
RTVSPropertyOp10
 70
     1
102
RTVSPropertyOp11
 70
     1
102
RTVSPropertyOp12
 70
     1
102
RTVSPropertyOp13
 70
     1
102
RTVSPropertyOp14
 70
     1
102
RTVSPropertyOp15
 70
     1
102
RTVSPropertyOp16
 70
     1
102
RTVSPropertyOp17
 70
     1
102
RTVSPropertyOp18
 70
     1
102
RTVSPropertyOp19
 70
     1
102
RTVSPropertyOp20
 70
     1
102
RTVSPropertyOp21
 70
     1
102
RTVSPropertyOp22
 70
     1
102
RTVSPropertyOp23
 70
     1
102
RTVSPropertyOp24
 70
     1
102
RTVSPropertyOp25
 70
     1
102
RTVSPropertyOp26
 70
     1
102
RTVSPropertyOp27
 70
     1
102
RTVSPropertyOp28
 70
     1
102
RTVSPropertyOp29
 70
     1
102
RTVSPropertyOp30
 70
     1
102
RTVSPropertyOp31
 70
     1
102
RTVSPropertyOp32
 70
     1
102
RTVSPropertyOp33
 70
     1
102
RTVSPropertyOp34
 70
     1
102
RTVSPropertyOp35
 70
     1
102
RTVSPropertyOp36
 70
     1
102
RTVSPropertyOp37
 70
     1
102
RTVSPropertyOp38
 70
     1
102
RTVSPropertyOp39
 70
     1
102
RTVSPropertyOp40
 70
     1
102
RTVSPropertyOp41
 70
     1
102
RTVSPropertyOp42
 70
     1
102
RTVSPropertyOp43
 70
     1
102
RTVSPropertyOp44
 70
     1
102
RTVSPropertyOp45
 70
     1
102
RTVSPropertyOp46
 70
     1
102
RTVSPropertyOp47
 70
     1
102
RTVSPropertyOp48
 70
     1
102
RTVSPropertyOp49
 70
     1
102
RTVSPropertyOp50
 70
     1
102
RTVSPropertyOp51
 70
     0
102
RTVSPropertyOp52
 70
     0
102
RTVSPropertyOp53
 70
     1
102
RTVSPropertyOp54
 70
     1
102
RTVSPropertyOp55
 70
     1
102
RTVSPropertyOp56
 70
     1
102
RTVSPropertyOp57
 70
     1
102
RTVSPost2010Prop28
280
     0
102
RTVSPost2010PropOp28
 70
     1
102
RTVSPost2010Prop29
280
     1
102
RTVSPost2010PropOp29
 70
     1
102
RTVSPost2010Prop30
280
     1
102
RTVSPost2010PropOp30
 70
     1
102
RTVSPost2010Prop31
280
     0
102
RTVSPost2010PropOp31
 70
     1
102
RTVSPost2010Prop32
280
     0
102
RTVSPost2010PropOp32
 70
     1
102
RTVSPost2010Prop33
280
     0
102
RTVSPost2010PropOp33
 70
     1
102
RTVSPost2010Prop34
280
     0
102
RTVSPost2010PropOp34
 70
     1
102
RTVSPost2010Prop35
280
     0
102
RTVSPost2010PropOp35
 70
     1
102
RTVSPost2010Prop36
280
     0
102
RTVSPost2010PropOp36
 70
     1
102
RTVSPost2010Prop37
 90
       50
102
RTVSPost2010PropOp37
 70
     1
102
RTVSPost2010Prop38
140
0.0
102
RTVSPost2010PropOp38
 70
     1
102
RTVSPost2010Prop39
140
1.0
102
RTVSPost2010PropOp39
 70
     1
102
RTVSPost2010Prop40
 90
        0
102
RTVSPost2010PropOp40
 70
     1
102
RTVSPost2010Prop41ColorIndex
 90
       18
102
RTVSPost2010Prop41ColorRGB
 90
        0
102
RTVSPost2010PropOp41
 70
     1
102
RTVSPost2010Prop42
 90
       50
102
RTVSPost2010PropOp42
 70
     1
102
RTVSPost2010Prop43
 90
        3
102
RTVSPost2010PropOp43
 70
     1
102
RTVSPost2010Prop44ColorIndex
 90
        5
102
RTVSPost2010Prop44ColorRGB
 90
      255
102
RTVSPost2010PropOp44
 70
     1
102
RTVSPost2010Prop45
280
     0
102
RTVSPost2010PropOp45
 70
     1
102
RTVSPost2010Prop46
 90
       50
102
RTVSPost2010PropOp46
 70
     1
102
RTVSPost2010Prop47
 90
       50
102
RTVSPost2010PropOp47
 70
     1
102
RTVSPost2010Prop48
 90
       50
102
RTVSPost2010PropOp48
 70
     1
102
RTVSPost2010Prop49
280
     0
102
RTVSPost2010PropOp49
 70
     1
102
RTVSPost2010Prop50
 90
       50
102
RTVSPost2010PropOp50
 70
     1
102
RTVSPost2010Prop51ColorIndex
 90
      256
102
RTVSPost2010Prop51ColorRGB
 90
-16777216
102
RTVSPost2010PropOp51
 70
     0
102
RTVSPost2010Prop52
140
1.0
102
RTVSPost2010PropOp52
 70
     0
102
RTVSPost2010Prop53
 90
        2
102
RTVSPost2010PropOp53
 70
     1
102
RTVSPost2010Prop54
  1
strokes_ogs.tif
102
RTVSPost2010PropOp54
 70
     1
102
RTVSPost2010Prop55
280
     0
102
RTVSPost2010PropOp55
 70
     1
102
RTVSPost2010Prop56
140
1.0
102
RTVSPost2010PropOp56
 70
     1
102
RTVSPost2010Prop57
140
1.0
102
RTVSPost2010PropOp57
 70
     1
  0
XRECORD
  5
2E6
102
{ACAD_REACTORS
330
2E5
102
}
330
2E5
100
AcDbXrecord
280
     1
102
RTVSPropertyOp0
 70
     0
102
RTVSPropertyOp1
 70
     0
102
RTVSPropertyOp2
 70
     0
102
RTVSPropertyOp3
 70
     0
102
RTVSPropertyOp4
 70
     0
102
RTVSPropertyOp5
 70
     0
102
RTVSPropertyOp6
 70
     0
102
RTVSPropertyOp7
 70
     0
102
RTVSPropertyOp8
 70
     0
102
RTVSPropertyOp9
 70
     0
102
RTVSPropertyOp10
 70
     0
102
RTVSPropertyOp11
 70
     0
102
RTVSPropertyOp12
 70
     0
102
RTVSPropertyOp13
 70
     0
102
RTVSPropertyOp14
 70
     2
102
RTVSPropertyOp15
 70
     0
102
RTVSPropertyOp16
 70
     0
102
RTVSPropertyOp17
 70
     0
102
RTVSPropertyOp18
 70
     0
102
RTVSPropertyOp19
 70
     0
102
RTVSPropertyOp20
 70
     0
102
RTVSPropertyOp21
 70
     0
102
RTVSPropertyOp22
 70
     0
102
RTVSPropertyOp23
 70
     0
102
RTVSPropertyOp24
 70
     0
102
RTVSPropertyOp25
 70
     0
102
RTVSPropertyOp26
 70
     0
102
RTVSPropertyOp27
 70
     0
102
RTVSPropertyOp28
 70
     0
102
RTVSPropertyOp29
 70
     0
102
RTVSPropertyOp30
 70
     0
102
RTVSPropertyOp31
 70
     0
102
RTVSPropertyOp32
 70
     0
102
RTVSPropertyOp33
 70
     0
102
RTVSPropertyOp34
 70
     0
102
RTVSPropertyOp35
 70
     0
102
RTVSPropertyOp36
 70
     0
102
RTVSPropertyOp37
 70
     0
102
RTVSPropertyOp38
 70
     0
102
RTVSPropertyOp39
 70
     0
102
RTVSPropertyOp40
 70
     0
102
RTVSPropertyOp41
 70
     0
102
RTVSPropertyOp42
 70
     0
102
RTVSPropertyOp43
 70
     0
102
RTVSPropertyOp44
 70
     0
102
RTVSPropertyOp45
 70
     0
102
RTVSPropertyOp46
 70
     0
102
RTVSPropertyOp47
 70
     0
102
RTVSPropertyOp48
 70
     0
102
RTVSPropertyOp49
 70
     0
102
RTVSPropertyOp50
 70
     0
102
RTVSPropertyOp51
 70
     0
102
RTVSPropertyOp52
 70
     0
102
RTVSPropertyOp53
 70
     0
102
RTVSPropertyOp54
 70
     0
102
RTVSPropertyOp55
 70
     0
102
RTVSPropertyOp56
 70
     0
102
RTVSPropertyOp57
 70
     0
102
RTVSPost2010Prop28
280
     0
102
RTVSPost2010PropOp28
 70
     0
102
RTVSPost2010Prop29
280
     1
102
RTVSPost2010PropOp29
 70
     0
102
RTVSPost2010Prop30
280
     1
102
RTVSPost2010PropOp30
 70
     0
102
RTVSPost2010Prop31
280
     0
102
RTVSPost2010PropOp31
 70
     0
102
RTVSPost2010Prop32
280
     0
102
RTVSPost2010PropOp32
 70
     0
102
RTVSPost2010Prop33
280
     0
102
RTVSPost2010PropOp33
 70
     0
102
RTVSPost2010Prop34
280
     0
102
RTVSPost2010PropOp34
 70
     0
102
RTVSPost2010Prop35
280
     0
102
RTVSPost2010PropOp35
 70
     0
102
RTVSPost2010Prop36
280
     0
102
RTVSPost2010PropOp36
 70
     0
102
RTVSPost2010Prop37
 90
       50
102
RTVSPost2010PropOp37
 70
     0
102
RTVSPost2010Prop38
140
0.0
102
RTVSPost2010PropOp38
 70
     0
102
RTVSPost2010Prop39
140
1.0
102
RTVSPost2010PropOp39
 70
     0
102
RTVSPost2010Prop40
 90
        0
102
RTVSPost2010PropOp40
 70
     0
102
RTVSPost2010Prop41ColorIndex
 90
       18
102
RTVSPost2010Prop41ColorRGB
 90
        0
102
RTVSPost2010PropOp41
 70
     0
102
RTVSPost2010Prop42
 90
       50
102
RTVSPost2010PropOp42
 70
     0
102
RTVSPost2010Prop43
 90
        3
102
RTVSPost2010PropOp43
 70
     0
102
RTVSPost2010Prop44ColorIndex
 90
        5
102
RTVSPost2010Prop44ColorRGB
 90
      255
102
RTVSPost2010PropOp44
 70
     0
102
RTVSPost2010Prop45
280
     0
102
RTVSPost2010PropOp45
 70
     0
102
RTVSPost2010Prop46
 90
       50
102
RTVSPost2010PropOp46
 70
     0
102
RTVSPost2010Prop47
 90
       50
102
RTVSPost2010PropOp47
 70
     0
102
RTVSPost2010Prop48
 90
       50
102
RTVSPost2010PropOp48
 70
     0
102
RTVSPost2010Prop49
280
     0
102
RTVSPost2010PropOp49
 70
     0
102
RTVSPost2010Prop50
 90
       50
102
RTVSPost2010PropOp50
 70
     0
102
RTVSPost2010Prop51ColorIndex
 90
      256
102
RTVSPost2010Prop51ColorRGB
 90
-16777216
102
RTVSPost2010PropOp51
 70
     0
102
RTVSPost2010Prop52
140
1.0
102
RTVSPost2010PropOp52
 70
     0
102
RTVSPost2010Prop53
 90
        2
102
RTVSPost2010PropOp53
 70
     0
102
RTVSPost2010Prop54
  1
strokes_ogs.tif
102
RTVSPost2010PropOp54
 70
     0
102
RTVSPost2010Prop55
280
     0
102
RTVSPost2010PropOp55
 70
     0
102
RTVSPost2010Prop56
140
1.0
102
RTVSPost2010PropOp56
 70
     0
102
RTVSPost2010Prop57
140
1.0
102
RTVSPost2010PropOp57
 70
     0
  0
XRECORD
  5
2E0
102
{ACAD_REACTORS
330
2DF
102
}
330
2DF
100
AcDbXrecord
280
     1
102
RTVSPropertyOp0
 70
     1
102
RTVSPropertyOp1
 70
     1
102
RTVSPropertyOp2
 70
     1
102
RTVSPropertyOp3
 70
     1
102
RTVSPropertyOp4
 70
     1
102
RTVSPropertyOp5
 70
     1
102
RTVSPropertyOp6
 70
     1
102
RTVSPropertyOp7
 70
     1
102
RTVSPropertyOp8
 70
     1
102
RTVSPropertyOp9
 70
     1
102
RTVSPropertyOp10
 70
     1
102
RTVSPropertyOp11
 70
     1
102
RTVSPropertyOp12
 70
     1
102
RTVSPropertyOp13
 70
     1
102
RTVSPropertyOp14
 70
     1
102
RTVSPropertyOp15
 70
     1
102
RTVSPropertyOp16
 70
     1
102
RTVSPropertyOp17
 70
     1
102
RTVSPropertyOp18
 70
     1
102
RTVSPropertyOp19
 70
     1
102
RTVSPropertyOp20
 70
     1
102
RTVSPropertyOp21
 70
     1
102
RTVSPropertyOp22
 70
     1
102
RTVSPropertyOp23
 70
     1
102
RTVSPropertyOp24
 70
     1
102
RTVSPropertyOp25
 70
     1
102
RTVSPropertyOp26
 70
     1
102
RTVSPropertyOp27
 70
     1
102
RTVSPropertyOp28
 70
     1
102
RTVSPropertyOp29
 70
     1
102
RTVSPropertyOp30
 70
     1
102
RTVSPropertyOp31
 70
     1
102
RTVSPropertyOp32
 70
     1
102
RTVSPropertyOp33
 70
     1
102
RTVSPropertyOp34
 70
     1
102
RTVSPropertyOp35
 70
     1
102
RTVSPropertyOp36
 70
     1
102
RTVSPropertyOp37
 70
     1
102
RTVSPropertyOp38
 70
     1
102
RTVSPropertyOp39
 70
     1
102
RTVSPropertyOp40
 70
     1
102
RTVSPropertyOp41
 70
     1
102
RTVSPropertyOp42
 70
     1
102
RTVSPropertyOp43
 70
     1
102
RTVSPropertyOp44
 70
     1
102
RTVSPropertyOp45
 70
     1
102
RTVSPropertyOp46
 70
     1
102
RTVSPropertyOp47
 70
     1
102
RTVSPropertyOp48
 70
     1
102
RTVSPropertyOp49
 70
     1
102
RTVSPropertyOp50
 70
     1
102
RTVSPropertyOp51
 70
     0
102
RTVSPropertyOp52
 70
     0
102
RTVSPropertyOp53
 70
     1
102
RTVSPropertyOp54
 70
     1
102
RTVSPropertyOp55
 70
     1
102
RTVSPropertyOp56
 70
     1
102
RTVSPropertyOp57
 70
     1
102
RTVSPost2010Prop28
280
     0
102
RTVSPost2010PropOp28
 70
     1
102
RTVSPost2010Prop29
280
     1
102
RTVSPost2010PropOp29
 70
     1
102
RTVSPost2010Prop30
280
     1
102
RTVSPost2010PropOp30
 70
     1
102
RTVSPost2010Prop31
280
     0
102
RTVSPost2010PropOp31
 70
     1
102
RTVSPost2010Prop32
280
     0
102
RTVSPost2010PropOp32
 70
     1
102
RTVSPost2010Prop33
280
     0
102
RTVSPost2010PropOp33
 70
     1
102
RTVSPost2010Prop34
280
     0
102
RTVSPost2010PropOp34
 70
     1
102
RTVSPost2010Prop35
280
     0
102
RTVSPost2010PropOp35
 70
     1
102
RTVSPost2010Prop36
280
     0
102
RTVSPost2010PropOp36
 70
     1
102
RTVSPost2010Prop37
 90
       50
102
RTVSPost2010PropOp37
 70
     1
102
RTVSPost2010Prop38
140
0.0
102
RTVSPost2010PropOp38
 70
     1
102
RTVSPost2010Prop39
140
1.0
102
RTVSPost2010PropOp39
 70
     1
102
RTVSPost2010Prop40
 90
        0
102
RTVSPost2010PropOp40
 70
     1
102
RTVSPost2010Prop41ColorIndex
 90
       18
102
RTVSPost2010Prop41ColorRGB
 90
        0
102
RTVSPost2010PropOp41
 70
     1
102
RTVSPost2010Prop42
 90
       50
102
RTVSPost2010PropOp42
 70
     1
102
RTVSPost2010Prop43
 90
        3
102
RTVSPost2010PropOp43
 70
     1
102
RTVSPost2010Prop44ColorIndex
 90
        5
102
RTVSPost2010Prop44ColorRGB
 90
      255
102
RTVSPost2010PropOp44
 70
     1
102
RTVSPost2010Prop45
280
     0
102
RTVSPost2010PropOp45
 70
     1
102
RTVSPost2010Prop46
 90
       50
102
RTVSPost2010PropOp46
 70
     1
102
RTVSPost2010Prop47
 90
       50
102
RTVSPost2010PropOp47
 70
     1
102
RTVSPost2010Prop48
 90
       50
102
RTVSPost2010PropOp48
 70
     1
102
RTVSPost2010Prop49
280
     0
102
RTVSPost2010PropOp49
 70
     1
102
RTVSPost2010Prop50
 90
       50
102
RTVSPost2010PropOp50
 70
     1
102
RTVSPost2010Prop51ColorIndex
 90
      256
102
RTVSPost2010Prop51ColorRGB
 90
-16777216
102
RTVSPost2010PropOp51
 70
     0
102
RTVSPost2010Prop52
140
1.0
102
RTVSPost2010PropOp52
 70
     0
102
RTVSPost2010Prop53
 90
        2
102
RTVSPost2010PropOp53
 70
     1
102
RTVSPost2010Prop54
  1
strokes_ogs.tif
102
RTVSPost2010PropOp54
 70
     1
102
RTVSPost2010Prop55
280
     0
102
RTVSPost2010PropOp55
 70
     1
102
RTVSPost2010Prop56
140
1.0
102
RTVSPost2010PropOp56
 70
     1
102
RTVSPost2010Prop57
140
1.0
102
RTVSPost2010PropOp57
 70
     1
  0
XRECORD
  5
2E8
102
{ACAD_REACTORS
330
2E7
102
}
330
2E7
100
AcDbXrecord
280
     1
102
RTVSPropertyOp0
 70
     0
102
RTVSPropertyOp1
 70
     0
102
RTVSPropertyOp2
 70
     0
102
RTVSPropertyOp3
 70
     0
102
RTVSPropertyOp4
 70
     0
102
RTVSPropertyOp5
 70
     0
102
RTVSPropertyOp6
 70
     0
102
RTVSPropertyOp7
 70
     0
102
RTVSPropertyOp8
 70
     0
102
RTVSPropertyOp9
 70
     0
102
RTVSPropertyOp10
 70
     0
102
RTVSPropertyOp11
 70
     0
102
RTVSPropertyOp12
 70
     0
102
RTVSPropertyOp13
 70
     0
102
RTVSPropertyOp14
 70
     2
102
RTVSPropertyOp15
 70
     0
102
RTVSPropertyOp16
 70
     0
102
RTVSPropertyOp17
 70
     0
102
RTVSPropertyOp18
 70
     0
102
RTVSPropertyOp19
 70
     0
102
RTVSPropertyOp20
 70
     0
102
RTVSPropertyOp21
 70
     0
102
RTVSPropertyOp22
 70
     0
102
RTVSPropertyOp23
 70
     0
102
RTVSPropertyOp24
 70
     0
102
RTVSPropertyOp25
 70
     0
102
RTVSPropertyOp26
 70
     0
102
RTVSPropertyOp27
 70
     0
102
RTVSPropertyOp28
 70
     0
102
RTVSPropertyOp29
 70
     0
102
RTVSPropertyOp30
 70
     0
102
RTVSPropertyOp31
 70
     0
102
RTVSPropertyOp32
 70
     0
102
RTVSPropertyOp33
 70
     0
102
RTVSPropertyOp34
 70
     0
102
RTVSPropertyOp35
 70
     0
102
RTVSPropertyOp36
 70
     0
102
RTVSPropertyOp37
 70
     0
102
RTVSPropertyOp38
 70
     0
102
RTVSPropertyOp39
 70
     0
102
RTVSPropertyOp40
 70
     0
102
RTVSPropertyOp41
 70
     0
102
RTVSPropertyOp42
 70
     0
102
RTVSPropertyOp43
 70
     0
102
RTVSPropertyOp44
 70
     0
102
RTVSPropertyOp45
 70
     0
102
RTVSPropertyOp46
 70
     0
102
RTVSPropertyOp47
 70
     0
102
RTVSPropertyOp48
 70
     0
102
RTVSPropertyOp49
 70
     0
102
RTVSPropertyOp50
 70
     0
102
RTVSPropertyOp51
 70
     0
102
RTVSPropertyOp52
 70
     0
102
RTVSPropertyOp53
 70
     0
102
RTVSPropertyOp54
 70
     0
102
RTVSPropertyOp55
 70
     0
102
RTVSPropertyOp56
 70
     0
102
RTVSPropertyOp57
 70
     0
102
RTVSPost2010Prop28
280
     0
102
RTVSPost2010PropOp28
 70
     0
102
RTVSPost2010Prop29
280
     1
102
RTVSPost2010PropOp29
 70
     0
102
RTVSPost2010Prop30
280
     1
102
RTVSPost2010PropOp30
 70
     0
102
RTVSPost2010Prop31
280
     0
102
RTVSPost2010PropOp31
 70
     0
102
RTVSPost2010Prop32
280
     0
102
RTVSPost2010PropOp32
 70
     0
102
RTVSPost2010Prop33
280
     0
102
RTVSPost2010PropOp33
 70
     0
102
RTVSPost2010Prop34
280
     0
102
RTVSPost2010PropOp34
 70
     0
102
RTVSPost2010Prop35
280
     0
102
RTVSPost2010PropOp35
 70
     0
102
RTVSPost2010Prop36
280
     0
102
RTVSPost2010PropOp36
 70
     0
102
RTVSPost2010Prop37
 90
       50
102
RTVSPost2010PropOp37
 70
     0
102
RTVSPost2010Prop38
140
0.0
102
RTVSPost2010PropOp38
 70
     0
102
RTVSPost2010Prop39
140
1.0
102
RTVSPost2010PropOp39
 70
     0
102
RTVSPost2010Prop40
 90
        0
102
RTVSPost2010PropOp40
 70
     0
102
RTVSPost2010Prop41ColorIndex
 90
       18
102
RTVSPost2010Prop41ColorRGB
 90
        0
102
RTVSPost2010PropOp41
 70
     0
102
RTVSPost2010Prop42
 90
       50
102
RTVSPost2010PropOp42
 70
     0
102
RTVSPost2010Prop43
 90
        3
102
RTVSPost2010PropOp43
 70
     0
102
RTVSPost2010Prop44ColorIndex
 90
        5
102
RTVSPost2010Prop44ColorRGB
 90
      255
102
RTVSPost2010PropOp44
 70
     0
102
RTVSPost2010Prop45
280
     0
102
RTVSPost2010PropOp45
 70
     0
102
RTVSPost2010Prop46
 90
       50
102
RTVSPost2010PropOp46
 70
     0
102
RTVSPost2010Prop47
 90
       50
102
RTVSPost2010PropOp47
 70
     0
102
RTVSPost2010Prop48
 90
       50
102
RTVSPost2010PropOp48
 70
     0
102
RTVSPost2010Prop49
280
     0
102
RTVSPost2010PropOp49
 70
     0
102
RTVSPost2010Prop50
 90
       50
102
RTVSPost2010PropOp50
 70
     0
102
RTVSPost2010Prop51ColorIndex
 90
      256
102
RTVSPost2010Prop51ColorRGB
 90
-16777216
102
RTVSPost2010PropOp51
 70
     0
102
RTVSPost2010Prop52
140
1.0
102
RTVSPost2010PropOp52
 70
     0
102
RTVSPost2010Prop53
 90
        2
102
RTVSPost2010PropOp53
 70
     0
102
RTVSPost2010Prop54
  1
strokes_ogs.tif
102
RTVSPost2010PropOp54
 70
     0
102
RTVSPost2010Prop55
280
     0
102
RTVSPost2010PropOp55
 70
     0
102
RTVSPost2010Prop56
140
1.0
102
RTVSPost2010PropOp56
 70
     0
102
RTVSPost2010Prop57
140
1.0
102
RTVSPost2010PropOp57
 70
     0
  0
XRECORD
  5
2D6
102
{ACAD_REACTORS
330
2D5
102
}
330
2D5
100
AcDbXrecord
280
     1
102
RTVSPropertyOp0
 70
     1
102
RTVSPropertyOp1
 70
     1
102
RTVSPropertyOp2
 70
     1
102
RTVSPropertyOp3
 70
     1
102
RTVSPropertyOp4
 70
     1
102
RTVSPropertyOp5
 70
     1
102
RTVSPropertyOp6
 70
     1
102
RTVSPropertyOp7
 70
     1
102
RTVSPropertyOp8
 70
     1
102
RTVSPropertyOp9
 70
     1
102
RTVSPropertyOp10
 70
     1
102
RTVSPropertyOp11
 70
     1
102
RTVSPropertyOp12
 70
     1
102
RTVSPropertyOp13
 70
     1
102
RTVSPropertyOp14
 70
     1
102
RTVSPropertyOp15
 70
     1
102
RTVSPropertyOp16
 70
     1
102
RTVSPropertyOp17
 70
     1
102
RTVSPropertyOp18
 70
     1
102
RTVSPropertyOp19
 70
     1
102
RTVSPropertyOp20
 70
     1
102
RTVSPropertyOp21
 70
     1
102
RTVSPropertyOp22
 70
     1
102
RTVSPropertyOp23
 70
     1
102
RTVSPropertyOp24
 70
     1
102
RTVSPropertyOp25
 70
     1
102
RTVSPropertyOp26
 70
     1
102
RTVSPropertyOp27
 70
     1
102
RTVSPropertyOp28
 70
     1
102
RTVSPropertyOp29
 70
     1
102
RTVSPropertyOp30
 70
     1
102
RTVSPropertyOp31
 70
     1
102
RTVSPropertyOp32
 70
     1
102
RTVSPropertyOp33
 70
     1
102
RTVSPropertyOp34
 70
     1
102
RTVSPropertyOp35
 70
     1
102
RTVSPropertyOp36
 70
     1
102
RTVSPropertyOp37
 70
     1
102
RTVSPropertyOp38
 70
     1
102
RTVSPropertyOp39
 70
     1
102
RTVSPropertyOp40
 70
     1
102
RTVSPropertyOp41
 70
     1
102
RTVSPropertyOp42
 70
     1
102
RTVSPropertyOp43
 70
     1
102
RTVSPropertyOp44
 70
     1
102
RTVSPropertyOp45
 70
     1
102
RTVSPropertyOp46
 70
     1
102
RTVSPropertyOp47
 70
     1
102
RTVSPropertyOp48
 70
     1
102
RTVSPropertyOp49
 70
     1
102
RTVSPropertyOp50
 70
     1
102
RTVSPropertyOp51
 70
     0
102
RTVSPropertyOp52
 70
     0
102
RTVSPropertyOp53
 70
     1
102
RTVSPropertyOp54
 70
     1
102
RTVSPropertyOp55
 70
     1
102
RTVSPropertyOp56
 70
     1
102
RTVSPropertyOp57
 70
     1
102
RTVSPost2010Prop28
280
     0
102
RTVSPost2010PropOp28
 70
     1
102
RTVSPost2010Prop29
280
     1
102
RTVSPost2010PropOp29
 70
     1
102
RTVSPost2010Prop30
280
     1
102
RTVSPost2010PropOp30
 70
     1
102
RTVSPost2010Prop31
280
     0
102
RTVSPost2010PropOp31
 70
     1
102
RTVSPost2010Prop32
280
     0
102
RTVSPost2010PropOp32
 70
     1
102
RTVSPost2010Prop33
280
     0
102
RTVSPost2010PropOp33
 70
     1
102
RTVSPost2010Prop34
280
     0
102
RTVSPost2010PropOp34
 70
     1
102
RTVSPost2010Prop35
280
     0
102
RTVSPost2010PropOp35
 70
     1
102
RTVSPost2010Prop36
280
     0
102
RTVSPost2010PropOp36
 70
     1
102
RTVSPost2010Prop37
 90
       50
102
RTVSPost2010PropOp37
 70
     1
102
RTVSPost2010Prop38
140
0.0
102
RTVSPost2010PropOp38
 70
     1
102
RTVSPost2010Prop39
140
1.0
102
RTVSPost2010PropOp39
 70
     1
102
RTVSPost2010Prop40
 90
        0
102
RTVSPost2010PropOp40
 70
     1
102
RTVSPost2010Prop41ColorIndex
 90
       18
102
RTVSPost2010Prop41ColorRGB
 90
        0
102
RTVSPost2010PropOp41
 70
     1
102
RTVSPost2010Prop42
 90
       50
102
RTVSPost2010PropOp42
 70
     1
102
RTVSPost2010Prop43
 90
        3
102
RTVSPost2010PropOp43
 70
     1
102
RTVSPost2010Prop44ColorIndex
 90
        5
102
RTVSPost2010Prop44ColorRGB
 90
      255
102
RTVSPost2010PropOp44
 70
     1
102
RTVSPost2010Prop45
280
     0
102
RTVSPost2010PropOp45
 70
     1
102
RTVSPost2010Prop46
 90
       50
102
RTVSPost2010PropOp46
 70
     1
102
RTVSPost2010Prop47
 90
       50
102
RTVSPost2010PropOp47
 70
     1
102
RTVSPost2010Prop48
 90
       50
102
RTVSPost2010PropOp48
 70
     1
102
RTVSPost2010Prop49
280
     0
102
RTVSPost2010PropOp49
 70
     1
102
RTVSPost2010Prop50
 90
       50
102
RTVSPost2010PropOp50
 70
     1
102
RTVSPost2010Prop51ColorIndex
 90
      256
102
RTVSPost2010Prop51ColorRGB
 90
-16777216
102
RTVSPost2010PropOp51
 70
     0
102
RTVSPost2010Prop52
140
1.0
102
RTVSPost2010PropOp52
 70
     0
102
RTVSPost2010Prop53
 90
        2
102
RTVSPost2010PropOp53
 70
     1
102
RTVSPost2010Prop54
  1
strokes_ogs.tif
102
RTVSPost2010PropOp54
 70
     1
102
RTVSPost2010Prop55
280
     0
102
RTVSPost2010PropOp55
 70
     1
102
RTVSPost2010Prop56
140
1.0
102
RTVSPost2010PropOp56
 70
     1
102
RTVSPost2010Prop57
140
1.0
102
RTVSPost2010PropOp57
 70
     1
  0
XRECORD
  5
2F4
102
{ACAD_REACTORS
330
2F3
102
}
330
2F3
100
AcDbXrecord
280
     1
102
RTVSPropertyOp0
 70
     1
102
RTVSPropertyOp1
 70
     1
102
RTVSPropertyOp2
 70
     1
102
RTVSPropertyOp3
 70
     1
102
RTVSPropertyOp4
 70
     1
102
RTVSPropertyOp5
 70
     1
102
RTVSPropertyOp6
 70
     1
102
RTVSPropertyOp7
 70
     1
102
RTVSPropertyOp8
 70
     1
102
RTVSPropertyOp9
 70
     1
102
RTVSPropertyOp10
 70
     1
102
RTVSPropertyOp11
 70
     1
102
RTVSPropertyOp12
 70
     1
102
RTVSPropertyOp13
 70
     1
102
RTVSPropertyOp14
 70
     1
102
RTVSPropertyOp15
 70
     1
102
RTVSPropertyOp16
 70
     1
102
RTVSPropertyOp17
 70
     1
102
RTVSPropertyOp18
 70
     1
102
RTVSPropertyOp19
 70
     1
102
RTVSPropertyOp20
 70
     1
102
RTVSPropertyOp21
 70
     1
102
RTVSPropertyOp22
 70
     1
102
RTVSPropertyOp23
 70
     1
102
RTVSPropertyOp24
 70
     1
102
RTVSPropertyOp25
 70
     1
102
RTVSPropertyOp26
 70
     1
102
RTVSPropertyOp27
 70
     1
102
RTVSPropertyOp28
 70
     1
102
RTVSPropertyOp29
 70
     1
102
RTVSPropertyOp30
 70
     1
102
RTVSPropertyOp31
 70
     1
102
RTVSPropertyOp32
 70
     1
102
RTVSPropertyOp33
 70
     1
102
RTVSPropertyOp34
 70
     1
102
RTVSPropertyOp35
 70
     1
102
RTVSPropertyOp36
 70
     1
102
RTVSPropertyOp37
 70
     1
102
RTVSPropertyOp38
 70
     1
102
RTVSPropertyOp39
 70
     1
102
RTVSPropertyOp40
 70
     1
102
RTVSPropertyOp41
 70
     1
102
RTVSPropertyOp42
 70
     1
102
RTVSPropertyOp43
 70
     1
102
RTVSPropertyOp44
 70
     1
102
RTVSPropertyOp45
 70
     1
102
RTVSPropertyOp46
 70
     1
102
RTVSPropertyOp47
 70
     1
102
RTVSPropertyOp48
 70
     1
102
RTVSPropertyOp49
 70
     1
102
RTVSPropertyOp50
 70
     1
102
RTVSPropertyOp51
 70
     0
102
RTVSPropertyOp52
 70
     0
102
RTVSPropertyOp53
 70
     1
102
RTVSPropertyOp54
 70
     1
102
RTVSPropertyOp55
 70
     1
102
RTVSPropertyOp56
 70
     1
102
RTVSPropertyOp57
 70
     1
102
RTVSPost2010Prop28
280
     0
102
RTVSPost2010PropOp28
 70
     1
102
RTVSPost2010Prop29
280
     1
102
RTVSPost2010PropOp29
 70
     1
102
RTVSPost2010Prop30
280
     1
102
RTVSPost2010PropOp30
 70
     1
102
RTVSPost2010Prop31
280
     0
102
RTVSPost2010PropOp31
 70
     1
102
RTVSPost2010Prop32
280
     0
102
RTVSPost2010PropOp32
 70
     1
102
RTVSPost2010Prop33
280
     0
102
RTVSPost2010PropOp33
 70
     1
102
RTVSPost2010Prop34
280
     0
102
RTVSPost2010PropOp34
 70
     1
102
RTVSPost2010Prop35
280
     0
102
RTVSPost2010PropOp35
 70
     1
102
RTVSPost2010Prop36
280
     0
102
RTVSPost2010PropOp36
 70
     1
102
RTVSPost2010Prop37
 90
       50
102
RTVSPost2010PropOp37
 70
     1
102
RTVSPost2010Prop38
140
0.0
102
RTVSPost2010PropOp38
 70
     1
102
RTVSPost2010Prop39
140
1.0
102
RTVSPost2010PropOp39
 70
     1
102
RTVSPost2010Prop40
 90
        0
102
RTVSPost2010PropOp40
 70
     1
102
RTVSPost2010Prop41ColorIndex
 90
       18
102
RTVSPost2010Prop41ColorRGB
 90
        0
102
RTVSPost2010PropOp41
 70
     1
102
RTVSPost2010Prop42
 90
       50
102
RTVSPost2010PropOp42
 70
     1
102
RTVSPost2010Prop43
 90
        3
102
RTVSPost2010PropOp43
 70
     1
102
RTVSPost2010Prop44ColorIndex
 90
        5
102
RTVSPost2010Prop44ColorRGB
 90
      255
102
RTVSPost2010PropOp44
 70
     1
102
RTVSPost2010Prop45
280
     0
102
RTVSPost2010PropOp45
 70
     1
102
RTVSPost2010Prop46
 90
       50
102
RTVSPost2010PropOp46
 70
     1
102
RTVSPost2010Prop47
 90
       50
102
RTVSPost2010PropOp47
 70
     1
102
RTVSPost2010Prop48
 90
       50
102
RTVSPost2010PropOp48
 70
     1
102
RTVSPost2010Prop49
280
     0
102
RTVSPost2010PropOp49
 70
     1
102
RTVSPost2010Prop50
 90
       50
102
RTVSPost2010PropOp50
 70
     1
102
RTVSPost2010Prop51ColorIndex
 90
      256
102
RTVSPost2010Prop51ColorRGB
 90
-16777216
102
RTVSPost2010PropOp51
 70
     0
102
RTVSPost2010Prop52
140
1.0
102
RTVSPost2010PropOp52
 70
     0
102
RTVSPost2010Prop53
 90
        2
102
RTVSPost2010PropOp53
 70
     1
102
RTVSPost2010Prop54
  1
strokes_ogs.tif
102
RTVSPost2010PropOp54
 70
     1
102
RTVSPost2010Prop55
280
     0
102
RTVSPost2010PropOp55
 70
     1
102
RTVSPost2010Prop56
140
1.0
102
RTVSPost2010PropOp56
 70
     1
102
RTVSPost2010Prop57
140
1.0
102
RTVSPost2010PropOp57
 70
     1
  0
XRECORD
  5
2F2
102
{ACAD_REACTORS
330
2F1
102
}
330
2F1
100
AcDbXrecord
280
     1
102
RTVSPropertyOp0
 70
     1
102
RTVSPropertyOp1
 70
     1
102
RTVSPropertyOp2
 70
     1
102
RTVSPropertyOp3
 70
     1
102
RTVSPropertyOp4
 70
     1
102
RTVSPropertyOp5
 70
     1
102
RTVSPropertyOp6
 70
     1
102
RTVSPropertyOp7
 70
     1
102
RTVSPropertyOp8
 70
     1
102
RTVSPropertyOp9
 70
     1
102
RTVSPropertyOp10
 70
     1
102
RTVSPropertyOp11
 70
     1
102
RTVSPropertyOp12
 70
     1
102
RTVSPropertyOp13
 70
     1
102
RTVSPropertyOp14
 70
     1
102
RTVSPropertyOp15
 70
     1
102
RTVSPropertyOp16
 70
     1
102
RTVSPropertyOp17
 70
     1
102
RTVSPropertyOp18
 70
     1
102
RTVSPropertyOp19
 70
     1
102
RTVSPropertyOp20
 70
     1
102
RTVSPropertyOp21
 70
     1
102
RTVSPropertyOp22
 70
     1
102
RTVSPropertyOp23
 70
     1
102
RTVSPropertyOp24
 70
     1
102
RTVSPropertyOp25
 70
     1
102
RTVSPropertyOp26
 70
     1
102
RTVSPropertyOp27
 70
     1
102
RTVSPropertyOp28
 70
     1
102
RTVSPropertyOp29
 70
     1
102
RTVSPropertyOp30
 70
     1
102
RTVSPropertyOp31
 70
     1
102
RTVSPropertyOp32
 70
     1
102
RTVSPropertyOp33
 70
     1
102
RTVSPropertyOp34
 70
     1
102
RTVSPropertyOp35
 70
     1
102
RTVSPropertyOp36
 70
     1
102
RTVSPropertyOp37
 70
     1
102
RTVSPropertyOp38
 70
     1
102
RTVSPropertyOp39
 70
     1
102
RTVSPropertyOp40
 70
     1
102
RTVSPropertyOp41
 70
     1
102
RTVSPropertyOp42
 70
     1
102
RTVSPropertyOp43
 70
     1
102
RTVSPropertyOp44
 70
     1
102
RTVSPropertyOp45
 70
     1
102
RTVSPropertyOp46
 70
     1
102
RTVSPropertyOp47
 70
     1
102
RTVSPropertyOp48
 70
     1
102
RTVSPropertyOp49
 70
     1
102
RTVSPropertyOp50
 70
     1
102
RTVSPropertyOp51
 70
     0
102
RTVSPropertyOp52
 70
     0
102
RTVSPropertyOp53
 70
     1
102
RTVSPropertyOp54
 70
     1
102
RTVSPropertyOp55
 70
     1
102
RTVSPropertyOp56
 70
     1
102
RTVSPropertyOp57
 70
     1
102
RTVSPost2010Prop28
280
     0
102
RTVSPost2010PropOp28
 70
     1
102
RTVSPost2010Prop29
280
     1
102
RTVSPost2010PropOp29
 70
     1
102
RTVSPost2010Prop30
280
     1
102
RTVSPost2010PropOp30
 70
     1
102
RTVSPost2010Prop31
280
     0
102
RTVSPost2010PropOp31
 70
     1
102
RTVSPost2010Prop32
280
     0
102
RTVSPost2010PropOp32
 70
     1
102
RTVSPost2010Prop33
280
     0
102
RTVSPost2010PropOp33
 70
     1
102
RTVSPost2010Prop34
280
     0
102
RTVSPost2010PropOp34
 70
     1
102
RTVSPost2010Prop35
280
     0
102
RTVSPost2010PropOp35
 70
     1
102
RTVSPost2010Prop36
280
     0
102
RTVSPost2010PropOp36
 70
     1
102
RTVSPost2010Prop37
 90
       50
102
RTVSPost2010PropOp37
 70
     1
102
RTVSPost2010Prop38
140
0.0
102
RTVSPost2010PropOp38
 70
     1
102
RTVSPost2010Prop39
140
1.0
102
RTVSPost2010PropOp39
 70
     1
102
RTVSPost2010Prop40
 90
        0
102
RTVSPost2010PropOp40
 70
     1
102
RTVSPost2010Prop41ColorIndex
 90
       18
102
RTVSPost2010Prop41ColorRGB
 90
        0
102
RTVSPost2010PropOp41
 70
     1
102
RTVSPost2010Prop42
 90
       50
102
RTVSPost2010PropOp42
 70
     1
102
RTVSPost2010Prop43
 90
        3
102
RTVSPost2010PropOp43
 70
     1
102
RTVSPost2010Prop44ColorIndex
 90
        5
102
RTVSPost2010Prop44ColorRGB
 90
      255
102
RTVSPost2010PropOp44
 70
     1
102
RTVSPost2010Prop45
280
     0
102
RTVSPost2010PropOp45
 70
     1
102
RTVSPost2010Prop46
 90
       50
102
RTVSPost2010PropOp46
 70
     1
102
RTVSPost2010Prop47
 90
       50
102
RTVSPost2010PropOp47
 70
     1
102
RTVSPost2010Prop48
 90
       50
102
RTVSPost2010PropOp48
 70
     1
102
RTVSPost2010Prop49
280
     0
102
RTVSPost2010PropOp49
 70
     1
102
RTVSPost2010Prop50
 90
       50
102
RTVSPost2010PropOp50
 70
     1
102
RTVSPost2010Prop51ColorIndex
 90
      256
102
RTVSPost2010Prop51ColorRGB
 90
-16777216
102
RTVSPost2010PropOp51
 70
     0
102
RTVSPost2010Prop52
140
1.0
102
RTVSPost2010PropOp52
 70
     0
102
RTVSPost2010Prop53
 90
        2
102
RTVSPost2010PropOp53
 70
     1
102
RTVSPost2010Prop54
  1
strokes_ogs.tif
102
RTVSPost2010PropOp54
 70
     1
102
RTVSPost2010Prop55
280
     0
102
RTVSPost2010PropOp55
 70
     1
102
RTVSPost2010Prop56
140
1.0
102
RTVSPost2010PropOp56
 70
     1
102
RTVSPost2010Prop57
140
1.0
102
RTVSPost2010PropOp57
 70
     1
  0
XRECORD
  5
2EC
102
{ACAD_REACTORS
330
2EB
102
}
330
2EB
100
AcDbXrecord
280
     1
102
RTVSPropertyOp0
 70
     1
102
RTVSPropertyOp1
 70
     1
102
RTVSPropertyOp2
 70
     1
102
RTVSPropertyOp3
 70
     1
102
RTVSPropertyOp4
 70
     1
102
RTVSPropertyOp5
 70
     1
102
RTVSPropertyOp6
 70
     1
102
RTVSPropertyOp7
 70
     1
102
RTVSPropertyOp8
 70
     1
102
RTVSPropertyOp9
 70
     1
102
RTVSPropertyOp10
 70
     1
102
RTVSPropertyOp11
 70
     1
102
RTVSPropertyOp12
 70
     1
102
RTVSPropertyOp13
 70
     1
102
RTVSPropertyOp14
 70
     1
102
RTVSPropertyOp15
 70
     1
102
RTVSPropertyOp16
 70
     1
102
RTVSPropertyOp17
 70
     1
102
RTVSPropertyOp18
 70
     1
102
RTVSPropertyOp19
 70
     1
102
RTVSPropertyOp20
 70
     1
102
RTVSPropertyOp21
 70
     1
102
RTVSPropertyOp22
 70
     1
102
RTVSPropertyOp23
 70
     1
102
RTVSPropertyOp24
 70
     1
102
RTVSPropertyOp25
 70
     1
102
RTVSPropertyOp26
 70
     1
102
RTVSPropertyOp27
 70
     1
102
RTVSPropertyOp28
 70
     1
102
RTVSPropertyOp29
 70
     1
102
RTVSPropertyOp30
 70
     1
102
RTVSPropertyOp31
 70
     1
102
RTVSPropertyOp32
 70
     1
102
RTVSPropertyOp33
 70
     1
102
RTVSPropertyOp34
 70
     1
102
RTVSPropertyOp35
 70
     1
102
RTVSPropertyOp36
 70
     1
102
RTVSPropertyOp37
 70
     1
102
RTVSPropertyOp38
 70
     1
102
RTVSPropertyOp39
 70
     1
102
RTVSPropertyOp40
 70
     1
102
RTVSPropertyOp41
 70
     1
102
RTVSPropertyOp42
 70
     1
102
RTVSPropertyOp43
 70
     1
102
RTVSPropertyOp44
 70
     1
102
RTVSPropertyOp45
 70
     1
102
RTVSPropertyOp46
 70
     1
102
RTVSPropertyOp47
 70
     1
102
RTVSPropertyOp48
 70
     1
102
RTVSPropertyOp49
 70
     1
102
RTVSPropertyOp50
 70
     1
102
RTVSPropertyOp51
 70
     0
102
RTVSPropertyOp52
 70
     0
102
RTVSPropertyOp53
 70
     1
102
RTVSPropertyOp54
 70
     1
102
RTVSPropertyOp55
 70
     1
102
RTVSPropertyOp56
 70
     1
102
RTVSPropertyOp57
 70
     1
102
RTVSPost2010Prop28
280
     0
102
RTVSPost2010PropOp28
 70
     1
102
RTVSPost2010Prop29
280
     1
102
RTVSPost2010PropOp29
 70
     1
102
RTVSPost2010Prop30
280
     1
102
RTVSPost2010PropOp30
 70
     1
102
RTVSPost2010Prop31
280
     0
102
RTVSPost2010PropOp31
 70
     1
102
RTVSPost2010Prop32
280
     0
102
RTVSPost2010PropOp32
 70
     1
102
RTVSPost2010Prop33
280
     0
102
RTVSPost2010PropOp33
 70
     1
102
RTVSPost2010Prop34
280
     0
102
RTVSPost2010PropOp34
 70
     1
102
RTVSPost2010Prop35
280
     0
102
RTVSPost2010PropOp35
 70
     1
102
RTVSPost2010Prop36
280
     0
102
RTVSPost2010PropOp36
 70
     1
102
RTVSPost2010Prop37
 90
       50
102
RTVSPost2010PropOp37
 70
     1
102
RTVSPost2010Prop38
140
0.0
102
RTVSPost2010PropOp38
 70
     1
102
RTVSPost2010Prop39
140
1.0
102
RTVSPost2010PropOp39
 70
     1
102
RTVSPost2010Prop40
 90
        0
102
RTVSPost2010PropOp40
 70
     1
102
RTVSPost2010Prop41ColorIndex
 90
       18
102
RTVSPost2010Prop41ColorRGB
 90
        0
102
RTVSPost2010PropOp41
 70
     1
102
RTVSPost2010Prop42
 90
       50
102
RTVSPost2010PropOp42
 70
     1
102
RTVSPost2010Prop43
 90
        3
102
RTVSPost2010PropOp43
 70
     1
102
RTVSPost2010Prop44ColorIndex
 90
        5
102
RTVSPost2010Prop44ColorRGB
 90
      255
102
RTVSPost2010PropOp44
 70
     1
102
RTVSPost2010Prop45
280
     0
102
RTVSPost2010PropOp45
 70
     1
102
RTVSPost2010Prop46
 90
       50
102
RTVSPost2010PropOp46
 70
     1
102
RTVSPost2010Prop47
 90
       50
102
RTVSPost2010PropOp47
 70
     1
102
RTVSPost2010Prop48
 90
       50
102
RTVSPost2010PropOp48
 70
     1
102
RTVSPost2010Prop49
280
     0
102
RTVSPost2010PropOp49
 70
     1
102
RTVSPost2010Prop50
 90
       50
102
RTVSPost2010PropOp50
 70
     1
102
RTVSPost2010Prop51ColorIndex
 90
      256
102
RTVSPost2010Prop51ColorRGB
 90
-16777216
102
RTVSPost2010PropOp51
 70
     0
102
RTVSPost2010Prop52
140
1.0
102
RTVSPost2010PropOp52
 70
     0
102
RTVSPost2010Prop53
 90
        2
102
RTVSPost2010PropOp53
 70
     1
102
RTVSPost2010Prop54
  1
strokes_ogs.tif
102
RTVSPost2010PropOp54
 70
     1
102
RTVSPost2010Prop55
280
     0
102
RTVSPost2010PropOp55
 70
     1
102
RTVSPost2010Prop56
140
1.0
102
RTVSPost2010PropOp56
 70
     1
102
RTVSPost2010Prop57
140
1.0
102
RTVSPost2010PropOp57
 70
     1
  0
XRECORD
  5
2EE
102
{ACAD_REACTORS
330
2ED
102
}
330
2ED
100
AcDbXrecord
280
     1
102
RTVSPropertyOp0
 70
     1
102
RTVSPropertyOp1
 70
     1
102
RTVSPropertyOp2
 70
     1
102
RTVSPropertyOp3
 70
     1
102
RTVSPropertyOp4
 70
     1
102
RTVSPropertyOp5
 70
     1
102
RTVSPropertyOp6
 70
     1
102
RTVSPropertyOp7
 70
     1
102
RTVSPropertyOp8
 70
     1
102
RTVSPropertyOp9
 70
     1
102
RTVSPropertyOp10
 70
     1
102
RTVSPropertyOp11
 70
     1
102
RTVSPropertyOp12
 70
     1
102
RTVSPropertyOp13
 70
     1
102
RTVSPropertyOp14
 70
     1
102
RTVSPropertyOp15
 70
     1
102
RTVSPropertyOp16
 70
     1
102
RTVSPropertyOp17
 70
     1
102
RTVSPropertyOp18
 70
     1
102
RTVSPropertyOp19
 70
     1
102
RTVSPropertyOp20
 70
     1
102
RTVSPropertyOp21
 70
     1
102
RTVSPropertyOp22
 70
     1
102
RTVSPropertyOp23
 70
     1
102
RTVSPropertyOp24
 70
     1
102
RTVSPropertyOp25
 70
     1
102
RTVSPropertyOp26
 70
     1
102
RTVSPropertyOp27
 70
     1
102
RTVSPropertyOp28
 70
     1
102
RTVSPropertyOp29
 70
     1
102
RTVSPropertyOp30
 70
     1
102
RTVSPropertyOp31
 70
     1
102
RTVSPropertyOp32
 70
     1
102
RTVSPropertyOp33
 70
     1
102
RTVSPropertyOp34
 70
     1
102
RTVSPropertyOp35
 70
     1
102
RTVSPropertyOp36
 70
     1
102
RTVSPropertyOp37
 70
     1
102
RTVSPropertyOp38
 70
     1
102
RTVSPropertyOp39
 70
     1
102
RTVSPropertyOp40
 70
     1
102
RTVSPropertyOp41
 70
     1
102
RTVSPropertyOp42
 70
     1
102
RTVSPropertyOp43
 70
     1
102
RTVSPropertyOp44
 70
     1
102
RTVSPropertyOp45
 70
     1
102
RTVSPropertyOp46
 70
     1
102
RTVSPropertyOp47
 70
     1
102
RTVSPropertyOp48
 70
     1
102
RTVSPropertyOp49
 70
     1
102
RTVSPropertyOp50
 70
     1
102
RTVSPropertyOp51
 70
     0
102
RTVSPropertyOp52
 70
     0
102
RTVSPropertyOp53
 70
     1
102
RTVSPropertyOp54
 70
     1
102
RTVSPropertyOp55
 70
     1
102
RTVSPropertyOp56
 70
     1
102
RTVSPropertyOp57
 70
     1
102
RTVSPost2010Prop28
280
     0
102
RTVSPost2010PropOp28
 70
     1
102
RTVSPost2010Prop29
280
     1
102
RTVSPost2010PropOp29
 70
     1
102
RTVSPost2010Prop30
280
     1
102
RTVSPost2010PropOp30
 70
     1
102
RTVSPost2010Prop31
280
     0
102
RTVSPost2010PropOp31
 70
     1
102
RTVSPost2010Prop32
280
     0
102
RTVSPost2010PropOp32
 70
     1
102
RTVSPost2010Prop33
280
     0
102
RTVSPost2010PropOp33
 70
     1
102
RTVSPost2010Prop34
280
     0
102
RTVSPost2010PropOp34
 70
     1
102
RTVSPost2010Prop35
280
     0
102
RTVSPost2010PropOp35
 70
     1
102
RTVSPost2010Prop36
280
     0
102
RTVSPost2010PropOp36
 70
     1
102
RTVSPost2010Prop37
 90
       50
102
RTVSPost2010PropOp37
 70
     1
102
RTVSPost2010Prop38
140
0.0
102
RTVSPost2010PropOp38
 70
     1
102
RTVSPost2010Prop39
140
1.0
102
RTVSPost2010PropOp39
 70
     1
102
RTVSPost2010Prop40
 90
        0
102
RTVSPost2010PropOp40
 70
     1
102
RTVSPost2010Prop41ColorIndex
 90
       18
102
RTVSPost2010Prop41ColorRGB
 90
        0
102
RTVSPost2010PropOp41
 70
     1
102
RTVSPost2010Prop42
 90
       50
102
RTVSPost2010PropOp42
 70
     1
102
RTVSPost2010Prop43
 90
        3
102
RTVSPost2010PropOp43
 70
     1
102
RTVSPost2010Prop44ColorIndex
 90
        5
102
RTVSPost2010Prop44ColorRGB
 90
      255
102
RTVSPost2010PropOp44
 70
     1
102
RTVSPost2010Prop45
280
     0
102
RTVSPost2010PropOp45
 70
     1
102
RTVSPost2010Prop46
 90
       50
102
RTVSPost2010PropOp46
 70
     1
102
RTVSPost2010Prop47
 90
       50
102
RTVSPost2010PropOp47
 70
     1
102
RTVSPost2010Prop48
 90
       50
102
RTVSPost2010PropOp48
 70
     1
102
RTVSPost2010Prop49
280
     0
102
RTVSPost2010PropOp49
 70
     1
102
RTVSPost2010Prop50
 90
       50
102
RTVSPost2010PropOp50
 70
     1
102
RTVSPost2010Prop51ColorIndex
 90
      256
102
RTVSPost2010Prop51ColorRGB
 90
-16777216
102
RTVSPost2010PropOp51
 70
     0
102
RTVSPost2010Prop52
140
1.0
102
RTVSPost2010PropOp52
 70
     0
102
RTVSPost2010Prop53
 90
        2
102
RTVSPost2010PropOp53
 70
     1
102
RTVSPost2010Prop54
  1
strokes_ogs.tif
102
RTVSPost2010PropOp54
 70
     1
102
RTVSPost2010Prop55
280
     0
102
RTVSPost2010PropOp55
 70
     1
102
RTVSPost2010Prop56
140
1.0
102
RTVSPost2010PropOp56
 70
     1
102
RTVSPost2010Prop57
140
1.0
102
RTVSPost2010PropOp57
 70
     1
  0
XRECORD
  5
2DE
102
{ACAD_REACTORS
330
2DD
102
}
330
2DD
100
AcDbXrecord
280
     1
102
RTVSPropertyOp0
 70
     1
102
RTVSPropertyOp1
 70
     1
102
RTVSPropertyOp2
 70
     1
102
RTVSPropertyOp3
 70
     1
102
RTVSPropertyOp4
 70
     1
102
RTVSPropertyOp5
 70
     1
102
RTVSPropertyOp6
 70
     1
102
RTVSPropertyOp7
 70
     1
102
RTVSPropertyOp8
 70
     1
102
RTVSPropertyOp9
 70
     1
102
RTVSPropertyOp10
 70
     1
102
RTVSPropertyOp11
 70
     1
102
RTVSPropertyOp12
 70
     1
102
RTVSPropertyOp13
 70
     1
102
RTVSPropertyOp14
 70
     1
102
RTVSPropertyOp15
 70
     1
102
RTVSPropertyOp16
 70
     1
102
RTVSPropertyOp17
 70
     1
102
RTVSPropertyOp18
 70
     1
102
RTVSPropertyOp19
 70
     1
102
RTVSPropertyOp20
 70
     1
102
RTVSPropertyOp21
 70
     1
102
RTVSPropertyOp22
 70
     1
102
RTVSPropertyOp23
 70
     1
102
RTVSPropertyOp24
 70
     1
102
RTVSPropertyOp25
 70
     1
102
RTVSPropertyOp26
 70
     1
102
RTVSPropertyOp27
 70
     1
102
RTVSPropertyOp28
 70
     1
102
RTVSPropertyOp29
 70
     1
102
RTVSPropertyOp30
 70
     1
102
RTVSPropertyOp31
 70
     1
102
RTVSPropertyOp32
 70
     1
102
RTVSPropertyOp33
 70
     1
102
RTVSPropertyOp34
 70
     1
102
RTVSPropertyOp35
 70
     1
102
RTVSPropertyOp36
 70
     1
102
RTVSPropertyOp37
 70
     1
102
RTVSPropertyOp38
 70
     1
102
RTVSPropertyOp39
 70
     1
102
RTVSPropertyOp40
 70
     1
102
RTVSPropertyOp41
 70
     1
102
RTVSPropertyOp42
 70
     1
102
RTVSPropertyOp43
 70
     1
102
RTVSPropertyOp44
 70
     1
102
RTVSPropertyOp45
 70
     1
102
RTVSPropertyOp46
 70
     1
102
RTVSPropertyOp47
 70
     1
102
RTVSPropertyOp48
 70
     1
102
RTVSPropertyOp49
 70
     1
102
RTVSPropertyOp50
 70
     1
102
RTVSPropertyOp51
 70
     0
102
RTVSPropertyOp52
 70
     0
102
RTVSPropertyOp53
 70
     1
102
RTVSPropertyOp54
 70
     1
102
RTVSPropertyOp55
 70
     1
102
RTVSPropertyOp56
 70
     1
102
RTVSPropertyOp57
 70
     1
102
RTVSPost2010Prop28
280
     0
102
RTVSPost2010PropOp28
 70
     1
102
RTVSPost2010Prop29
280
     1
102
RTVSPost2010PropOp29
 70
     1
102
RTVSPost2010Prop30
280
     1
102
RTVSPost2010PropOp30
 70
     1
102
RTVSPost2010Prop31
280
     0
102
RTVSPost2010PropOp31
 70
     1
102
RTVSPost2010Prop32
280
     0
102
RTVSPost2010PropOp32
 70
     1
102
RTVSPost2010Prop33
280
     0
102
RTVSPost2010PropOp33
 70
     1
102
RTVSPost2010Prop34
280
     0
102
RTVSPost2010PropOp34
 70
     1
102
RTVSPost2010Prop35
280
     0
102
RTVSPost2010PropOp35
 70
     1
102
RTVSPost2010Prop36
280
     0
102
RTVSPost2010PropOp36
 70
     1
102
RTVSPost2010Prop37
 90
       50
102
RTVSPost2010PropOp37
 70
     1
102
RTVSPost2010Prop38
140
0.0
102
RTVSPost2010PropOp38
 70
     1
102
RTVSPost2010Prop39
140
1.0
102
RTVSPost2010PropOp39
 70
     1
102
RTVSPost2010Prop40
 90
        0
102
RTVSPost2010PropOp40
 70
     1
102
RTVSPost2010Prop41ColorIndex
 90
       18
102
RTVSPost2010Prop41ColorRGB
 90
        0
102
RTVSPost2010PropOp41
 70
     1
102
RTVSPost2010Prop42
 90
       50
102
RTVSPost2010PropOp42
 70
     1
102
RTVSPost2010Prop43
 90
        3
102
RTVSPost2010PropOp43
 70
     1
102
RTVSPost2010Prop44ColorIndex
 90
        5
102
RTVSPost2010Prop44ColorRGB
 90
      255
102
RTVSPost2010PropOp44
 70
     1
102
RTVSPost2010Prop45
280
     0
102
RTVSPost2010PropOp45
 70
     1
102
RTVSPost2010Prop46
 90
       50
102
RTVSPost2010PropOp46
 70
     1
102
RTVSPost2010Prop47
 90
       50
102
RTVSPost2010PropOp47
 70
     1
102
RTVSPost2010Prop48
 90
       50
102
RTVSPost2010PropOp48
 70
     1
102
RTVSPost2010Prop49
280
     0
102
RTVSPost2010PropOp49
 70
     1
102
RTVSPost2010Prop50
 90
       50
102
RTVSPost2010PropOp50
 70
     1
102
RTVSPost2010Prop51ColorIndex
 90
      256
102
RTVSPost2010Prop51ColorRGB
 90
-16777216
102
RTVSPost2010PropOp51
 70
     0
102
RTVSPost2010Prop52
140
1.0
102
RTVSPost2010PropOp52
 70
     0
102
RTVSPost2010Prop53
 90
        2
102
RTVSPost2010PropOp53
 70
     1
102
RTVSPost2010Prop54
  1
strokes_ogs.tif
102
RTVSPost2010PropOp54
 70
     1
102
RTVSPost2010Prop55
280
     0
102
RTVSPost2010PropOp55
 70
     1
102
RTVSPost2010Prop56
140
1.0
102
RTVSPost2010PropOp56
 70
     1
102
RTVSPost2010Prop57
140
1.0
102
RTVSPost2010PropOp57
 70
     1
  0
XRECORD
  5
2D0
102
{ACAD_REACTORS
330
2CF
102
}
330
2CF
100
AcDbXrecord
280
     1
102
RTVSPropertyOp0
 70
     1
102
RTVSPropertyOp1
 70
     1
102
RTVSPropertyOp2
 70
     1
102
RTVSPropertyOp3
 70
     1
102
RTVSPropertyOp4
 70
     1
102
RTVSPropertyOp5
 70
     1
102
RTVSPropertyOp6
 70
     1
102
RTVSPropertyOp7
 70
     1
102
RTVSPropertyOp8
 70
     1
102
RTVSPropertyOp9
 70
     1
102
RTVSPropertyOp10
 70
     1
102
RTVSPropertyOp11
 70
     1
102
RTVSPropertyOp12
 70
     1
102
RTVSPropertyOp13
 70
     1
102
RTVSPropertyOp14
 70
     1
102
RTVSPropertyOp15
 70
     1
102
RTVSPropertyOp16
 70
     1
102
RTVSPropertyOp17
 70
     1
102
RTVSPropertyOp18
 70
     1
102
RTVSPropertyOp19
 70
     1
102
RTVSPropertyOp20
 70
     1
102
RTVSPropertyOp21
 70
     1
102
RTVSPropertyOp22
 70
     1
102
RTVSPropertyOp23
 70
     1
102
RTVSPropertyOp24
 70
     1
102
RTVSPropertyOp25
 70
     1
102
RTVSPropertyOp26
 70
     1
102
RTVSPropertyOp27
 70
     1
102
RTVSPropertyOp28
 70
     1
102
RTVSPropertyOp29
 70
     1
102
RTVSPropertyOp30
 70
     1
102
RTVSPropertyOp31
 70
     1
102
RTVSPropertyOp32
 70
     1
102
RTVSPropertyOp33
 70
     1
102
RTVSPropertyOp34
 70
     1
102
RTVSPropertyOp35
 70
     1
102
RTVSPropertyOp36
 70
     1
102
RTVSPropertyOp37
 70
     1
102
RTVSPropertyOp38
 70
     1
102
RTVSPropertyOp39
 70
     1
102
RTVSPropertyOp40
 70
     1
102
RTVSPropertyOp41
 70
     1
102
RTVSPropertyOp42
 70
     1
102
RTVSPropertyOp43
 70
     1
102
RTVSPropertyOp44
 70
     1
102
RTVSPropertyOp45
 70
     1
102
RTVSPropertyOp46
 70
     1
102
RTVSPropertyOp47
 70
     1
102
RTVSPropertyOp48
 70
     1
102
RTVSPropertyOp49
 70
     1
102
RTVSPropertyOp50
 70
     1
102
RTVSPropertyOp51
 70
     0
102
RTVSPropertyOp52
 70
     0
102
RTVSPropertyOp53
 70
     1
102
RTVSPropertyOp54
 70
     1
102
RTVSPropertyOp55
 70
     1
102
RTVSPropertyOp56
 70
     1
102
RTVSPropertyOp57
 70
     1
102
RTVSPost2010Prop28
280
     0
102
RTVSPost2010PropOp28
 70
     1
102
RTVSPost2010Prop29
280
     1
102
RTVSPost2010PropOp29
 70
     1
102
RTVSPost2010Prop30
280
     1
102
RTVSPost2010PropOp30
 70
     1
102
RTVSPost2010Prop31
280
     0
102
RTVSPost2010PropOp31
 70
     1
102
RTVSPost2010Prop32
280
     0
102
RTVSPost2010PropOp32
 70
     1
102
RTVSPost2010Prop33
280
     0
102
RTVSPost2010PropOp33
 70
     1
102
RTVSPost2010Prop34
280
     0
102
RTVSPost2010PropOp34
 70
     1
102
RTVSPost2010Prop35
280
     0
102
RTVSPost2010PropOp35
 70
     1
102
RTVSPost2010Prop36
280
     0
102
RTVSPost2010PropOp36
 70
     1
102
RTVSPost2010Prop37
 90
       50
102
RTVSPost2010PropOp37
 70
     1
102
RTVSPost2010Prop38
140
0.0
102
RTVSPost2010PropOp38
 70
     1
102
RTVSPost2010Prop39
140
1.0
102
RTVSPost2010PropOp39
 70
     1
102
RTVSPost2010Prop40
 90
        0
102
RTVSPost2010PropOp40
 70
     1
102
RTVSPost2010Prop41ColorIndex
 90
       18
102
RTVSPost2010Prop41ColorRGB
 90
        0
102
RTVSPost2010PropOp41
 70
     1
102
RTVSPost2010Prop42
 90
       50
102
RTVSPost2010PropOp42
 70
     1
102
RTVSPost2010Prop43
 90
        3
102
RTVSPost2010PropOp43
 70
     1
102
RTVSPost2010Prop44ColorIndex
 90
        5
102
RTVSPost2010Prop44ColorRGB
 90
      255
102
RTVSPost2010PropOp44
 70
     1
102
RTVSPost2010Prop45
280
     0
102
RTVSPost2010PropOp45
 70
     1
102
RTVSPost2010Prop46
 90
       50
102
RTVSPost2010PropOp46
 70
     1
102
RTVSPost2010Prop47
 90
       50
102
RTVSPost2010PropOp47
 70
     1
102
RTVSPost2010Prop48
 90
       50
102
RTVSPost2010PropOp48
 70
     1
102
RTVSPost2010Prop49
280
     0
102
RTVSPost2010PropOp49
 70
     1
102
RTVSPost2010Prop50
 90
       50
102
RTVSPost2010PropOp50
 70
     1
102
RTVSPost2010Prop51ColorIndex
 90
      256
102
RTVSPost2010Prop51ColorRGB
 90
-16777216
102
RTVSPost2010PropOp51
 70
     0
102
RTVSPost2010Prop52
140
1.0
102
RTVSPost2010PropOp52
 70
     0
102
RTVSPost2010Prop53
 90
        2
102
RTVSPost2010PropOp53
 70
     1
102
RTVSPost2010Prop54
  1
strokes_ogs.tif
102
RTVSPost2010PropOp54
 70
     1
102
RTVSPost2010Prop55
280
     0
102
RTVSPost2010PropOp55
 70
     1
102
RTVSPost2010Prop56
140
1.0
102
RTVSPost2010PropOp56
 70
     1
102
RTVSPost2010Prop57
140
1.0
102
RTVSPost2010PropOp57
 70
     1
  0
XRECORD
  5
2F0
102
{ACAD_REACTORS
330
2EF
102
}
330
2EF
100
AcDbXrecord
280
     1
102
RTVSPropertyOp0
 70
     1
102
RTVSPropertyOp1
 70
     1
102
RTVSPropertyOp2
 70
     1
102
RTVSPropertyOp3
 70
     1
102
RTVSPropertyOp4
 70
     1
102
RTVSPropertyOp5
 70
     1
102
RTVSPropertyOp6
 70
     1
102
RTVSPropertyOp7
 70
     1
102
RTVSPropertyOp8
 70
     1
102
RTVSPropertyOp9
 70
     1
102
RTVSPropertyOp10
 70
     1
102
RTVSPropertyOp11
 70
     1
102
RTVSPropertyOp12
 70
     1
102
RTVSPropertyOp13
 70
     1
102
RTVSPropertyOp14
 70
     1
102
RTVSPropertyOp15
 70
     1
102
RTVSPropertyOp16
 70
     1
102
RTVSPropertyOp17
 70
     1
102
RTVSPropertyOp18
 70
     1
102
RTVSPropertyOp19
 70
     1
102
RTVSPropertyOp20
 70
     1
102
RTVSPropertyOp21
 70
     1
102
RTVSPropertyOp22
 70
     1
102
RTVSPropertyOp23
 70
     1
102
RTVSPropertyOp24
 70
     1
102
RTVSPropertyOp25
 70
     1
102
RTVSPropertyOp26
 70
     1
102
RTVSPropertyOp27
 70
     1
102
RTVSPropertyOp28
 70
     1
102
RTVSPropertyOp29
 70
     1
102
RTVSPropertyOp30
 70
     1
102
RTVSPropertyOp31
 70
     1
102
RTVSPropertyOp32
 70
     1
102
RTVSPropertyOp33
 70
     1
102
RTVSPropertyOp34
 70
     1
102
RTVSPropertyOp35
 70
     1
102
RTVSPropertyOp36
 70
     1
102
RTVSPropertyOp37
 70
     1
102
RTVSPropertyOp38
 70
     1
102
RTVSPropertyOp39
 70
     1
102
RTVSPropertyOp40
 70
     1
102
RTVSPropertyOp41
 70
     1
102
RTVSPropertyOp42
 70
     1
102
RTVSPropertyOp43
 70
     1
102
RTVSPropertyOp44
 70
     1
102
RTVSPropertyOp45
 70
     1
102
RTVSPropertyOp46
 70
     1
102
RTVSPropertyOp47
 70
     1
102
RTVSPropertyOp48
 70
     1
102
RTVSPropertyOp49
 70
     1
102
RTVSPropertyOp50
 70
     1
102
RTVSPropertyOp51
 70
     0
102
RTVSPropertyOp52
 70
     0
102
RTVSPropertyOp53
 70
     1
102
RTVSPropertyOp54
 70
     1
102
RTVSPropertyOp55
 70
     1
102
RTVSPropertyOp56
 70
     1
102
RTVSPropertyOp57
 70
     1
102
RTVSPost2010Prop28
280
     0
102
RTVSPost2010PropOp28
 70
     1
102
RTVSPost2010Prop29
280
     1
102
RTVSPost2010PropOp29
 70
     1
102
RTVSPost2010Prop30
280
     1
102
RTVSPost2010PropOp30
 70
     1
102
RTVSPost2010Prop31
280
     0
102
RTVSPost2010PropOp31
 70
     1
102
RTVSPost2010Prop32
280
     0
102
RTVSPost2010PropOp32
 70
     1
102
RTVSPost2010Prop33
280
     0
102
RTVSPost2010PropOp33
 70
     1
102
RTVSPost2010Prop34
280
     0
102
RTVSPost2010PropOp34
 70
     1
102
RTVSPost2010Prop35
280
     0
102
RTVSPost2010PropOp35
 70
     1
102
RTVSPost2010Prop36
280
     0
102
RTVSPost2010PropOp36
 70
     1
102
RTVSPost2010Prop37
 90
       50
102
RTVSPost2010PropOp37
 70
     1
102
RTVSPost2010Prop38
140
0.0
102
RTVSPost2010PropOp38
 70
     1
102
RTVSPost2010Prop39
140
1.0
102
RTVSPost2010PropOp39
 70
     1
102
RTVSPost2010Prop40
 90
        0
102
RTVSPost2010PropOp40
 70
     1
102
RTVSPost2010Prop41ColorIndex
 90
       18
102
RTVSPost2010Prop41ColorRGB
 90
        0
102
RTVSPost2010PropOp41
 70
     1
102
RTVSPost2010Prop42
 90
       50
102
RTVSPost2010PropOp42
 70
     1
102
RTVSPost2010Prop43
 90
        3
102
RTVSPost2010PropOp43
 70
     1
102
RTVSPost2010Prop44ColorIndex
 90
        5
102
RTVSPost2010Prop44ColorRGB
 90
      255
102
RTVSPost2010PropOp44
 70
     1
102
RTVSPost2010Prop45
280
     0
102
RTVSPost2010PropOp45
 70
     1
102
RTVSPost2010Prop46
 90
       50
102
RTVSPost2010PropOp46
 70
     1
102
RTVSPost2010Prop47
 90
       50
102
RTVSPost2010PropOp47
 70
     1
102
RTVSPost2010Prop48
 90
       50
102
RTVSPost2010PropOp48
 70
     1
102
RTVSPost2010Prop49
280
     0
102
RTVSPost2010PropOp49
 70
     1
102
RTVSPost2010Prop50
 90
       50
102
RTVSPost2010PropOp50
 70
     1
102
RTVSPost2010Prop51ColorIndex
 90
      256
102
RTVSPost2010Prop51ColorRGB
 90
-16777216
102
RTVSPost2010PropOp51
 70
     0
102
RTVSPost2010Prop52
140
1.0
102
RTVSPost2010PropOp52
 70
     0
102
RTVSPost2010Prop53
 90
        2
102
RTVSPost2010PropOp53
 70
     1
102
RTVSPost2010Prop54
  1
strokes_ogs.tif
102
RTVSPost2010PropOp54
 70
     1
102
RTVSPost2010Prop55
280
     0
102
RTVSPost2010PropOp55
 70
     1
102
RTVSPost2010Prop56
140
1.0
102
RTVSPost2010PropOp56
 70
     1
102
RTVSPost2010Prop57
140
1.0
102
RTVSPost2010PropOp57
 70
     1
  0
ENDSEC
  0
EOF
