  0
SECTION
  2
HEADER
  9
$ACADVER
  1
AC1014
  9
$ACADMAINTVER
 70
             0
  9
$DWGCODEPAGE
  3
ANSI_1252
  9
$INSBASE
 10
0.0
 20
0.0
 30
0.0
  9
$EXTMIN
 10
1.00000000000000E+20
 20
1.00000000000000E+20
 30
1.00000000000000E+20
  9
$EXTMAX
 10
-1.00000000000000E+20
 20
-1.00000000000000E+20
 30
-1.00000000000000E+20
  9
$LIMMIN
 10
0.0
 20
0.0
  9
$LIMMAX
 10
0.0
 20
0.0
  9
$ORTHOMODE
 70
             0
  9
$REGENMODE
 70
             1
  9
$FILLMODE
 70
             1
  9
$QTEXTMODE
 70
             0
  9
$MIRRTEXT
 70
             1
  9
$DRAGMODE
 70
             2
  9
$LTSCALE
 40
1.0
  9
$OSMODE
 70
             0
  9
$ATTMODE
 70
             1
  9
$TEXTSIZE
 40
0.2
  9
$TRACEWID
 40
0.05
  9
$TEXTSTYLE
  7
STANDARD
  9
$CLAYER
  8
0
  9
$CELTYPE
  6
CONTINUOUS
  9
$CECOLOR
 62
           256
  9
$CELTSCALE
 40
1.0
  9
$DELOBJ
 70
             1
  9
$DISPSILH
 70
             0
  9
$DIMSCALE
 40
1.0
  9
$DIMASZ
 40
0.18
  9
$DIMEXO
 40
0.0625
  9
$DIMDLI
 40
0.38
  9
$DIMRND
 40
0.0
  9
$DIMDLE
 40
0.0
  9
$DIMEXE
 40
0.18
  9
$DIMTP
 40
0.0
  9
$DIMTM
 40
0.0
  9
$DIMTXT
 40
0.18
  9
$DIMCEN
 40
0.09
  9
$DIMTSZ
 40
0.0
  9
$DIMTOL
 70
             0
  9
$DIMLIM
 70
             0
  9
$DIMTIH
 70
             1
  9
$DIMTOH
 70
             1
  9
$DIMSE1
 70
             0
  9
$DIMSE2
 70
             0
  9
$DIMTAD
 70
             0
  9
$DIMZIN
 70
             0
  9
$DIMBLK
  1

  9
$DIMASO
 70
             1
  9
$DIMSHO
 70
             1
  9
$DIMPOST
  1

  9
$DIMAPOST
  1

  9
$DIMALT
 70
             0
  9
$DIMALTD
 70
             2
  9
$DIMALTF
 40
25.4
  9
$DIMLFAC
 40
1.0
  9
$DIMTOFL
 70
             0
  9
$DIMTVP
 40
0.0
  9
$DIMTIX
 70
             0
  9
$DIMSOXD
 70
             0
  9
$DIMSAH
 70
             0
  9
$DIMBLK1
  1

  9
$DIMBLK2
  1

  9
$DIMSTYLE
  2
STANDARD
  9
$DIMCLRD
 70
             0
  9
$DIMCLRE
 70
             0
  9
$DIMCLRT
 70
             0
  9
$DIMTFAC
 40
1.0
  9
$DIMGAP
 40
0.09
  9
$DIMJUST
 70
             0
  9
$DIMSD1
 70
             0
  9
$DIMSD2
 70
             0
  9
$DIMTOLJ
 70
             1
  9
$DIMTZIN
 70
             0
  9
$DIMALTZ
 70
             0
  9
$DIMALTTZ
 70
             0
  9
$DIMFIT
 70
             3
  9
$DIMUPT
 70
             0
  9
$DIMUNIT
 70
             2
  9
$DIMDEC
 70
             4
  9
$DIMTDEC
 70
             4
  9
$DIMALTU
 70
             2
  9
$DIMALTTD
 70
             2
  9
$DIMTXSTY
  7
STANDARD
  9
$DIMAUNIT
 70
             0
  9
$LUNITS
 70
             2
  9
$LUPREC
 70
             4
  9
$SKETCHINC
 40
0.1
  9
$FILLETRAD
 40
0.0
  9
$AUNITS
 70
             0
  9
$AUPREC
 70
             0
  9
$MENU
  1
acad
  9
$ELEVATION
 40
0.0
  9
$PELEVATION
 40
0.0
  9
$THICKNESS
 40
0.0
  9
$LIMCHECK
 70
             0
  9
$BLIPMODE
 70
             1
  9
$CHAMFERA
 40
0.0
  9
$CHAMFERB
 40
0.0
  9
$CHAMFERC
 40
0.0
  9
$CHAMFERD
 40
0.0
  9
$SKPOLY
 70
             0
  9
$TDCREATE
 40
0.000000000
  9
$TDUPDATE
 40
0.000000000
  9
$TDINDWG
 40
0.0000000000
  9
$TDUSRTIMER
 40
0.0000000000
  9
$USRTIMER
 70
             1
  9
$ANGBASE
 50
0.0
  9
$ANGDIR
 70
             0
  9
$PDMODE
 70
             0
  9
$PDSIZE
 40
0.0
  9
$PLINEWID
 40
0.0
  9
$COORDS
 70
             0
  9
$SPLFRAME
 70
             0
  9
$SPLINETYPE
 70
             6
  9
$SPLINESEGS
 70
             8
  9
$ATTDIA
 70
             0
  9
$ATTREQ
 70
             1
  9
$HANDLING
 70
             1
  9
$HANDSEED
  5
1DA
  9
$SURFTAB1
 70
             6
  9
$SURFTAB2
 70
             6
  9
$SURFTYPE
 70
             6
  9
$SURFU
 70
             6
  9
$SURFV
 70
             6
  9
$UCSNAME
  2

  9
$UCSORG
 10
0.0
 20
0.0
 30
0.0
  9
$UCSXDIR
 10
1.0
 20
0.0
 30
0.0
  9
$UCSYDIR
 10
0.0
 20
1.0
 30
0.0
  9
$PUCSNAME
  2

  9
$PUCSORG
 10
0.0
 20
0.0
 30
0.0
  9
$PUCSXDIR
 10
1.0
 20
0.0
 30
0.0
  9
$PUCSYDIR
 10
0.0
 20
1.0
 30
0.0
  9
$USERI1
 70
             0
  9
$USERI2
 70
             0
  9
$USERI3
 70
             0
  9
$USERI4
 70
             0
  9
$USERI5
 70
             0
  9
$USERR1
 40
11.6
  9
$USERR2
 40
0.0
  9
$USERR3
 40
0.0
  9
$USERR4
 40
0.0
  9
$USERR5
 40
0.0
  9
$WORLDVIEW
 70
             1
  9
$SHADEDGE
 70
             3
  9
$SHADEDIF
 70
            70
  9
$TILEMODE
 70
             1
  9
$MAXACTVP
 70
            16
  9
$PINSBASE
 10
0.0
 20
0.0
 30
0.0
  9
$PLIMCHECK
 70
             0
  9
$PEXTMIN
 10
1.00000000000000E+20
 20
1.00000000000000E+20
 30
1.00000000000000E+20
  9
$PEXTMAX
 10
-1.00000000000000E+20
 20
-1.00000000000000E+20
 30
-1.00000000000000E+20
  9
$PLIMMIN
 10
0.0
 20
0.0
  9
$PLIMMAX
 10
12.0
 20
9.0
  9
$UNITMODE
 70
             0
  9
$VISRETAIN
 70
             0
  9
$PLINEGEN
 70
             1
  9
$PSLTSCALE
 70
             0
  9
$TREEDEPTH
 70
          3020
  9
$PICKSTYLE
 70
             1
  9
$CMLSTYLE
  2
STANDARD
  9
$CMLJUST
 70
             0
  9
$CMLSCALE
 40
1.0
  9
$PROXYGRAPHICS
 70
             0
  9
$MEASUREMENT
 70
             1
  0
ENDSEC
  0
SECTION
  2
CLASSES
  0
CLASS
  1
LWPOLYLINE
  2
AcDbPolyline
  3
"AutoCAD"
 90
        0
280
             0
281
             1
  0
CLASS
  1
IMAGE
  2
AcDbRasterImage
  3
ISM
 90
      127
280
             0
281
             1
  0
CLASS
  1
OLE2FRAME
  2
AcDbOle2Frame
  3
""
 90
        0
280
             0
281
             1
  0
CLASS
  1
HATCH
  2
AcDbHatch
  3
"ACAD_SEDONA"
 90
        0
280
             0
281
             1
  0
CLASS
  1
DICTIONARYVAR
  2
AcDbDictionaryVar
  3
"AutoCAD"
 90
        0
280
             0
281
             0
  0
CLASS
  1
RASTERVARIABLES
  2
AcDbRasterVariables
  3
ISM
 90
        0
280
             0
281
             0
  0
CLASS
  1
IMAGEDEF
  2
AcDbRasterImageDef
  3
ISM
 90
        0
280
             0
281
             0
  0
CLASS
  1
IMAGEDEF_REACTOR
  2
AcDbRasterImageDefReactor
  3
ISM
 90
        1
280
             0
281
             0
  0
CLASS
  1
IDBUFFER
  2
AcDbIdBuffer
  3
"Acad"
 90
        0
280
             0
281
             0
  0
CLASS
  1
SPATIAL_FILTER
  2
AcDbSpatialFilter
  3
"Acad"
 90
        0
280
             0
281
             0
  0
CLASS
  1
XRECORD
  2
AcDbXrecord
  3
"<Built In>"
 90
        0
280
             0
281
             0
  0
CLASS
  1
SORTENTSTABLE
  2
AcDbSortentsTable
  3
"AutoCAD"
 90
        0
280
             0
281
             0
  0
CLASS
  1
LAYER_INDEX
  2
AcDbLayerIndex
  3
"Acad"
 90
        0
280
             0
281
             0
  0
CLASS
  1
SPATIAL_INDEX
  2
AcDbSpatialIndex
  3
"Acad"
 90
        0
280
             0
281
             0
  0
CLASS
  1
OBJECT_PTR
  2
CAseDLPNTableRecord
  3
"ASE-LPNTableRecord"
 90
        1
280
             0
281
             0
  0
CLASS
  1
LAYOUT
  2
AcDbLayout
  3
"AutoCAD 2000"
 90
        1
280
             0
281
             0
  0
CLASS
  1
PLOTSETTINGS
  2
AcDbPlotSettings
  3
"AutoCAD 2000"
 90
        1
280
             0
281
             0
  0
CLASS
  1
ACDBDICTIONARYWDFLT
  2
AcDbDictionaryWithDefault
  3
"AutoCAD 2000"
 90
        1
280
             0
281
             0
  0
CLASS
  1
ACDBPLACEHOLDER
  2
AcDbPlaceHolder
  3
"AutoCAD 2000"
 90
        1
280
             0
281
             0
  0
ENDSEC
  0
SECTION
  2
TABLES
  0
TABLE
  2
VPORT
  5
7
100
AcDbSymbolTable
 70
             1
  0
VPORT
  5
15
100
AcDbSymbolTableRecord
100
AcDbViewportTableRecord
  2
*ACTIVE
 70
             0
 10
0.0
 20
0.0
 11
1.0
 21
1.0
 12
20.988553265815
 22
-170.23185288445239
 13
0.0
 23
0.0
 14
1.0
 24
1.0
 15
0.0
 25
0.0
 16
0.0
 26
0.0
 36
1.0
 17
0.0
 27
0.0
 37
0.0
 40
598.17152427232429
 41
1.60267857142857
 42
50.0
 43
0.0
 44
0.0
 50
0.0
 51
0.0
 71
             0
 72
           100
 73
             1
 74
             1
 75
             0
 76
             0
 77
             0
 78
             0
  0
ENDTAB
  0
TABLE
  2
LTYPE
  5
4
100
AcDbSymbolTable
 70
            11
  0
LTYPE
  5
11
100
AcDbSymbolTableRecord
100
AcDbLinetypeTableRecord
  2
BYBLOCK
 70
            64
  3

 72
            65
 73
             0
 40
0.0
  0
LTYPE
  5
12
100
AcDbSymbolTableRecord
100
AcDbLinetypeTableRecord
  2
BYLAYER
 70
            64
  3

 72
            65
 73
             0
 40
0.0
  0
LTYPE
  5
13
100
AcDbSymbolTableRecord
100
AcDbLinetypeTableRecord
  2
CONTINUOUS
 70
            64
  3
Solid line
 72
            65
 73
             0
 40
0.0
  0
LTYPE
  5
1D
100
AcDbSymbolTableRecord
100
AcDbLinetypeTableRecord
  2
DASHED
 70
            64
  3
Dashed
 72
            65
 73
             2
 40
15.0
 49
12.0
 74
             0
 49
-3.0
 74
             0
  0
LTYPE
  5
1E
100
AcDbSymbolTableRecord
100
AcDbLinetypeTableRecord
  2
DOTTED
 70
            64
  3
Dotted
 72
            65
 73
             2
 40
3.5
 49
0.5
 74
             0
 49
-3.0
 74
             0
  0
LTYPE
  5
1F
100
AcDbSymbolTableRecord
100
AcDbLinetypeTableRecord
  2
DOT_CENTER
 70
            64
  3
Dot_Center
 72
            65
 73
             4
 40
2.0
 49
1.25
 74
             0
 49
-0.25
 74
             0
 49
0.25
 74
             0
 49
-0.25
 74
             0
  0
LTYPE
  5
20
100
AcDbSymbolTableRecord
100
AcDbLinetypeTableRecord
  2
LONG_DASHED
 70
            64
  3
Long_Dashed
 72
            65
 73
             2
 40
2.0
 49
1.5
 74
             0
 49
-0.5
 74
             0
  0
LTYPE
  5
21
100
AcDbSymbolTableRecord
100
AcDbLinetypeTableRecord
  2
DASH_CENTER
 70
            64
  3
Dash_Center
 72
            65
 73
             4
 40
36.0
 49
24.0
 74
             0
 49
-3.0
 74
             0
 49
6.0
 74
             0
 49
-3.0
 74
             0
  0
LTYPE
  5
22
100
AcDbSymbolTableRecord
100
AcDbLinetypeTableRecord
  2
PHANTOM
 70
            64
  3
Phantom
 72
            65
 73
             6
 40
2.5
 49
1.25
 74
             0
 49
-0.25
 74
             0
 49
0.25
 74
             0
 49
-0.25
 74
             0
 49
0.25
 74
             0
 49
-0.25
 74
             0
  0
LTYPE
  5
23
100
AcDbSymbolTableRecord
100
AcDbLinetypeTableRecord
  2
CENTER_DASH_DASH
 70
            64
  3
Center_Dash_Dash
 72
            65
 73
             6
 40
22.0
 49
12.0
 74
             0
 49
-3.0
 74
             0
 49
0.5
 74
             0
 49
-3.0
 74
             0
 49
0.5
 74
             0
 49
-3.0
 74
             0
  0
LTYPE
  5
24
100
AcDbSymbolTableRecord
100
AcDbLinetypeTableRecord
  2
DASHDOT
 70
            64
  3
DASHDOT
 72
            65
 73
             4
 40
16.0
 49
10.0
 74
             0
 49
-3.0
 74
             0
 49
0.0
 74
             0
 49
-3.0
 74
             0
  0
ENDTAB
  0
TABLE
  2
LAYER
  5
2
100
AcDbSymbolTable
 70
             6
  0
LAYER
  5
14
100
AcDbSymbolTableRecord
100
AcDbLayerTableRecord
  2
0
 70
             0
 62
             7
  6
CONTINUOUS
  0
LAYER
  5
25
100
AcDbSymbolTableRecord
100
AcDbLayerTableRecord
  2
1
 70
             0
 62
             7
  6
CONTINUOUS
  0
LAYER
  5
26
100
AcDbSymbolTableRecord
100
AcDbLayerTableRecord
  2
LC-002-005-----0
 70
             0
 62
             7
  6
CONTINUOUS
  0
LAYER
  5
27
100
AcDbSymbolTableRecord
100
AcDbLayerTableRecord
  2
LC-003-002-----0
 70
             0
 62
             7
  6
CONTINUOUS
  0
LAYER
  5
28
100
AcDbSymbolTableRecord
100
AcDbLayerTableRecord
  2
LC-004-003-----0
 70
             0
 62
             7
  6
CONTINUOUS
  0
LAYER
  5
29
100
AcDbSymbolTableRecord
100
AcDbLayerTableRecord
  2
LC-007-002-RND-0
 70
             0
 62
             7
  6
CONTINUOUS
  0
ENDTAB
  0
TABLE
  2
STYLE
  5
3
100
AcDbSymbolTable
 70
             2
  0
STYLE
  5
17
100
AcDbSymbolTableRecord
100
AcDbTextStyleTableRecord
  2
STANDARD
 70
             0
 40
0.0
 41
1.0
 50
0.0
 71
             0
 42
0.0
  3
txt
  4

  0
STYLE
  5
19D
100
AcDbSymbolTableRecord
100
AcDbTextStyleTableRecord
  2
CONVERTER_1
 70
             0
 40
0.0
 41
0.9
 50
0.0
 71
             0
 42
0.0
  3
txt.shx
  4

  0
ENDTAB
  0
TABLE
  2
VIEW
  5
5
100
AcDbSymbolTable
 70
             0
  0
ENDTAB
  0
TABLE
  2
UCS
  5
6
100
AcDbSymbolTable
 70
             0
  0
ENDTAB
  0
TABLE
  2
APPID
  5
8
100
AcDbSymbolTable
 70
             1
  0
APPID
  5
16
100
AcDbSymbolTableRecord
100
AcDbRegAppTableRecord
  2
ACAD
 70
             0
  0
ENDTAB
  0
TABLE
  2
DIMSTYLE
  5
9
100
AcDbSymbolTable
 70
             7
  0
DIMSTYLE
105
18
100
AcDbSymbolTableRecord
100
AcDbDimStyleTableRecord
  2
STANDARD
 70
             0
  3

  4

  5

  6

  7

 40
1.0
 41
0.18
 42
0.0625
 43
0.38
 44
0.18
 45
0.0
 46
0.0
 47
0.0
 48
0.0
 71
             0
 72
             0
 73
             1
 74
             1
 75
             0
 76
             0
 77
             0
 78
             0
140
0.18
141
0.09
142
0.0
143
25.4
144
1.0
145
0.0
146
1.0
147
0.09
170
             0
171
             2
172
             0
173
             0
174
             0
175
             0
176
             0
177
             0
178
             0
270
             2
271
             4
272
             4
273
             2
274
             2
275
             0
280
             0
281
             0
282
             0
283
             1
284
             0
285
             0
286
             0
287
             0
288
             0
340
17
  0
DIMSTYLE
105
1A0
100
AcDbSymbolTableRecord
100
AcDbDimStyleTableRecord
  2
ME10_DIM_0
 70
             0
  3
Ø<>
  4

  5

  6

  7

 40
1.0
 41
10.0
 42
0.0
 43
0.38
 44
2.0
 45
0.0
 46
0.0
 47
0.0
 48
0.0
 71
             0
 72
             0
 73
             0
 74
             0
 75
             0
 76
             0
 77
             1
 78
             8
140
10.0
141
0.09
142
0.0
143
25.4
144
1.0
145
0.0
146
1.0
147
0.625
170
             0
171
             2
172
             0
173
             1
174
             0
175
             0
176
             4
177
             4
178
             1
270
             2
271
             2
272
             4
273
             2
274
             2
275
             0
280
             0
281
             0
282
             0
283
             1
284
             0
285
             0
286
             0
287
             0
288
             0
340
17
  0
DIMSTYLE
105
1AB
100
AcDbSymbolTableRecord
100
AcDbDimStyleTableRecord
  2
ME10_DIM_1
 70
             0
  3
x503
  4

  5

  6

  7

 40
1.0
 41
10.0
 42
0.0
 43
0.38
 44
2.0
 45
0.0
 46
0.0
 47
0.0
 48
0.0
 71
             0
 72
             0
 73
             0
 74
             0
 75
             0
 76
             0
 77
             1
 78
             8
140
10.0
141
0.09
142
0.0
143
25.4
144
1.0
145
0.0
146
1.0
147
0.625
170
             0
171
             2
172
             0
173
             1
174
             0
175
             0
176
             4
177
             4
178
             1
270
             2
271
             2
272
             4
273
             2
274
             2
275
             0
280
             0
281
             0
282
             0
283
             1
284
             0
285
             0
286
             0
287
             0
288
             0
340
17
  0
DIMSTYLE
105
1B6
100
AcDbSymbolTableRecord
100
AcDbDimStyleTableRecord
  2
ME10_DIM_2
 70
             0
  3
x307
  4

  5

  6

  7

 40
1.0
 41
10.0
 42
0.0
 43
0.38
 44
2.0
 45
0.0
 46
0.0
 47
0.0
 48
0.0
 71
             0
 72
             0
 73
             0
 74
             0
 75
             0
 76
             0
 77
             1
 78
             8
140
10.0
141
0.09
142
0.0
143
25.4
144
1.0
145
0.0
146
1.0
147
0.625
170
             0
171
             2
172
             0
173
             1
174
             0
175
             0
176
             4
177
             4
178
             1
270
             2
271
             2
272
             4
273
             2
274
             2
275
             0
280
             0
281
             0
282
             0
283
             1
284
             0
285
             0
286
             0
287
             0
288
             0
340
17
  0
DIMSTYLE
105
1C1
100
AcDbSymbolTableRecord
100
AcDbDimStyleTableRecord
  2
ME10_DIM_3
 70
             0
  3
Ø<>
  4

  5

  6

  7

 40
1.0
 41
10.0
 42
0.0
 43
0.38
 44
2.0
 45
0.0
 46
0.0
 47
0.0
 48
0.0
 71
             0
 72
             0
 73
             0
 74
             0
 75
             0
 76
             0
 77
             1
 78
             8
140
10.0
141
0.09
142
0.0
143
25.4
144
1.0
145
0.0
146
1.0
147
0.625
170
             0
171
             2
172
             0
173
             1
174
             0
175
             0
176
             4
177
             4
178
             1
270
             2
271
             2
272
             4
273
             2
274
             2
275
             0
280
             0
281
             0
282
             0
283
             1
284
             0
285
             0
286
             0
287
             0
288
             0
340
17
  0
DIMSTYLE
105
1CC
100
AcDbSymbolTableRecord
100
AcDbDimStyleTableRecord
  2
ME10_DIM_4
 70
             0
  3

  4

  5

  6

  7

 40
1.0
 41
10.0
 42
0.0
 43
0.38
 44
2.0
 45
0.0
 46
0.0
 47
0.0
 48
0.0
 71
             0
 72
             0
 73
             0
 74
             0
 75
             0
 76
             0
 77
             1
 78
             8
140
10.0
141
0.09
142
0.0
143
25.4
144
1.0
145
0.0
146
1.0
147
0.625
170
             0
171
             2
172
             0
173
             1
174
             0
175
             0
176
             4
177
             4
178
             1
270
             2
271
             2
272
             4
273
             2
274
             2
275
             0
280
             0
281
             0
282
             0
283
             1
284
             0
285
             0
286
             0
287
             0
288
             0
340
17
  0
DIMSTYLE
105
1D7
100
AcDbSymbolTableRecord
100
AcDbDimStyleTableRecord
  2
ME10_DIM_5
 70
             0
  3

  4

  5

  6

  7

 40
1.0
 41
10.0
 42
0.0
 43
0.38
 44
2.0
 45
0.0
 46
0.0
 47
0.0
 48
0.0
 71
             0
 72
             0
 73
             0
 74
             0
 75
             0
 76
             0
 77
             1
 78
             8
140
10.0
141
0.09
142
0.0
143
25.4
144
1.0
145
0.0
146
1.0
147
0.625
170
             0
171
             2
172
             0
173
             1
174
             0
175
             0
176
             4
177
             4
178
             1
270
             2
271
             2
272
             4
273
             2
274
             2
275
             0
280
             0
281
             0
282
             0
283
             1
284
             0
285
             0
286
             0
287
             0
288
             0
340
17
  0
ENDTAB
  0
TABLE
  2
BLOCK_RECORD
  5
1
100
AcDbSymbolTable
 70
             8
  0
BLOCK_RECORD
  5
A
100
AcDbSymbolTableRecord
100
AcDbBlockTableRecord
  2
*MODEL_SPACE
  0
BLOCK_RECORD
  5
B
100
AcDbSymbolTableRecord
100
AcDbBlockTableRecord
  2
*PAPER_SPACE
  0
BLOCK_RECORD
  5
2A
100
AcDbSymbolTableRecord
100
AcDbBlockTableRecord
  2
HL_360_AUFSTOCKELEMENTN__1
  0
BLOCK_RECORD
  5
2C
100
AcDbSymbolTableRecord
100
AcDbBlockTableRecord
  2
HL_360_AUFSTOCKELEMENTN__2
  0
BLOCK_RECORD
  5
196
100
AcDbSymbolTableRecord
100
AcDbBlockTableRecord
  2
*D2
  0
BLOCK_RECORD
  5
1A2
100
AcDbSymbolTableRecord
100
AcDbBlockTableRecord
  2
*D3
  0
BLOCK_RECORD
  5
1AD
100
AcDbSymbolTableRecord
100
AcDbBlockTableRecord
  2
*D4
  0
BLOCK_RECORD
  5
1B8
100
AcDbSymbolTableRecord
100
AcDbBlockTableRecord
  2
*D5
  0
BLOCK_RECORD
  5
1C3
100
AcDbSymbolTableRecord
100
AcDbBlockTableRecord
  2
*D6
  0
BLOCK_RECORD
  5
1CE
100
AcDbSymbolTableRecord
100
AcDbBlockTableRecord
  2
*D7
  0
ENDTAB
  0
ENDSEC
  0
SECTION
  2
BLOCKS
  0
BLOCK
  5
D
100
AcDbEntity
  8
0
100
AcDbBlockBegin
  2
*MODEL_SPACE
 70
             0
 10
0.0
 20
0.0
 30
0.0
  3
*MODEL_SPACE
  1

  0
ENDBLK
  5
E
100
AcDbEntity
  8
0
100
AcDbBlockEnd
  0
BLOCK
  5
F
100
AcDbEntity
 67
             1
  8
0
100
AcDbBlockBegin
  2
*PAPER_SPACE
 70
             0
 10
0.0
 20
0.0
 30
0.0
  3
*PAPER_SPACE
  1

  0
ENDBLK
  5
10
100
AcDbEntity
 67
             1
  8
0
100
AcDbBlockEnd
  0
BLOCK
  5
2B
100
AcDbEntity
  8
0
100
AcDbBlockBegin
  2
HL_360_AUFSTOCKELEMENTN__1
 70
             0
 10
-254.42720858711101
 20
201.99839501372199
 30
0.0
  3
HL_360_AUFSTOCKELEMENTN__1
  1

  0
ARC
  5
11A
100
AcDbEntity
  8
LC-003-002-----0
  6
CONTINUOUS
 62
             7
100
AcDbCircle
 10
-0.00000000000001
 20
-427.16687200000001
 40
62.60000000000002
100
AcDbArc
 50
0.0
 51
180.0
  0
ARC
  5
119
100
AcDbEntity
  8
LC-003-002-----0
  6
CONTINUOUS
 62
             7
100
AcDbCircle
 10
-0.00000000000001
 20
-427.16687200000001
 40
60.60000000000002
100
AcDbArc
 50
0.0
 51
180.0
  0
ARC
  5
118
100
AcDbEntity
  8
LC-003-002-----0
  6
CONTINUOUS
 62
             7
100
AcDbCircle
 10
-0.00000000000001
 20
-427.39383199999997
 40
105.00000000000001
100
AcDbArc
 50
0.0
 51
180.0
  0
ARC
  5
117
100
AcDbEntity
  8
LC-003-002-----0
  6
DASHED
 62
             2
100
AcDbCircle
 10
-0.00000000000001
 20
-427.39383199999997
 40
100.0
100
AcDbArc
 50
0.0
 51
180.0
  0
LINE
  5
116
100
AcDbEntity
  8
LC-003-002-----0
  6
CONTINUOUS
 62
             7
100
AcDbLine
 10
250.0
 20
-427.16687200000001
 11
250.0
 21
-177.16687200000001
  0
LINE
  5
115
100
AcDbEntity
  8
LC-003-002-----0
  6
CONTINUOUS
 62
             7
100
AcDbLine
 10
-250.0
 20
-302.95519899999999
 11
-250.0
 21
-427.16687200000001
  0
LINE
  5
114
100
AcDbEntity
  8
LC-003-002-----0
  6
CONTINUOUS
 62
             7
100
AcDbLine
 10
-246.5
 20
-193.16687200000001
 11
-243.557692
 21
-193.16687200000001
  0
LINE
  5
113
100
AcDbEntity
  8
LC-003-002-----0
  6
CONTINUOUS
 62
             7
100
AcDbLine
 10
-246.5
 20
-192.16687200000001
 11
-243.557692
 21
-192.16687200000001
  0
LINE
  5
112
100
AcDbEntity
  8
LC-003-002-----0
  6
CONTINUOUS
 62
             7
100
AcDbLine
 10
-243.057692
 20
-193.16687200000001
 11
-240.115385
 21
-193.16687200000001
  0
LINE
  5
111
100
AcDbEntity
  8
LC-003-002-----0
  6
CONTINUOUS
 62
             7
100
AcDbLine
 10
-243.057692
 20
-192.16687200000001
 11
-240.115385
 21
-192.16687200000001
  0
LINE
  5
110
100
AcDbEntity
  8
LC-003-002-----0
  6
CONTINUOUS
 62
             7
100
AcDbLine
 10
-239.615385
 20
-193.16687200000001
 11
-89.141713
 21
-193.16687200000001
  0
LINE
  5
10F
100
AcDbEntity
  8
LC-003-002-----0
  6
CONTINUOUS
 62
             7
100
AcDbLine
 10
-239.615385
 20
-192.16687200000001
 11
-88.27728400000002
 21
-192.16687200000001
  0
LINE
  5
10E
100
AcDbEntity
  8
LC-003-002-----0
  6
CONTINUOUS
 62
             7
100
AcDbLine
 10
-236.17307700000001
 20
-188.16687200000001
 11
-84.81956600000002
 21
-188.16687200000001
  0
LINE
  5
10D
100
AcDbEntity
  8
LC-003-002-----0
  6
CONTINUOUS
 62
             7
100
AcDbLine
 10
-236.17307700000001
 20
-187.16687200000001
 11
-83.95513700000005
 21
-187.16687200000001
  0
LINE
  5
10C
100
AcDbEntity
  8
LC-003-002-----0
  6
CONTINUOUS
 62
             7
100
AcDbLine
 10
-239.615385
 20
-188.16687200000001
 11
-236.67307700000001
 21
-188.16687200000001
  0
LINE
  5
10B
100
AcDbEntity
  8
LC-003-002-----0
  6
CONTINUOUS
 62
             7
100
AcDbLine
 10
-239.615385
 20
-187.16687200000001
 11
-236.67307700000001
 21
-187.16687200000001
  0
LINE
  5
10A
100
AcDbEntity
  8
LC-003-002-----0
  6
CONTINUOUS
 62
             7
100
AcDbLine
 10
-243.057692
 20
-188.16687200000001
 11
-240.115385
 21
-188.16687200000001
  0
LINE
  5
109
100
AcDbEntity
  8
LC-003-002-----0
  6
CONTINUOUS
 62
             7
100
AcDbLine
 10
-243.057692
 20
-187.16687200000001
 11
-240.115385
 21
-187.16687200000001
  0
LINE
  5
108
100
AcDbEntity
  8
LC-003-002-----0
  6
CONTINUOUS
 62
             7
100
AcDbLine
 10
-246.5
 20
-188.16687200000001
 11
-243.557692
 21
-188.16687200000001
  0
LINE
  5
107
100
AcDbEntity
  8
LC-003-002-----0
  6
CONTINUOUS
 62
             7
100
AcDbLine
 10
-246.5
 20
-187.16687200000001
 11
-243.557692
 21
-187.16687200000001
  0
LINE
  5
106
100
AcDbEntity
  8
LC-003-002-----0
  6
CONTINUOUS
 62
             7
100
AcDbLine
 10
-243.057692
 20
-183.16687200000001
 11
-240.115385
 21
-183.16687200000001
  0
LINE
  5
105
100
AcDbEntity
  8
LC-003-002-----0
  6
CONTINUOUS
 62
             7
100
AcDbLine
 10
-243.057692
 20
-182.16687200000001
 11
-240.115385
 21
-182.16687200000001
  0
LINE
  5
104
100
AcDbEntity
  8
LC-003-002-----0
  6
CONTINUOUS
 62
             7
100
AcDbLine
 10
-239.615385
 20
-183.16687200000001
 11
-236.67307700000001
 21
-183.16687200000001
  0
LINE
  5
103
100
AcDbEntity
  8
LC-003-002-----0
  6
CONTINUOUS
 62
             7
100
AcDbLine
 10
-239.615385
 20
-182.16687200000001
 11
-236.67307700000001
 21
-182.16687200000001
  0
LINE
  5
102
100
AcDbEntity
  8
LC-003-002-----0
  6
CONTINUOUS
 62
             7
100
AcDbLine
 10
-236.17307700000001
 20
-183.16687200000001
 11
-80.49741900000005
 21
-183.16687200000001
  0
LINE
  5
101
100
AcDbEntity
  8
LC-003-002-----0
  6
CONTINUOUS
 62
             7
100
AcDbLine
 10
-236.17307700000001
 20
-182.16687200000001
 11
-79.63299000000008
 21
-182.16687200000001
  0
LINE
  5
100
100
AcDbEntity
  8
LC-003-002-----0
  6
CONTINUOUS
 62
             7
100
AcDbLine
 10
-236.17307700000001
 20
-178.16687200000001
 11
-61.82136000000004
 21
-178.16687200000001
  0
LINE
  5
FF
100
AcDbEntity
  8
LC-003-002-----0
  6
CONTINUOUS
 62
             7
100
AcDbLine
 10
-239.615385
 20
-178.16687200000001
 11
-236.67307700000001
 21
-178.16687200000001
  0
LINE
  5
FE
100
AcDbEntity
  8
LC-003-002-----0
  6
CONTINUOUS
 62
             7
100
AcDbLine
 10
-243.057692
 20
-178.16687200000001
 11
-240.115385
 21
-178.16687200000001
  0
LINE
  5
FD
100
AcDbEntity
  8
LC-003-002-----0
  6
CONTINUOUS
 62
             7
100
AcDbLine
 10
-246.5
 20
-183.16687200000001
 11
-243.557692
 21
-183.16687200000001
  0
LINE
  5
FC
100
AcDbEntity
  8
LC-003-002-----0
  6
CONTINUOUS
 62
             7
100
AcDbLine
 10
-246.5
 20
-182.16687200000001
 11
-246.5
 21
-177.16687200000001
  0
LINE
  5
FB
100
AcDbEntity
  8
LC-003-002-----0
  6
CONTINUOUS
 62
             7
100
AcDbLine
 10
-247.0
 20
-182.16687200000001
 11
-247.0
 21
-177.16687200000001
  0
LINE
  5
FA
100
AcDbEntity
  8
LC-003-002-----0
  6
CONTINUOUS
 62
             7
100
AcDbLine
 10
-246.5
 20
-182.16687200000001
 11
-243.557692
 21
-182.16687200000001
  0
LINE
  5
F9
100
AcDbEntity
  8
LC-003-002-----0
  6
CONTINUOUS
 62
             7
100
AcDbLine
 10
-246.5
 20
-178.16687200000001
 11
-243.557692
 21
-178.16687200000001
  0
LINE
  5
F8
100
AcDbEntity
  8
LC-003-002-----0
  6
CONTINUOUS
 62
             7
100
AcDbLine
 10
-250.0
 20
-182.16687200000001
 11
-250.0
 21
-183.16687200000001
  0
LINE
  5
F7
100
AcDbEntity
  8
LC-003-002-----0
  6
CONTINUOUS
 62
             7
100
AcDbLine
 10
-250.0
 20
-187.16687200000001
 11
-250.0
 21
-188.16687200000001
  0
LINE
  5
F6
100
AcDbEntity
  8
LC-003-002-----0
  6
CONTINUOUS
 62
             7
100
AcDbLine
 10
-250.0
 20
-192.16687200000001
 11
-250.0
 21
-193.16687200000001
  0
LINE
  5
F5
100
AcDbEntity
  8
LC-003-002-----0
  6
CONTINUOUS
 62
             7
100
AcDbLine
 10
-250.0
 20
-197.16687200000001
 11
-250.0
 21
-198.16687200000001
  0
LINE
  5
F4
100
AcDbEntity
  8
LC-003-002-----0
  6
CONTINUOUS
 62
             7
100
AcDbLine
 10
-250.0
 20
-202.16687200000001
 11
-250.0
 21
-203.16687200000001
  0
LINE
  5
F3
100
AcDbEntity
  8
LC-003-002-----0
  6
CONTINUOUS
 62
             7
100
AcDbLine
 10
-250.0
 20
-207.16687200000001
 11
-250.0
 21
-208.16687200000001
  0
LINE
  5
F2
100
AcDbEntity
  8
LC-003-002-----0
  6
CONTINUOUS
 62
             7
100
AcDbLine
 10
-250.0
 20
-212.16687200000001
 11
-250.0
 21
-213.16687200000001
  0
LINE
  5
F1
100
AcDbEntity
  8
LC-003-002-----0
  6
CONTINUOUS
 62
             7
100
AcDbLine
 10
-250.0
 20
-217.16687200000001
 11
-250.0
 21
-218.16687200000001
  0
LINE
  5
F0
100
AcDbEntity
  8
LC-003-002-----0
  6
CONTINUOUS
 62
             7
100
AcDbLine
 10
-250.0
 20
-222.16687200000001
 11
-250.0
 21
-223.16687200000001
  0
LINE
  5
EF
100
AcDbEntity
  8
LC-003-002-----0
  6
CONTINUOUS
 62
             7
100
AcDbLine
 10
-250.0
 20
-227.16687200000001
 11
-250.0
 21
-228.16687200000001
  0
LINE
  5
EE
100
AcDbEntity
  8
LC-003-002-----0
  6
CONTINUOUS
 62
             7
100
AcDbLine
 10
-250.0
 20
-232.16687200000001
 11
-250.0
 21
-233.16687200000001
  0
LINE
  5
ED
100
AcDbEntity
  8
LC-003-002-----0
  6
CONTINUOUS
 62
             7
100
AcDbLine
 10
-250.0
 20
-237.16687200000001
 11
-250.0
 21
-238.16687200000001
  0
LINE
  5
EC
100
AcDbEntity
  8
LC-003-002-----0
  6
CONTINUOUS
 62
             7
100
AcDbLine
 10
-250.0
 20
-242.16687200000001
 11
-250.0
 21
-243.16687200000001
  0
LINE
  5
EB
100
AcDbEntity
  8
LC-003-002-----0
  6
CONTINUOUS
 62
             7
100
AcDbLine
 10
-250.0
 20
-247.16687200000001
 11
-250.0
 21
-248.16687200000001
  0
LINE
  5
EA
100
AcDbEntity
  8
LC-003-002-----0
  6
CONTINUOUS
 62
             7
100
AcDbLine
 10
-250.0
 20
-252.16687200000001
 11
-250.0
 21
-253.16687200000001
  0
LINE
  5
E9
100
AcDbEntity
  8
LC-003-002-----0
  6
CONTINUOUS
 62
             7
100
AcDbLine
 10
-250.0
 20
-257.16687200000001
 11
-250.0
 21
-258.16687200000001
  0
LINE
  5
E8
100
AcDbEntity
  8
LC-003-002-----0
  6
CONTINUOUS
 62
             7
100
AcDbLine
 10
-250.0
 20
-262.16687200000001
 11
-250.0
 21
-263.16687200000001
  0
LINE
  5
E7
100
AcDbEntity
  8
LC-003-002-----0
  6
CONTINUOUS
 62
             7
100
AcDbLine
 10
-250.0
 20
-267.16687200000001
 11
-250.0
 21
-268.16687200000001
  0
LINE
  5
E6
100
AcDbEntity
  8
LC-003-002-----0
  6
CONTINUOUS
 62
             7
100
AcDbLine
 10
-250.0
 20
-272.16687200000001
 11
-250.0
 21
-273.16687200000001
  0
LINE
  5
E5
100
AcDbEntity
  8
LC-003-002-----0
  6
CONTINUOUS
 62
             7
100
AcDbLine
 10
-250.0
 20
-277.16687200000001
 11
-250.0
 21
-278.16687200000001
  0
LINE
  5
E4
100
AcDbEntity
  8
LC-003-002-----0
  6
CONTINUOUS
 62
             7
100
AcDbLine
 10
-250.0
 20
-282.16687200000001
 11
-250.0
 21
-283.16687200000001
  0
LINE
  5
E3
100
AcDbEntity
  8
LC-003-002-----0
  6
CONTINUOUS
 62
             7
100
AcDbLine
 10
-250.0
 20
-287.16687200000001
 11
-250.0
 21
-288.16687200000001
  0
LINE
  5
E2
100
AcDbEntity
  8
LC-003-002-----0
  6
CONTINUOUS
 62
             7
100
AcDbLine
 10
-250.0
 20
-292.16687200000001
 11
-250.0
 21
-293.16687200000001
  0
LINE
  5
E1
100
AcDbEntity
  8
LC-003-002-----0
  6
CONTINUOUS
 62
             7
100
AcDbLine
 10
-250.0
 20
-297.16687200000001
 11
-250.0
 21
-298.16687200000001
  0
LINE
  5
E0
100
AcDbEntity
  8
LC-003-002-----0
  6
CONTINUOUS
 62
             7
100
AcDbLine
 10
-68.00000000000001
 20
-180.37268399999999
 11
-68.00000000000001
 21
-177.16687200000001
  0
LINE
  5
DF
100
AcDbEntity
  8
LC-003-002-----0
  6
CONTINUOUS
 62
             7
100
AcDbLine
 10
-67.50000000000001
 20
-180.33386100000001
 11
-67.50000000000001
 21
-177.16687200000001
  0
LINE
  5
DE
100
AcDbEntity
  8
LC-003-002-----0
  6
CONTINUOUS
 62
             7
100
AcDbLine
 10
-71.44230800000004
 20
-180.639971
 11
-71.44230800000004
 21
-177.16687200000001
  0
LINE
  5
DD
100
AcDbEntity
  8
LC-003-002-----0
  6
CONTINUOUS
 62
             7
100
AcDbLine
 10
-70.94230800000004
 20
-180.601147
 11
-70.94230800000004
 21
-177.16687200000001
  0
LINE
  5
DC
100
AcDbEntity
  8
LC-003-002-----0
  6
CONTINUOUS
 62
             7
100
AcDbLine
 10
-74.88461500000007
 20
-180.90725800000001
 11
-74.88461500000007
 21
-177.16687200000001
  0
LINE
  5
DB
100
AcDbEntity
  8
LC-003-002-----0
  6
CONTINUOUS
 62
             7
100
AcDbLine
 10
-74.38461500000007
 20
-180.86843400000001
 11
-74.38461500000007
 21
-177.16687200000001
  0
LINE
  5
DA
100
AcDbEntity
  8
LC-003-002-----0
  6
CONTINUOUS
 62
             7
100
AcDbLine
 10
-78.32692299999998
 20
-181.17454499999999
 11
-78.32692299999998
 21
-177.16687200000001
  0
LINE
  5
D9
100
AcDbEntity
  8
LC-003-002-----0
  6
CONTINUOUS
 62
             7
100
AcDbLine
 10
-77.82692299999998
 20
-181.13572099999999
 11
-77.82692299999998
 21
-177.16687200000001
  0
LINE
  5
D8
100
AcDbEntity
  8
LC-003-002-----0
  6
CONTINUOUS
 62
             7
100
AcDbLine
 10
-81.76923100000001
 20
-184.63814500000001
 11
-81.76923100000001
 21
-177.16687200000001
  0
LINE
  5
D7
100
AcDbEntity
  8
LC-003-002-----0
  6
CONTINUOUS
 62
             7
100
AcDbLine
 10
-81.26923100000001
 20
-184.059729
 11
-81.26923100000001
 21
-177.16687200000001
  0
LINE
  5
D6
100
AcDbEntity
  8
LC-003-002-----0
  6
CONTINUOUS
 62
             7
100
AcDbLine
 10
-85.21153800000003
 20
-188.620318
 11
-85.21153800000003
 21
-177.16687200000001
  0
LINE
  5
D5
100
AcDbEntity
  8
LC-003-002-----0
  6
CONTINUOUS
 62
             7
100
AcDbLine
 10
-84.71153800000003
 20
-188.04190199999999
 11
-84.71153800000003
 21
-177.16687200000001
  0
LINE
  5
D4
100
AcDbEntity
  8
LC-003-002-----0
  6
CONTINUOUS
 62
             7
100
AcDbLine
 10
-88.65384600000006
 20
-192.60249200000001
 11
-88.65384600000006
 21
-177.16687200000001
  0
LINE
  5
D3
100
AcDbEntity
  8
LC-003-002-----0
  6
CONTINUOUS
 62
             7
100
AcDbLine
 10
-88.15384600000006
 20
-192.02407500000001
 11
-88.15384600000006
 21
-177.16687200000001
  0
LINE
  5
D2
100
AcDbEntity
  8
LC-003-002-----0
  6
CONTINUOUS
 62
             7
100
AcDbLine
 10
-92.09615400000008
 20
-195.46163200000001
 11
-92.09615400000008
 21
-177.16687200000001
  0
LINE
  5
D1
100
AcDbEntity
  8
LC-003-002-----0
  6
CONTINUOUS
 62
             7
100
AcDbLine
 10
-91.59615400000008
 20
-195.37252599999999
 11
-91.59615400000008
 21
-177.16687200000001
  0
LINE
  5
D0
100
AcDbEntity
  8
LC-003-002-----0
  6
CONTINUOUS
 62
             7
100
AcDbLine
 10
-95.538462
 20
-196.07509200000001
 11
-95.538462
 21
-177.16687200000001
  0
LINE
  5
CF
100
AcDbEntity
  8
LC-003-002-----0
  6
CONTINUOUS
 62
             7
100
AcDbLine
 10
-95.038462
 20
-195.985986
 11
-95.038462
 21
-177.16687200000001
  0
LINE
  5
CE
100
AcDbEntity
  8
LC-003-002-----0
  6
CONTINUOUS
 62
             7
100
AcDbLine
 10
-98.98076900000002
 20
-196.68855199999999
 11
-98.98076900000002
 21
-177.16687200000001
  0
LINE
  5
CD
100
AcDbEntity
  8
LC-003-002-----0
  6
CONTINUOUS
 62
             7
100
AcDbLine
 10
-98.48076900000002
 20
-196.599446
 11
-98.48076900000002
 21
-177.16687200000001
  0
LINE
  5
CC
100
AcDbEntity
  8
LC-003-002-----0
  6
CONTINUOUS
 62
             7
100
AcDbLine
 10
-102.42307700000001
 20
-197.30201299999999
 11
-102.42307700000001
 21
-177.16687200000001
  0
LINE
  5
CB
100
AcDbEntity
  8
LC-003-002-----0
  6
CONTINUOUS
 62
             7
100
AcDbLine
 10
-101.92307700000001
 20
-197.212907
 11
-101.92307700000001
 21
-177.16687200000001
  0
LINE
  5
CA
100
AcDbEntity
  8
LC-003-002-----0
  6
CONTINUOUS
 62
             7
100
AcDbLine
 10
-105.8653850000001
 20
-200.70550900000001
 11
-105.8653850000001
 21
-177.16687200000001
  0
LINE
  5
C9
100
AcDbEntity
  8
LC-003-002-----0
  6
CONTINUOUS
 62
             7
100
AcDbLine
 10
-105.3653850000001
 20
-199.90416500000001
 11
-105.3653850000001
 21
-177.16687200000001
  0
LINE
  5
C8
100
AcDbEntity
  8
LC-003-002-----0
  6
CONTINUOUS
 62
             7
100
AcDbLine
 10
-109.307692
 20
-206.222452
 11
-109.307692
 21
-177.16687200000001
  0
LINE
  5
C7
100
AcDbEntity
  8
LC-003-002-----0
  6
CONTINUOUS
 62
             7
100
AcDbLine
 10
-108.807692
 20
-205.421109
 11
-108.807692
 21
-177.16687200000001
  0
LINE
  5
C6
100
AcDbEntity
  8
LC-003-002-----0
  6
CONTINUOUS
 62
             7
100
AcDbLine
 10
-112.75
 20
-211.739396
 11
-112.75
 21
-177.16687200000001
  0
LINE
  5
C5
100
AcDbEntity
  8
LC-003-002-----0
  6
CONTINUOUS
 62
             7
100
AcDbLine
 10
-112.25
 20
-210.938052
 11
-112.25
 21
-177.16687200000001
  0
LINE
  5
C4
100
AcDbEntity
  8
LC-003-002-----0
  6
CONTINUOUS
 62
             7
100
AcDbLine
 10
-116.192308
 20
-212.917599
 11
-116.192308
 21
-177.16687200000001
  0
LINE
  5
C3
100
AcDbEntity
  8
LC-003-002-----0
  6
CONTINUOUS
 62
             7
100
AcDbLine
 10
-115.692308
 20
-212.795715
 11
-115.692308
 21
-177.16687200000001
  0
LINE
  5
C2
100
AcDbEntity
  8
LC-003-002-----0
  6
CONTINUOUS
 62
             7
100
AcDbLine
 10
-119.6346150000001
 20
-213.75672299999999
 11
-119.6346150000001
 21
-177.16687200000001
  0
LINE
  5
C1
100
AcDbEntity
  8
LC-003-002-----0
  6
CONTINUOUS
 62
             7
100
AcDbLine
 10
-119.1346150000001
 20
-213.634839
 11
-119.1346150000001
 21
-177.16687200000001
  0
LINE
  5
C0
100
AcDbEntity
  8
LC-003-002-----0
  6
CONTINUOUS
 62
             7
100
AcDbLine
 10
-123.07692299999999
 20
-214.59584799999999
 11
-123.07692299999999
 21
-177.16687200000001
  0
LINE
  5
BF
100
AcDbEntity
  8
LC-003-002-----0
  6
CONTINUOUS
 62
             7
100
AcDbLine
 10
-122.57692299999999
 20
-214.473964
 11
-122.57692299999999
 21
-177.16687200000001
  0
LINE
  5
BE
100
AcDbEntity
  8
LC-003-002-----0
  6
CONTINUOUS
 62
             7
100
AcDbLine
 10
-126.519231
 20
-215.43497199999999
 11
-126.519231
 21
-177.16687200000001
  0
LINE
  5
BD
100
AcDbEntity
  8
LC-003-002-----0
  6
CONTINUOUS
 62
             7
100
AcDbLine
 10
-126.019231
 20
-215.31308799999999
 11
-126.019231
 21
-177.16687200000001
  0
LINE
  5
BC
100
AcDbEntity
  8
LC-003-002-----0
  6
CONTINUOUS
 62
             7
100
AcDbLine
 10
-129.96153799999999
 20
-216.27409599999999
 11
-129.96153799999999
 21
-177.16687200000001
  0
LINE
  5
BB
100
AcDbEntity
  8
LC-003-002-----0
  6
CONTINUOUS
 62
             7
100
AcDbLine
 10
-129.46153799999999
 20
-216.15221199999999
 11
-129.46153799999999
 21
-177.16687200000001
  0
LINE
  5
BA
100
AcDbEntity
  8
LC-003-002-----0
  6
CONTINUOUS
 62
             7
100
AcDbLine
 10
-133.40384599999999
 20
-217.11322000000001
 11
-133.40384599999999
 21
-177.16687200000001
  0
LINE
  5
B9
100
AcDbEntity
  8
LC-003-002-----0
  6
CONTINUOUS
 62
             7
100
AcDbLine
 10
-132.90384599999999
 20
-216.99133599999999
 11
-132.90384599999999
 21
-177.16687200000001
  0
LINE
  5
B8
100
AcDbEntity
  8
LC-003-002-----0
  6
CONTINUOUS
 62
             7
100
AcDbLine
 10
-136.8461540000001
 20
-225.26235600000001
 11
-136.8461540000001
 21
-177.16687200000001
  0
LINE
  5
B7
100
AcDbEntity
  8
LC-003-002-----0
  6
CONTINUOUS
 62
             7
100
AcDbLine
 10
-136.3461540000001
 20
-224.013227
 11
-136.3461540000001
 21
-177.16687200000001
  0
LINE
  5
B6
100
AcDbEntity
  8
LC-003-002-----0
  6
CONTINUOUS
 62
             7
100
AcDbLine
 10
-140.28846200000001
 20
-232.48813899999999
 11
-140.28846200000001
 21
-177.16687200000001
  0
LINE
  5
B5
100
AcDbEntity
  8
LC-003-002-----0
  6
CONTINUOUS
 62
             7
100
AcDbLine
 10
-139.78846200000001
 20
-232.31190000000001
 11
-139.78846200000001
 21
-177.16687200000001
  0
LINE
  5
B4
100
AcDbEntity
  8
LC-003-002-----0
  6
CONTINUOUS
 62
             7
100
AcDbLine
 10
-143.73076900000001
 20
-233.70147600000001
 11
-143.73076900000001
 21
-177.16687200000001
  0
LINE
  5
B3
100
AcDbEntity
  8
LC-003-002-----0
  6
CONTINUOUS
 62
             7
100
AcDbLine
 10
-143.23076900000001
 20
-233.525237
 11
-143.23076900000001
 21
-177.16687200000001
  0
LINE
  5
B2
100
AcDbEntity
  8
LC-003-002-----0
  6
CONTINUOUS
 62
             7
100
AcDbLine
 10
-147.17307700000001
 20
-234.91481200000001
 11
-147.17307700000001
 21
-177.16687200000001
  0
LINE
  5
B1
100
AcDbEntity
  8
LC-003-002-----0
  6
CONTINUOUS
 62
             7
100
AcDbLine
 10
-146.67307700000001
 20
-234.738574
 11
-146.67307700000001
 21
-177.16687200000001
  0
LINE
  5
B0
100
AcDbEntity
  8
LC-003-002-----0
  6
CONTINUOUS
 62
             7
100
AcDbLine
 10
-150.61538500000009
 20
-236.12814900000001
 11
-150.61538500000009
 21
-177.16687200000001
  0
LINE
  5
AF
100
AcDbEntity
  8
LC-003-002-----0
  6
CONTINUOUS
 62
             7
100
AcDbLine
 10
-150.11538500000009
 20
-235.95191
 11
-150.11538500000009
 21
-177.16687200000001
  0
LINE
  5
AE
100
AcDbEntity
  8
LC-003-002-----0
  6
CONTINUOUS
 62
             7
100
AcDbLine
 10
-154.057692
 20
-237.341486
 11
-154.057692
 21
-177.16687200000001
  0
LINE
  5
AD
100
AcDbEntity
  8
LC-003-002-----0
  6
CONTINUOUS
 62
             7
100
AcDbLine
 10
-153.557692
 20
-237.16524699999999
 11
-153.557692
 21
-177.16687200000001
  0
LINE
  5
AC
100
AcDbEntity
  8
LC-003-002-----0
  6
CONTINUOUS
 62
             7
100
AcDbLine
 10
-157.5
 20
-239.61206899999999
 11
-157.5
 21
-177.16687200000001
  0
LINE
  5
AB
100
AcDbEntity
  8
LC-003-002-----0
  6
CONTINUOUS
 62
             7
100
AcDbLine
 10
-157.0
 20
-238.37858399999999
 11
-157.0
 21
-177.16687200000001
  0
LINE
  5
AA
100
AcDbEntity
  8
LC-003-002-----0
  6
CONTINUOUS
 62
             7
100
AcDbLine
 10
-160.942308
 20
-246.372196
 11
-160.942308
 21
-177.16687200000001
  0
LINE
  5
A9
100
AcDbEntity
  8
LC-003-002-----0
  6
CONTINUOUS
 62
             7
100
AcDbLine
 10
-160.442308
 20
-245.390278
 11
-160.442308
 21
-177.16687200000001
  0
LINE
  5
A8
100
AcDbEntity
  8
LC-003-002-----0
  6
CONTINUOUS
 62
             7
100
AcDbLine
 10
-164.38461500000011
 20
-250.165569
 11
-164.38461500000011
 21
-177.16687200000001
  0
LINE
  5
A7
100
AcDbEntity
  8
LC-003-002-----0
  6
CONTINUOUS
 62
             7
100
AcDbLine
 10
-163.88461500000011
 20
-250.07519400000001
 11
-163.88461500000011
 21
-177.16687200000001
  0
LINE
  5
A6
100
AcDbEntity
  8
LC-003-002-----0
  6
CONTINUOUS
 62
             7
100
AcDbLine
 10
-167.82692299999999
 20
-250.7877640000001
 11
-167.82692299999999
 21
-177.16687200000001
  0
LINE
  5
A5
100
AcDbEntity
  8
LC-003-002-----0
  6
CONTINUOUS
 62
             7
100
AcDbLine
 10
-167.32692299999999
 20
-250.6973890000001
 11
-167.32692299999999
 21
-177.16687200000001
  0
LINE
  5
A4
100
AcDbEntity
  8
LC-003-002-----0
  6
CONTINUOUS
 62
             7
100
AcDbLine
 10
-171.26923099999999
 20
-251.40995799999999
 11
-171.26923099999999
 21
-177.16687200000001
  0
LINE
  5
A3
100
AcDbEntity
  8
LC-003-002-----0
  6
CONTINUOUS
 62
             7
100
AcDbLine
 10
-170.76923099999999
 20
-251.31958399999999
 11
-170.76923099999999
 21
-177.16687200000001
  0
LINE
  5
A2
100
AcDbEntity
  8
LC-003-002-----0
  6
CONTINUOUS
 62
             7
100
AcDbLine
 10
-174.71153799999999
 20
-252.03215299999999
 11
-174.71153799999999
 21
-177.16687200000001
  0
LINE
  5
A1
100
AcDbEntity
  8
LC-003-002-----0
  6
CONTINUOUS
 62
             7
100
AcDbLine
 10
-174.21153799999999
 20
-251.941778
 11
-174.21153799999999
 21
-177.16687200000001
  0
LINE
  5
A0
100
AcDbEntity
  8
LC-003-002-----0
  6
CONTINUOUS
 62
             7
100
AcDbLine
 10
-178.15384599999999
 20
-252.654347
 11
-178.15384599999999
 21
-177.16687200000001
  0
LINE
  5
9F
100
AcDbEntity
  8
LC-003-002-----0
  6
CONTINUOUS
 62
             7
100
AcDbLine
 10
-177.65384599999999
 20
-252.563973
 11
-177.65384599999999
 21
-177.16687200000001
  0
LINE
  5
9E
100
AcDbEntity
  8
LC-003-002-----0
  6
CONTINUOUS
 62
             7
100
AcDbLine
 10
-181.5961540000001
 20
-256.45473399999997
 11
-181.5961540000001
 21
-177.16687200000001
  0
LINE
  5
9D
100
AcDbEntity
  8
LC-003-002-----0
  6
CONTINUOUS
 62
             7
100
AcDbLine
 10
-181.0961540000001
 20
-255.64441500000001
 11
-181.0961540000001
 21
-177.16687200000001
  0
LINE
  5
9C
100
AcDbEntity
  8
LC-003-002-----0
  6
CONTINUOUS
 62
             7
100
AcDbLine
 10
-185.03846200000001
 20
-262.03347100000002
 11
-185.03846200000001
 21
-177.16687200000001
  0
LINE
  5
9B
100
AcDbEntity
  8
LC-003-002-----0
  6
CONTINUOUS
 62
             7
100
AcDbLine
 10
-184.53846200000001
 20
-261.22315200000003
 11
-184.53846200000001
 21
-177.16687200000001
  0
LINE
  5
9A
100
AcDbEntity
  8
LC-003-002-----0
  6
CONTINUOUS
 62
             7
100
AcDbLine
 10
-188.48076900000001
 20
-267.61220900000001
 11
-188.48076900000001
 21
-177.16687200000001
  0
LINE
  5
99
100
AcDbEntity
  8
LC-003-002-----0
  6
CONTINUOUS
 62
             7
100
AcDbLine
 10
-187.98076900000001
 20
-266.80188900000002
 11
-187.98076900000001
 21
-177.16687200000001
  0
LINE
  5
98
100
AcDbEntity
  8
LC-003-002-----0
  6
CONTINUOUS
 62
             7
100
AcDbLine
 10
-191.92307700000001
 20
-270.70480700000002
 11
-191.92307700000001
 21
-177.16687200000001
  0
LINE
  5
97
100
AcDbEntity
  8
LC-003-002-----0
  6
CONTINUOUS
 62
             7
100
AcDbLine
 10
-191.42307700000001
 20
-270.70591000000002
 11
-191.42307700000001
 21
-177.16687200000001
  0
LINE
  5
96
100
AcDbEntity
  8
LC-003-002-----0
  6
CONTINUOUS
 62
             7
100
AcDbLine
 10
-195.36538500000009
 20
-270.69721199999998
 11
-195.36538500000009
 21
-177.16687200000001
  0
LINE
  5
95
100
AcDbEntity
  8
LC-003-002-----0
  6
CONTINUOUS
 62
             7
100
AcDbLine
 10
-194.86538500000009
 20
-270.69831499999998
 11
-194.86538500000009
 21
-177.16687200000001
  0
LINE
  5
94
100
AcDbEntity
  8
LC-003-002-----0
  6
CONTINUOUS
 62
             7
100
AcDbLine
 10
-198.807692
 20
-270.689617
 11
-198.807692
 21
-177.16687200000001
  0
LINE
  5
93
100
AcDbEntity
  8
LC-003-002-----0
  6
CONTINUOUS
 62
             7
100
AcDbLine
 10
-198.307692
 20
-270.69072
 11
-198.307692
 21
-177.16687200000001
  0
LINE
  5
92
100
AcDbEntity
  8
LC-003-002-----0
  6
CONTINUOUS
 62
             7
100
AcDbLine
 10
-202.25
 20
-270.68202200000002
 11
-202.25
 21
-177.16687200000001
  0
LINE
  5
91
100
AcDbEntity
  8
LC-003-002-----0
  6
CONTINUOUS
 62
             7
100
AcDbLine
 10
-201.75
 20
-270.68312500000002
 11
-201.75
 21
-177.16687200000001
  0
LINE
  5
90
100
AcDbEntity
  8
LC-003-002-----0
  6
CONTINUOUS
 62
             7
100
AcDbLine
 10
-205.692308
 20
-270.67442699999998
 11
-205.692308
 21
-177.16687200000001
  0
LINE
  5
8F
100
AcDbEntity
  8
LC-003-002-----0
  6
CONTINUOUS
 62
             7
100
AcDbLine
 10
-205.192308
 20
-270.67552999999998
 11
-205.192308
 21
-177.16687200000001
  0
LINE
  5
8E
100
AcDbEntity
  8
LC-003-002-----0
  6
CONTINUOUS
 62
             7
100
AcDbLine
 10
-209.13461500000011
 20
-274.10122000000001
 11
-209.13461500000011
 21
-177.16687200000001
  0
LINE
  5
8D
100
AcDbEntity
  8
LC-003-002-----0
  6
CONTINUOUS
 62
             7
100
AcDbLine
 10
-208.63461500000011
 20
-273.44262400000002
 11
-208.63461500000011
 21
-177.16687200000001
  0
LINE
  5
8C
100
AcDbEntity
  8
LC-003-002-----0
  6
CONTINUOUS
 62
             7
100
AcDbLine
 10
-212.57692299999999
 20
-278.635402
 11
-212.57692299999999
 21
-177.16687200000001
  0
LINE
  5
8B
100
AcDbEntity
  8
LC-003-002-----0
  6
CONTINUOUS
 62
             7
100
AcDbLine
 10
-212.07692299999999
 20
-277.97680600000001
 11
-212.07692299999999
 21
-177.16687200000001
  0
LINE
  5
8A
100
AcDbEntity
  8
LC-003-002-----0
  6
CONTINUOUS
 62
             7
100
AcDbLine
 10
-216.01923099999999
 20
-283.16958499999998
 11
-216.01923099999999
 21
-177.16687200000001
  0
LINE
  5
89
100
AcDbEntity
  8
LC-003-002-----0
  6
CONTINUOUS
 62
             7
100
AcDbLine
 10
-215.51923099999999
 20
-282.510989
 11
-215.51923099999999
 21
-177.16687200000001
  0
LINE
  5
88
100
AcDbEntity
  8
LC-003-002-----0
  6
CONTINUOUS
 62
             7
100
AcDbLine
 10
-219.46153799999999
 20
-285.108994
 11
-219.46153799999999
 21
-177.16687200000001
  0
LINE
  5
87
100
AcDbEntity
  8
LC-003-002-----0
  6
CONTINUOUS
 62
             7
100
AcDbLine
 10
-218.96153799999999
 20
-285.06961000000001
 11
-218.96153799999999
 21
-177.16687200000001
  0
LINE
  5
86
100
AcDbEntity
  8
LC-003-002-----0
  6
CONTINUOUS
 62
             7
100
AcDbLine
 10
-222.90384599999999
 20
-285.380132
 11
-222.90384599999999
 21
-177.16687200000001
  0
LINE
  5
85
100
AcDbEntity
  8
LC-003-002-----0
  6
CONTINUOUS
 62
             7
100
AcDbLine
 10
-222.40384599999999
 20
-285.34074800000002
 11
-222.40384599999999
 21
-177.16687200000001
  0
LINE
  5
84
100
AcDbEntity
  8
LC-003-002-----0
  6
CONTINUOUS
 62
             7
100
AcDbLine
 10
-226.34615400000001
 20
-285.65127000000001
 11
-226.34615400000001
 21
-177.16687200000001
  0
LINE
  5
83
100
AcDbEntity
  8
LC-003-002-----0
  6
CONTINUOUS
 62
             7
100
AcDbLine
 10
-225.84615400000001
 20
-285.61188700000002
 11
-225.84615400000001
 21
-177.16687200000001
  0
LINE
  5
82
100
AcDbEntity
  8
LC-003-002-----0
  6
CONTINUOUS
 62
             7
100
AcDbLine
 10
-229.78846200000001
 20
-285.92240800000002
 11
-229.78846200000001
 21
-177.16687200000001
  0
LINE
  5
81
100
AcDbEntity
  8
LC-003-002-----0
  6
CONTINUOUS
 62
             7
100
AcDbLine
 10
-229.28846200000001
 20
-285.88302499999998
 11
-229.28846200000001
 21
-177.16687200000001
  0
LINE
  5
80
100
AcDbEntity
  8
LC-003-002-----0
  6
CONTINUOUS
 62
             7
100
AcDbLine
 10
-233.23076900000001
 20
-291.900398
 11
-233.23076900000001
 21
-177.16687200000001
  0
LINE
  5
7F
100
AcDbEntity
  8
LC-003-002-----0
  6
CONTINUOUS
 62
             7
100
AcDbLine
 10
-232.73076900000001
 20
-290.95007900000002
 11
-232.73076900000001
 21
-177.16687200000001
  0
LINE
  5
7E
100
AcDbEntity
  8
LC-003-002-----0
  6
CONTINUOUS
 62
             7
100
AcDbLine
 10
-236.67307700000001
 20
-298.44297699999998
 11
-236.67307700000001
 21
-177.16687200000001
  0
LINE
  5
7D
100
AcDbEntity
  8
LC-003-002-----0
  6
CONTINUOUS
 62
             7
100
AcDbLine
 10
-236.17307700000001
 20
-297.49265800000001
 11
-236.17307700000001
 21
-177.16687200000001
  0
LINE
  5
7C
100
AcDbEntity
  8
LC-003-002-----0
  6
CONTINUOUS
 62
             7
100
AcDbLine
 10
-240.115385
 20
-301.15261400000003
 11
-240.115385
 21
-177.16687200000001
  0
LINE
  5
7B
100
AcDbEntity
  8
LC-003-002-----0
  6
CONTINUOUS
 62
             7
100
AcDbLine
 10
-239.615385
 20
-301.06143200000002
 11
-239.615385
 21
-177.16687200000001
  0
LINE
  5
7A
100
AcDbEntity
  8
LC-003-002-----0
  6
CONTINUOUS
 62
             7
100
AcDbLine
 10
-243.557692
 20
-301.78036200000003
 11
-243.557692
 21
-177.16687200000001
  0
LINE
  5
79
100
AcDbEntity
  8
LC-003-002-----0
  6
CONTINUOUS
 62
             7
100
AcDbLine
 10
-243.057692
 20
-301.68918100000002
 11
-243.057692
 21
-177.16687200000001
  0
LINE
  5
78
100
AcDbEntity
  8
LC-003-002-----0
  6
CONTINUOUS
 62
             7
100
AcDbLine
 10
-247.0
 20
-302.40811100000002
 11
-247.0
 21
-182.16687200000001
  0
LINE
  5
77
100
AcDbEntity
  8
LC-003-002-----0
  6
CONTINUOUS
 62
             7
100
AcDbLine
 10
-250.0
 20
-297.16687200000001
 11
-236.001668
 21
-297.16687200000001
  0
LINE
  5
76
100
AcDbEntity
  8
LC-003-002-----0
  6
CONTINUOUS
 62
             7
100
AcDbLine
 10
-250.0
 20
-298.16687200000001
 11
-236.527807
 21
-298.16687200000001
  0
LINE
  5
75
100
AcDbEntity
  8
LC-003-002-----0
  6
CONTINUOUS
 62
             7
100
AcDbLine
 10
-250.0
 20
-292.16687200000001
 11
-233.37097199999999
 21
-292.16687200000001
  0
LINE
  5
74
100
AcDbEntity
  8
LC-003-002-----0
  6
CONTINUOUS
 62
             7
100
AcDbLine
 10
-250.0
 20
-293.16687200000001
 11
-233.897111
 21
-293.16687200000001
  0
LINE
  5
73
100
AcDbEntity
  8
LC-003-002-----0
  6
CONTINUOUS
 62
             7
100
AcDbLine
 10
-250.0
 20
-287.16687200000001
 11
-230.740275
 21
-287.16687200000001
  0
LINE
  5
72
100
AcDbEntity
  8
LC-003-002-----0
  6
CONTINUOUS
 62
             7
100
AcDbLine
 10
-250.0
 20
-288.16687200000001
 11
-231.26641499999999
 21
-288.16687200000001
  0
LINE
  5
71
100
AcDbEntity
  8
LC-003-002-----0
  6
CONTINUOUS
 62
             7
100
AcDbLine
 10
-250.0
 20
-282.16687200000001
 11
-215.257981
 21
-282.16687200000001
  0
LINE
  5
70
100
AcDbEntity
  8
LC-003-002-----0
  6
CONTINUOUS
 62
             7
100
AcDbLine
 10
-250.0
 20
-283.16687200000001
 11
-216.01717099999999
 21
-283.16687200000001
  0
LINE
  5
6F
100
AcDbEntity
  8
LC-003-002-----0
  6
CONTINUOUS
 62
             7
100
AcDbLine
 10
-250.0
 20
-277.16687200000001
 11
-211.462029
 21
-277.16687200000001
  0
LINE
  5
6E
100
AcDbEntity
  8
LC-003-002-----0
  6
CONTINUOUS
 62
             7
100
AcDbLine
 10
-250.0
 20
-278.16687200000001
 11
-212.22121899999999
 21
-278.16687200000001
  0
LINE
  5
6D
100
AcDbEntity
  8
LC-003-002-----0
  6
CONTINUOUS
 62
             7
100
AcDbLine
 10
-250.0
 20
-272.16687200000001
 11
-207.666077
 21
-272.16687200000001
  0
LINE
  5
6C
100
AcDbEntity
  8
LC-003-002-----0
  6
CONTINUOUS
 62
             7
100
AcDbLine
 10
-250.0
 20
-273.16687200000001
 11
-208.42526699999999
 21
-273.16687200000001
  0
LINE
  5
6B
100
AcDbEntity
  8
LC-003-002-----0
  6
CONTINUOUS
 62
             7
100
AcDbLine
 10
-250.0
 20
-267.16687200000001
 11
-188.2059780000001
 21
-267.16687200000001
  0
LINE
  5
6A
100
AcDbEntity
  8
LC-003-002-----0
  6
CONTINUOUS
 62
             7
100
AcDbLine
 10
-250.0
 20
-268.16687200000001
 11
-188.82301899999999
 21
-268.16687200000001
  0
LINE
  5
69
100
AcDbEntity
  8
LC-003-002-----0
  6
CONTINUOUS
 62
             7
100
AcDbLine
 10
-250.0
 20
-262.16687200000001
 11
-185.12077500000001
 21
-262.16687200000001
  0
LINE
  5
68
100
AcDbEntity
  8
LC-003-002-----0
  6
CONTINUOUS
 62
             7
100
AcDbLine
 10
-250.0
 20
-263.16687200000001
 11
-185.73781600000009
 21
-263.16687200000001
  0
LINE
  5
67
100
AcDbEntity
  8
LC-003-002-----0
  6
CONTINUOUS
 62
             7
100
AcDbLine
 10
-250.0
 20
-257.16687200000001
 11
-182.035572
 21
-257.16687200000001
  0
LINE
  5
66
100
AcDbEntity
  8
LC-003-002-----0
  6
CONTINUOUS
 62
             7
100
AcDbLine
 10
-250.0
 20
-258.16687200000001
 11
-182.652613
 21
-258.16687200000001
  0
LINE
  5
65
100
AcDbEntity
  8
LC-003-002-----0
  6
CONTINUOUS
 62
             7
100
AcDbLine
 10
-250.0
 20
-252.16687200000001
 11
-175.45687599999999
 21
-252.16687200000001
  0
LINE
  5
64
100
AcDbEntity
  8
LC-003-002-----0
  6
CONTINUOUS
 62
             7
100
AcDbLine
 10
-250.0
 20
-253.16687200000001
 11
-179.567409
 21
-253.16687200000001
  0
LINE
  5
63
100
AcDbEntity
  8
LC-003-002-----0
  6
CONTINUOUS
 62
             7
100
AcDbLine
 10
-250.0
 20
-247.16687200000001
 11
-161.3469630000001
 21
-247.16687200000001
  0
LINE
  5
62
100
AcDbEntity
  8
LC-003-002-----0
  6
CONTINUOUS
 62
             7
100
AcDbLine
 10
-250.0
 20
-248.16687200000001
 11
-161.85616999999999
 21
-248.16687200000001
  0
LINE
  5
61
100
AcDbEntity
  8
LC-003-002-----0
  6
CONTINUOUS
 62
             7
100
AcDbLine
 10
-250.0
 20
-242.16687200000001
 11
-158.80092500000001
 21
-242.16687200000001
  0
LINE
  5
60
100
AcDbEntity
  8
LC-003-002-----0
  6
CONTINUOUS
 62
             7
100
AcDbLine
 10
-250.0
 20
-243.16687200000001
 11
-159.31013300000009
 21
-243.16687200000001
  0
LINE
  5
5F
100
AcDbEntity
  8
LC-003-002-----0
  6
CONTINUOUS
 62
             7
100
AcDbLine
 10
-250.0
 20
-237.16687200000001
 11
-153.5623020000001
 21
-237.16687200000001
  0
LINE
  5
5E
100
AcDbEntity
  8
LC-003-002-----0
  6
CONTINUOUS
 62
             7
100
AcDbLine
 10
-250.0
 20
-238.16687200000001
 11
-156.764095
 21
-238.16687200000001
  0
LINE
  5
5D
100
AcDbEntity
  8
LC-003-002-----0
  6
CONTINUOUS
 62
             7
100
AcDbLine
 10
-250.0
 20
-232.16687200000001
 11
-139.3770080000001
 21
-232.16687200000001
  0
LINE
  5
5C
100
AcDbEntity
  8
LC-003-002-----0
  6
CONTINUOUS
 62
             7
100
AcDbLine
 10
-250.0
 20
-233.16687200000001
 11
-142.214067
 21
-233.16687200000001
  0
LINE
  5
5B
100
AcDbEntity
  8
LC-003-002-----0
  6
CONTINUOUS
 62
             7
100
AcDbLine
 10
-250.0
 20
-227.16687200000001
 11
-137.6084920000001
 21
-227.16687200000001
  0
LINE
  5
5A
100
AcDbEntity
  8
LC-003-002-----0
  6
CONTINUOUS
 62
             7
100
AcDbLine
 10
-250.0
 20
-228.16687200000001
 11
-138.008771
 21
-228.16687200000001
  0
LINE
  5
59
100
AcDbEntity
  8
LC-003-002-----0
  6
CONTINUOUS
 62
             7
100
AcDbLine
 10
-250.0
 20
-222.16687200000001
 11
-135.6070960000001
 21
-222.16687200000001
  0
LINE
  5
58
100
AcDbEntity
  8
LC-003-002-----0
  6
CONTINUOUS
 62
             7
100
AcDbLine
 10
-250.0
 20
-223.16687200000001
 11
-136.007375
 21
-223.16687200000001
  0
LINE
  5
57
100
AcDbEntity
  8
LC-003-002-----0
  6
CONTINUOUS
 62
             7
100
AcDbLine
 10
-250.0
 20
-217.16687200000001
 11
-133.6057000000001
 21
-217.16687200000001
  0
LINE
  5
56
100
AcDbEntity
  8
LC-003-002-----0
  6
CONTINUOUS
 62
             7
100
AcDbLine
 10
-250.0
 20
-218.16687200000001
 11
-134.00597999999999
 21
-218.16687200000001
  0
LINE
  5
55
100
AcDbEntity
  8
LC-003-002-----0
  6
CONTINUOUS
 62
             7
100
AcDbLine
 10
-250.0
 20
-212.16687200000001
 11
-113.112628
 21
-212.16687200000001
  0
LINE
  5
54
100
AcDbEntity
  8
LC-003-002-----0
  6
CONTINUOUS
 62
             7
100
AcDbLine
 10
-250.0
 20
-213.16687200000001
 11
-117.21489099999999
 21
-213.16687200000001
  0
LINE
  5
53
100
AcDbEntity
  8
LC-003-002-----0
  6
CONTINUOUS
 62
             7
100
AcDbLine
 10
-250.0
 20
-207.16687200000001
 11
-109.89696499999999
 21
-207.16687200000001
  0
LINE
  5
52
100
AcDbEntity
  8
LC-003-002-----0
  6
CONTINUOUS
 62
             7
100
AcDbLine
 10
-250.0
 20
-208.16687200000001
 11
-110.5209170000001
 21
-208.16687200000001
  0
LINE
  5
51
100
AcDbEntity
  8
LC-003-002-----0
  6
CONTINUOUS
 62
             7
100
AcDbLine
 10
-250.0
 20
-202.16687200000001
 11
-106.777205
 21
-202.16687200000001
  0
LINE
  5
50
100
AcDbEntity
  8
LC-003-002-----0
  6
CONTINUOUS
 62
             7
100
AcDbLine
 10
-250.0
 20
-203.16687200000001
 11
-107.401157
 21
-203.16687200000001
  0
LINE
  5
4F
100
AcDbEntity
  8
LC-003-002-----0
  6
CONTINUOUS
 62
             7
100
AcDbLine
 10
-250.0
 20
-197.16687200000001
 11
-101.66476299999999
 21
-197.16687200000001
  0
LINE
  5
4E
100
AcDbEntity
  8
LC-003-002-----0
  6
CONTINUOUS
 62
             7
100
AcDbLine
 10
-250.0
 20
-198.16687200000001
 11
-104.281397
 21
-198.16687200000001
  0
LINE
  5
4D
100
AcDbEntity
  8
LC-003-002-----0
  6
CONTINUOUS
 62
             7
100
AcDbLine
 10
-250.0
 20
-192.16687200000001
 11
-247.0
 21
-192.16687200000001
  0
LINE
  5
4C
100
AcDbEntity
  8
LC-003-002-----0
  6
CONTINUOUS
 62
             7
100
AcDbLine
 10
-246.5
 20
-302.31693000000001
 11
-246.5
 21
-182.16687200000001
  0
LINE
  5
4B
100
AcDbEntity
  8
LC-003-002-----0
  6
CONTINUOUS
 62
             7
100
AcDbLine
 10
-250.0
 20
-193.16687200000001
 11
-247.0
 21
-193.16687200000001
  0
LINE
  5
4A
100
AcDbEntity
  8
LC-003-002-----0
  6
CONTINUOUS
 62
             7
100
AcDbLine
 10
-250.0
 20
-187.16687200000001
 11
-247.0
 21
-187.16687200000001
  0
LINE
  5
49
100
AcDbEntity
  8
LC-003-002-----0
  6
CONTINUOUS
 62
             7
100
AcDbLine
 10
-250.0
 20
-188.16687200000001
 11
-247.0
 21
-188.16687200000001
  0
LINE
  5
48
100
AcDbEntity
  8
LC-003-002-----0
  6
CONTINUOUS
 62
             7
100
AcDbLine
 10
-250.0
 20
-182.16687200000001
 11
-247.0
 21
-182.16687200000001
  0
LINE
  5
47
100
AcDbEntity
  8
LC-003-002-----0
  6
CONTINUOUS
 62
             2
100
AcDbLine
 10
-62.44081800000006
 20
-179.94102699999999
 11
-61.47220300000006
 21
-177.16687200000001
  0
LINE
  5
46
100
AcDbEntity
  8
LC-003-002-----0
  6
CONTINUOUS
 62
             2
100
AcDbLine
 10
-78.80744600000004
 20
-181.21185600000001
 11
-62.44081800000006
 21
-179.94102699999999
  0
LINE
  5
45
100
AcDbEntity
  8
LC-003-002-----0
  6
CONTINUOUS
 62
             2
100
AcDbLine
 10
-90.94858599999999
 20
-195.25712200000001
 11
-78.80744600000004
 21
-181.21185600000001
  0
LINE
  5
44
100
AcDbEntity
  8
LC-003-002-----0
  6
CONTINUOUS
 62
             2
100
AcDbLine
 10
-103.906744
 20
-197.56641999999999
 11
-90.94858599999999
 21
-195.25712200000001
  0
LINE
  5
43
100
AcDbEntity
  8
LC-003-002-----0
  6
CONTINUOUS
 62
             2
100
AcDbLine
 10
-112.9995210000001
 20
-212.13929999999991
 11
-103.906744
 21
-197.56641999999999
  0
LINE
  5
42
100
AcDbEntity
  8
LC-003-002-----0
  6
CONTINUOUS
 62
             2
100
AcDbLine
 10
-133.6037280000001
 20
-217.161945
 11
-112.9995210000001
 21
-212.13929999999991
  0
LINE
  5
41
100
AcDbEntity
  8
LC-003-002-----0
  6
CONTINUOUS
 62
             2
100
AcDbLine
 10
-139.64814200000001
 20
-232.262441
 11
-133.6037280000001
 21
-217.161945
  0
LINE
  5
40
100
AcDbEntity
  8
LC-003-002-----0
  6
CONTINUOUS
 62
             2
100
AcDbLine
 10
-156.84387899999999
 20
-238.323555
 11
-139.64814200000001
 21
-232.262441
  0
LINE
  5
3F
100
AcDbEntity
  8
LC-003-002-----0
  6
CONTINUOUS
 62
             2
100
AcDbLine
 10
-162.72078500000001
 20
-249.864833
 11
-156.84387899999999
 21
-238.323555
  0
LINE
  5
3E
100
AcDbEntity
  8
LC-003-002-----0
  6
CONTINUOUS
 62
             2
100
AcDbLine
 10
-179.38890699999999
 20
-252.87758400000001
 11
-162.72078500000001
 21
-249.864833
  0
LINE
  5
3D
100
AcDbEntity
  8
LC-003-002-----0
  6
CONTINUOUS
 62
             2
100
AcDbLine
 10
-190.39111399999999
 20
-270.70818700000001
 11
-179.38890699999999
 21
-252.87758400000001
  0
LINE
  5
3C
100
AcDbEntity
  8
LC-003-002-----0
  6
CONTINUOUS
 62
             2
100
AcDbLine
 10
-206.531621
 20
-270.67257499999999
 11
-190.39111399999999
 21
-270.70818700000001
  0
LINE
  5
3B
100
AcDbEntity
  8
LC-003-002-----0
  6
CONTINUOUS
 62
             2
100
AcDbLine
 10
-217.36632
 20
-284.943961
 11
-206.531621
 21
-270.67257499999999
  0
LINE
  5
3A
100
AcDbEntity
  8
LC-003-002-----0
  6
CONTINUOUS
 62
             2
100
AcDbLine
 10
-230.09835699999999
 20
-285.94681700000001
 11
-217.36632
 21
-284.943961
  0
LINE
  5
39
100
AcDbEntity
  8
LC-003-002-----0
  6
CONTINUOUS
 62
             2
100
AcDbLine
 10
-237.884692
 20
-300.74581799999999
 11
-230.09835699999999
 21
-285.94681700000001
  0
LINE
  5
38
100
AcDbEntity
  8
LC-003-002-----0
  6
CONTINUOUS
 62
             2
100
AcDbLine
 10
-250.0
 20
-302.95519899999999
 11
-237.884692
 21
-300.74581799999999
  0
LINE
  5
37
100
AcDbEntity
  8
LC-003-002-----0
  6
CONTINUOUS
 62
             7
100
AcDbLine
 10
-250.0
 20
-183.16687200000001
 11
-247.0
 21
-183.16687200000001
  0
LINE
  5
36
100
AcDbEntity
  8
LC-003-002-----0
  6
CONTINUOUS
 62
             7
100
AcDbLine
 10
-250.0
 20
-178.16687200000001
 11
-247.0
 21
-178.16687200000001
  0
LINE
  5
35
100
AcDbEntity
  8
LC-003-002-----0
  6
CONTINUOUS
 62
             7
100
AcDbLine
 10
-250.0
 20
-177.16687200000001
 11
-250.0
 21
-178.16687200000001
  0
LINE
  5
34
100
AcDbEntity
  8
LC-003-002-----0
  6
CONTINUOUS
 62
             7
100
AcDbLine
 10
-250.0
 20
-177.16687200000001
 11
250.0
 21
-177.16687200000001
  0
LINE
  5
33
100
AcDbEntity
  8
1
  6
PHANTOM
 62
             2
100
AcDbLine
 10
254.08275569747701
 20
-427.39383199999997
 11
-254.42720858711101
 21
-427.39383199999997
  0
LINE
  5
32
100
AcDbEntity
  8
1
  6
PHANTOM
 62
             2
100
AcDbLine
 10
-0.00000000000001
 20
-169.9171578178854
 11
-0.00000000000001
 21
-442.12800028096342
  0
ENDBLK
  5
11B
100
AcDbEntity
  8
0
100
AcDbBlockEnd
  0
BLOCK
  5
2D
100
AcDbEntity
  8
0
100
AcDbBlockBegin
  2
HL_360_AUFSTOCKELEMENTN__2
 70
             0
 10
-631.95108663994495
 20
-12.9944767053146
 30
0.0
  3
HL_360_AUFSTOCKELEMENTN__2
  1

  0
CIRCLE
  5
193
100
AcDbEntity
  8
LC-003-002-----0
  6
CONTINUOUS
 62
             7
100
AcDbCircle
 10
-200.0
 20
-16.5
 40
1.5
  0
CIRCLE
  5
192
100
AcDbEntity
  8
LC-003-002-----0
  6
CONTINUOUS
 62
             7
100
AcDbCircle
 10
-250.0
 20
-16.5
 40
1.5
  0
CIRCLE
  5
191
100
AcDbEntity
  8
LC-003-002-----0
  6
CONTINUOUS
 62
             7
100
AcDbCircle
 10
-200.0
 20
-16.5
 40
1.5
  0
CIRCLE
  5
190
100
AcDbEntity
  8
LC-003-002-----0
  6
CONTINUOUS
 62
             7
100
AcDbCircle
 10
-200.0
 20
-16.5
 40
1.5
  0
CIRCLE
  5
18F
100
AcDbEntity
  8
LC-003-002-----0
  6
CONTINUOUS
 62
             7
100
AcDbCircle
 10
200.0
 20
-16.5
 40
1.5
  0
CIRCLE
  5
18E
100
AcDbEntity
  8
LC-003-002-----0
  6
CONTINUOUS
 62
             7
100
AcDbCircle
 10
250.0
 20
-16.5
 40
1.5
  0
CIRCLE
  5
18D
100
AcDbEntity
  8
LC-003-002-----0
  6
CONTINUOUS
 62
             7
100
AcDbCircle
 10
200.0
 20
-16.5
 40
1.5
  0
CIRCLE
  5
18C
100
AcDbEntity
  8
LC-003-002-----0
  6
CONTINUOUS
 62
             7
100
AcDbCircle
 10
200.0
 20
-16.5
 40
1.5
  0
ARC
  5
18B
100
AcDbEntity
  8
LC-007-002-RND-0
  6
CONTINUOUS
 62
             7
100
AcDbCircle
 10
133.999999
 20
-139.5
 40
0.5
100
AcDbArc
 50
-90.0
 51
0.0
  0
ARC
  5
18A
100
AcDbEntity
  8
LC-007-002-RND-0
  6
CONTINUOUS
 62
             7
100
AcDbCircle
 10
133.999999
 20
-132.5
 40
0.5
100
AcDbArc
 50
0.0
 51
90.0
  0
ARC
  5
189
100
AcDbEntity
  8
LC-007-002-RND-0
  6
CONTINUOUS
 62
             7
100
AcDbCircle
 10
115.999999
 20
-139.5
 40
0.5
100
AcDbArc
 50
180.0
 51
-90.0
  0
ARC
  5
188
100
AcDbEntity
  8
LC-007-002-RND-0
  6
CONTINUOUS
 62
             7
100
AcDbCircle
 10
115.999999
 20
-132.5
 40
0.5
100
AcDbArc
 50
90.0
 51
180.0
  0
ARC
  5
187
100
AcDbEntity
  8
LC-007-002-RND-0
  6
CONTINUOUS
 62
             7
100
AcDbCircle
 10
-116.032748
 20
-139.5
 40
0.5
100
AcDbArc
 50
-90.0
 51
0.0
  0
ARC
  5
186
100
AcDbEntity
  8
LC-007-002-RND-0
  6
CONTINUOUS
 62
             7
100
AcDbCircle
 10
-116.032748
 20
-132.5
 40
0.5
100
AcDbArc
 50
0.0
 51
90.0
  0
ARC
  5
185
100
AcDbEntity
  8
LC-007-002-RND-0
  6
CONTINUOUS
 62
             7
100
AcDbCircle
 10
-134.032748
 20
-139.5
 40
0.5
100
AcDbArc
 50
180.0
 51
-90.0
  0
ARC
  5
184
100
AcDbEntity
  8
LC-007-002-RND-0
  6
CONTINUOUS
 62
             7
100
AcDbCircle
 10
-134.032748
 20
-132.5
 40
0.5
100
AcDbArc
 50
90.0
 51
180.0
  0
LINE
  5
183
100
AcDbEntity
  8
1
  6
DOT_CENTER
 62
             2
100
AcDbLine
 10
153.5
 20
-9.26423329254339
 11
153.5
 21
-15.2642332925434
  0
LINE
  5
182
100
AcDbEntity
  8
1
  6
DOT_CENTER
 62
             2
100
AcDbLine
 10
-153.5
 20
-15.2642332925434
 11
-153.5
 21
-9.26423329254339
  0
LINE
  5
181
100
AcDbEntity
  8
1
  6
DOT_CENTER
 62
             2
100
AcDbLine
 10
64.24999999999999
 20
33.92600000000005
 11
64.24999999999999
 21
31.92600000000005
  0
LINE
  5
180
100
AcDbEntity
  8
1
  6
DOT_CENTER
 62
             2
100
AcDbLine
 10
-64.25000000000001
 20
31.92600000000005
 11
-64.25000000000001
 21
33.92600000000005
  0
LINE
  5
17F
100
AcDbEntity
  8
1
  6
PHANTOM
 62
             2
100
AcDbLine
 10
-0.00000000000001
 20
37.46911006235166
 11
-0.00000000000001
 21
18.61176738258723
  0
LINE
  5
17E
100
AcDbEntity
  8
1
  6
PHANTOM
 62
             2
100
AcDbLine
 10
0.0
 20
12.54859363470257
 11
-0.00000000000004
 21
-143.5627697790263
  0
LINE
  5
17D
100
AcDbEntity
  8
LC-002-005-----0
  6
CONTINUOUS
 62
             2
100
AcDbLine
 10
-249.06477899999999
 20
-17.67275899999993
 11
-248.82724099999999
 21
-17.43522099999996
  0
LINE
  5
17C
100
AcDbEntity
  8
LC-002-005-----0
  6
CONTINUOUS
 62
             2
100
AcDbLine
 10
-251.35784000000001
 20
-17.13739299999998
 11
-249.362607
 21
-15.14215999999999
  0
LINE
  5
17B
100
AcDbEntity
  8
LC-002-005-----0
  6
CONTINUOUS
 62
             2
100
AcDbLine
 10
-199.06477899999999
 20
-17.67275899999993
 11
-198.8272410000001
 21
-17.43522099999996
  0
LINE
  5
17A
100
AcDbEntity
  8
LC-002-005-----0
  6
CONTINUOUS
 62
             2
100
AcDbLine
 10
-201.35784000000001
 20
-17.13739299999998
 11
-199.362607
 21
-15.14215999999999
  0
LINE
  5
179
100
AcDbEntity
  8
LC-002-005-----0
  6
CONTINUOUS
 62
             2
100
AcDbLine
 10
249.0647799999999
 20
-17.67275899999993
 11
251.1727589999999
 21
-15.56477999999993
  0
LINE
  5
178
100
AcDbEntity
  8
LC-002-005-----0
  6
CONTINUOUS
 62
             2
100
AcDbLine
 10
199.0647799999999
 20
-17.67275899999993
 11
201.1727589999999
 21
-15.56477999999993
  0
LINE
  5
177
100
AcDbEntity
  8
LC-003-002-----0
  6
CONTINUOUS
 62
             7
100
AcDbLine
 10
-153.53223700000001
 20
-18.51511099999993
 11
153.53223700000001
 21
-18.51511099999993
  0
LINE
  5
176
100
AcDbEntity
  8
LC-003-002-----0
  6
CONTINUOUS
 62
             7
100
AcDbLine
 10
-72.50000000000001
 20
-33.0
 11
-72.50000000000001
 21
-135.00000000000011
  0
LINE
  5
175
100
AcDbEntity
  8
LC-003-002-----0
  6
CONTINUOUS
 62
             7
100
AcDbLine
 10
-135.032748
 20
-130.9413109999999
 11
-115.032748
 21
-130.94131100000001
  0
LINE
  5
174
100
AcDbEntity
  8
LC-003-002-----0
  6
CONTINUOUS
 62
             7
100
AcDbLine
 10
114.999999
 20
-130.9413109999999
 11
134.999999
 21
-130.94131099999981
  0
LINE
  5
173
100
AcDbEntity
  8
LC-003-002-----0
  6
CONTINUOUS
 62
             7
100
AcDbLine
 10
-72.50000000000001
 20
-135.00000000000011
 11
72.49999999999999
 21
-135.00000000000011
  0
LINE
  5
172
100
AcDbEntity
  8
LC-003-002-----0
  6
CONTINUOUS
 62
             7
100
AcDbLine
 10
-115.032748
 20
-30.0
 11
-150.0209540000001
 21
-30.0
  0
LINE
  5
171
100
AcDbEntity
  8
LC-003-002-----0
  6
CONTINUOUS
 62
             7
100
AcDbLine
 10
116.1667659999999
 20
-30.0
 11
150.02095399999999
 21
-30.0
  0
LINE
  5
170
100
AcDbEntity
  8
LC-003-002-----0
  6
CONTINUOUS
 62
             7
100
AcDbLine
 10
72.49999999999999
 20
-33.0
 11
114.999999
 21
-33.0
  0
LINE
  5
16F
100
AcDbEntity
  8
LC-003-002-----0
  6
CONTINUOUS
 62
             7
100
AcDbLine
 10
72.49999999999999
 20
-33.0
 11
-115.032748
 21
-33.0
  0
LINE
  5
16E
100
AcDbEntity
  8
LC-003-002-----0
  6
CONTINUOUS
 62
             7
100
AcDbLine
 10
-117.5
 20
8.68799999999999
 11
117.5
 21
8.68799999999999
  0
LINE
  5
16D
100
AcDbEntity
  8
LC-003-002-----0
  6
CONTINUOUS
 62
             7
100
AcDbLine
 10
-117.5
 20
9.18799999999999
 11
117.5
 21
9.18799999999999
  0
LINE
  5
16C
100
AcDbEntity
  8
LC-003-002-----0
  6
CONTINUOUS
 62
             7
100
AcDbLine
 10
-117.5
 20
9.18799999999999
 11
-117.5
 21
8.68799999999999
  0
LINE
  5
16B
100
AcDbEntity
  8
LC-003-002-----0
  6
CONTINUOUS
 62
             7
100
AcDbLine
 10
117.5
 20
9.18799999999999
 11
117.5
 21
8.68799999999999
  0
LINE
  5
16A
100
AcDbEntity
  8
LC-003-002-----0
  6
CONTINUOUS
 62
             7
100
AcDbLine
 10
99.24999949999999
 20
28.62600000000009
 11
99.24999949999999
 21
26.42600000000005
  0
LINE
  5
169
100
AcDbEntity
  8
LC-003-002-----0
  6
CONTINUOUS
 62
             7
100
AcDbLine
 10
-99.24999950000002
 20
28.62600000000009
 11
-99.24999950000002
 21
26.42600000000005
  0
LINE
  5
168
100
AcDbEntity
  8
LC-003-002-----0
  6
CONTINUOUS
 62
             7
100
AcDbLine
 10
99.24999949999999
 20
28.62600000000009
 11
66.45000049999992
 21
28.62600000000009
  0
LINE
  5
167
100
AcDbEntity
  8
LC-003-002-----0
  6
CONTINUOUS
 62
             7
100
AcDbLine
 10
-99.24999950000002
 20
28.62600000000009
 11
66.45000049999992
 21
28.62600000000009
  0
LINE
  5
166
100
AcDbEntity
  8
LC-003-002-----0
  6
CONTINUOUS
 62
             7
100
AcDbLine
 10
66.45000049999992
 20
30.92600000000005
 11
66.45000049999992
 21
28.62600000000009
  0
LINE
  5
165
100
AcDbEntity
  8
LC-003-002-----0
  6
CONTINUOUS
 62
             7
100
AcDbLine
 10
-66.44999950000006
 20
30.92600000000005
 11
-66.44999950000006
 21
28.62600000000009
  0
LINE
  5
164
100
AcDbEntity
  8
LC-003-002-----0
  6
CONTINUOUS
 62
             7
100
AcDbLine
 10
-66.49999950000002
 20
26.42600000000005
 11
-66.49999950000002
 21
23.92600000000005
  0
LINE
  5
163
100
AcDbEntity
  8
LC-003-002-----0
  6
CONTINUOUS
 62
             7
100
AcDbLine
 10
66.50000049999999
 20
26.42600000000005
 11
66.50000049999999
 21
23.92600000000005
  0
LINE
  5
162
100
AcDbEntity
  8
LC-003-002-----0
  6
CONTINUOUS
 62
             7
100
AcDbLine
 10
-99.24999950000002
 20
26.42600000000005
 11
66.50000049999999
 21
26.42600000000005
  0
LINE
  5
161
100
AcDbEntity
  8
LC-003-002-----0
  6
CONTINUOUS
 62
             7
100
AcDbLine
 10
250.0
 20
8.68799999999999
 11
250.0
 21
9.18799999999999
  0
LINE
  5
160
100
AcDbEntity
  8
LC-003-002-----0
  6
CONTINUOUS
 62
             7
100
AcDbLine
 10
117.5
 20
9.18799999999999
 11
250.0
 21
9.18799999999999
  0
LINE
  5
15F
100
AcDbEntity
  8
LC-003-002-----0
  6
CONTINUOUS
 62
             7
100
AcDbLine
 10
117.5
 20
8.68799999999999
 11
250.0
 21
8.68799999999999
  0
LINE
  5
15E
100
AcDbEntity
  8
LC-003-002-----0
  6
CONTINUOUS
 62
             7
100
AcDbLine
 10
-250.0
 20
8.68799999999999
 11
-250.0
 21
9.18799999999999
  0
LINE
  5
15D
100
AcDbEntity
  8
LC-003-002-----0
  6
CONTINUOUS
 62
             7
100
AcDbLine
 10
-117.5
 20
9.18799999999999
 11
-250.0
 21
9.18799999999999
  0
LINE
  5
15C
100
AcDbEntity
  8
LC-003-002-----0
  6
CONTINUOUS
 62
             7
100
AcDbLine
 10
-117.5
 20
8.68799999999999
 11
-250.0
 21
8.68799999999999
  0
LINE
  5
15B
100
AcDbEntity
  8
LC-003-002-----0
  6
DASHDOT
 62
             2
100
AcDbLine
 10
124.999999
 20
-30.0
 11
124.999999
 21
-140.0
  0
LINE
  5
15A
100
AcDbEntity
  8
LC-003-002-----0
  6
CONTINUOUS
 62
             7
100
AcDbLine
 10
115.999999
 20
-132.0
 11
132.249999
 21
-132.0
  0
LINE
  5
159
100
AcDbEntity
  8
LC-003-002-----0
  6
CONTINUOUS
 62
             7
100
AcDbLine
 10
115.499999
 20
-139.5
 11
115.499999
 21
-132.5
  0
LINE
  5
158
100
AcDbEntity
  8
LC-003-002-----0
  6
CONTINUOUS
 62
             7
100
AcDbLine
 10
133.999999
 20
-140.0
 11
124.999999
 21
-140.0
  0
LINE
  5
157
100
AcDbEntity
  8
LC-003-002-----0
  6
CONTINUOUS
 62
             7
100
AcDbLine
 10
134.499999
 20
-132.5
 11
134.499999
 21
-139.5
  0
LINE
  5
156
100
AcDbEntity
  8
LC-003-002-----0
  6
CONTINUOUS
 62
             7
100
AcDbLine
 10
132.249999
 20
-132.0
 11
133.999999
 21
-132.0
  0
LINE
  5
155
100
AcDbEntity
  8
LC-003-002-----0
  6
CONTINUOUS
 62
             7
100
AcDbLine
 10
124.999999
 20
-140.0
 11
115.999999
 21
-140.0
  0
LINE
  5
154
100
AcDbEntity
  8
LC-003-002-----0
  6
CONTINUOUS
 62
             2
100
AcDbLine
 10
133.41199900000001
 20
-131.9413109999999
 11
133.41199900000001
 21
-30.0
  0
LINE
  5
153
100
AcDbEntity
  8
LC-003-002-----0
  6
CONTINUOUS
 62
             2
100
AcDbLine
 10
116.587999
 20
-131.9413109999999
 11
116.587999
 21
-30.0
  0
LINE
  5
152
100
AcDbEntity
  8
LC-003-002-----0
  6
CONTINUOUS
 62
             7
100
AcDbLine
 10
114.999999
 20
-130.9413109999999
 11
114.999999
 21
-30.54407199999992
  0
LINE
  5
151
100
AcDbEntity
  8
LC-003-002-----0
  6
CONTINUOUS
 62
             7
100
AcDbLine
 10
114.999999
 20
-30.54407199999992
 11
116.1667659999999
 21
-30.0
  0
LINE
  5
150
100
AcDbEntity
  8
LC-003-002-----0
  6
CONTINUOUS
 62
             7
100
AcDbLine
 10
114.999999
 20
-130.9413109999999
 11
115.999999
 21
-131.9413109999999
  0
LINE
  5
14F
100
AcDbEntity
  8
LC-003-002-----0
  6
CONTINUOUS
 62
             7
100
AcDbLine
 10
134.999999
 20
-130.94131099999981
 11
133.999999
 21
-131.9413109999999
  0
LINE
  5
14E
100
AcDbEntity
  8
LC-003-002-----0
  6
CONTINUOUS
 62
             7
100
AcDbLine
 10
115.999999
 20
-131.9413109999999
 11
133.999999
 21
-131.9413109999999
  0
LINE
  5
14D
100
AcDbEntity
  8
LC-003-002-----0
  6
CONTINUOUS
 62
             7
100
AcDbLine
 10
133.999999
 20
-30.0
 11
134.999999
 21
-31.0
  0
LINE
  5
14C
100
AcDbEntity
  8
LC-003-002-----0
  6
CONTINUOUS
 62
             7
100
AcDbLine
 10
134.999999
 20
-31.0
 11
134.999999
 21
-130.94131099999981
  0
LINE
  5
14B
100
AcDbEntity
  8
LC-003-002-----0
  6
CONTINUOUS
 62
             7
100
AcDbLine
 10
-140.032748
 20
-30.0
 11
-149.621925
 21
-30.0
  0
LINE
  5
14A
100
AcDbEntity
  8
LC-003-002-----0
  6
CONTINUOUS
 62
             7
100
AcDbLine
 10
-116.62074800000011
 20
-131.9413109999999
 11
-116.62074800000011
 21
-30.0
  0
LINE
  5
149
100
AcDbEntity
  8
LC-003-002-----0
  6
CONTINUOUS
 62
             2
100
AcDbLine
 10
-133.444748
 20
-131.9413109999999
 11
-133.444748
 21
-30.0
  0
LINE
  5
148
100
AcDbEntity
  8
LC-003-002-----0
  6
CONTINUOUS
 62
             7
100
AcDbLine
 10
-135.032748
 20
-130.9413109999999
 11
-135.032748
 21
-30.0
  0
LINE
  5
147
100
AcDbEntity
  8
LC-003-002-----0
  6
CONTINUOUS
 62
             7
100
AcDbLine
 10
72.49999999999999
 20
-33.0
 11
72.49999999999999
 21
-135.00000000000011
  0
LINE
  5
146
100
AcDbEntity
  8
LC-003-002-----0
  6
CONTINUOUS
 62
             7
100
AcDbLine
 10
-72.50000000000001
 20
-135.00000000000011
 11
-71.16025400000002
 21
-140.0
  0
LINE
  5
145
100
AcDbEntity
  8
LC-003-002-----0
  6
CONTINUOUS
 62
             7
100
AcDbLine
 10
72.49999999999999
 20
-135.00000000000011
 11
71.16025499999999
 21
-140.0
  0
LINE
  5
144
100
AcDbEntity
  8
LC-003-002-----0
  6
CONTINUOUS
 62
             7
100
AcDbLine
 10
71.16025499999999
 20
-140.0
 11
-71.16025400000002
 21
-140.0
  0
LINE
  5
143
100
AcDbEntity
  8
LC-003-002-----0
  6
CONTINUOUS
 62
             7
100
AcDbLine
 10
-200.5385160000001
 20
-17.89999999999998
 11
-249.46148299999999
 21
-17.89999999999998
  0
LINE
  5
142
100
AcDbEntity
  8
LC-003-002-----0
  6
CONTINUOUS
 62
             7
100
AcDbLine
 10
-250.53851599999999
 20
-17.89999999999998
 11
-251.5
 21
-17.89999999999998
  0
LINE
  5
141
100
AcDbEntity
  8
LC-003-002-----0
  6
CONTINUOUS
 62
             7
100
AcDbLine
 10
-251.5
 20
-17.89999999999998
 11
-251.5
 21
-20.89999999999998
  0
LINE
  5
140
100
AcDbEntity
  8
LC-003-002-----0
  6
CONTINUOUS
 62
             7
100
AcDbLine
 10
-153.5
 20
-17.89999999999998
 11
-199.46148299999999
 21
-17.89999999999998
  0
LINE
  5
13F
100
AcDbEntity
  8
LC-003-002-----0
  6
CONTINUOUS
 62
             7
100
AcDbLine
 10
-152.80310299999999
 20
-20.89999999999998
 11
-251.5
 21
-20.89999999999998
  0
LINE
  5
13E
100
AcDbEntity
  8
LC-003-002-----0
  6
CONTINUOUS
 62
             7
100
AcDbLine
 10
200.53851700000001
 20
-17.89999999999998
 11
249.4614829999999
 21
-17.89999999999998
  0
LINE
  5
13D
100
AcDbEntity
  8
LC-003-002-----0
  6
CONTINUOUS
 62
             7
100
AcDbLine
 10
250.53851700000001
 20
-17.89999999999998
 11
251.5
 21
-17.89999999999998
  0
LINE
  5
13C
100
AcDbEntity
  8
LC-003-002-----0
  6
CONTINUOUS
 62
             7
100
AcDbLine
 10
251.5
 20
-17.89999999999998
 11
251.5
 21
-20.89999999999998
  0
LINE
  5
13B
100
AcDbEntity
  8
LC-003-002-----0
  6
CONTINUOUS
 62
             7
100
AcDbLine
 10
153.5
 20
-17.89999999999998
 11
199.4614829999999
 21
-17.89999999999998
  0
LINE
  5
13A
100
AcDbEntity
  8
LC-003-002-----0
  6
CONTINUOUS
 62
             7
100
AcDbLine
 10
154.30310399999999
 20
-20.89999999999998
 11
251.5
 21
-20.89999999999998
  0
LINE
  5
139
100
AcDbEntity
  8
LC-003-002-----0
  6
CONTINUOUS
 62
             7
100
AcDbLine
 10
152.80310399999999
 20
-20.89999999999998
 11
154.30310399999999
 21
-20.89999999999998
  0
LINE
  5
138
100
AcDbEntity
  8
LC-003-002-----0
  6
CONTINUOUS
 62
             7
100
AcDbLine
 10
152.56190100000001
 20
0.0
 11
-152.56190000000001
 21
0.0
  0
LINE
  5
137
100
AcDbEntity
  8
LC-003-002-----0
  6
CONTINUOUS
 62
             7
100
AcDbLine
 10
-134.032748
 20
-132.0
 11
-117.782748
 21
-132.0
  0
LINE
  5
136
100
AcDbEntity
  8
LC-003-002-----0
  6
CONTINUOUS
 62
             7
100
AcDbLine
 10
-134.532748
 20
-139.5
 11
-134.532748
 21
-132.5
  0
LINE
  5
135
100
AcDbEntity
  8
LC-003-002-----0
  6
CONTINUOUS
 62
             7
100
AcDbLine
 10
-152.56190000000001
 20
0.0
 11
-153.53223700000001
 21
-18.51511099999993
  0
LINE
  5
134
100
AcDbEntity
  8
LC-003-002-----0
  6
CONTINUOUS
 62
             7
100
AcDbLine
 10
-116.032748
 20
-140.0
 11
-125.032748
 21
-140.0
  0
LINE
  5
133
100
AcDbEntity
  8
LC-003-002-----0
  6
CONTINUOUS
 62
             7
100
AcDbLine
 10
-115.532748
 20
-132.5
 11
-115.532748
 21
-139.5
  0
LINE
  5
132
100
AcDbEntity
  8
LC-003-002-----0
  6
CONTINUOUS
 62
             7
100
AcDbLine
 10
-117.782748
 20
-132.0
 11
-116.032748
 21
-132.0
  0
LINE
  5
131
100
AcDbEntity
  8
LC-003-002-----0
  6
CONTINUOUS
 62
             7
100
AcDbLine
 10
-125.032748
 20
-140.0
 11
-134.032748
 21
-140.0
  0
LINE
  5
130
100
AcDbEntity
  8
LC-003-002-----0
  6
CONTINUOUS
 62
             7
100
AcDbLine
 10
-153.53223700000001
 20
-18.51511099999993
 11
-150.0209540000001
 21
-30.0
  0
LINE
  5
12F
100
AcDbEntity
  8
LC-003-002-----0
  6
CONTINUOUS
 62
             7
100
AcDbLine
 10
153.53223600000001
 20
-18.51511399999993
 11
150.02095399999999
 21
-30.0
  0
LINE
  5
12E
100
AcDbEntity
  8
LC-003-002-----0
  6
CONTINUOUS
 62
             7
100
AcDbLine
 10
152.56190100000001
 20
0.0
 11
153.53223600000001
 21
-18.51511399999993
  0
LINE
  5
12D
100
AcDbEntity
  8
LC-003-002-----0
  6
CONTINUOUS
 62
             7
100
AcDbLine
 10
-135.032748
 20
-130.9413109999999
 11
-134.032748
 21
-131.9413109999999
  0
LINE
  5
12C
100
AcDbEntity
  8
LC-003-002-----0
  6
CONTINUOUS
 62
             7
100
AcDbLine
 10
-115.032748
 20
-130.94131100000001
 11
-116.032748
 21
-131.9413109999999
  0
LINE
  5
12B
100
AcDbEntity
  8
LC-003-002-----0
  6
CONTINUOUS
 62
             7
100
AcDbLine
 10
-134.032748
 20
-131.9413109999999
 11
-116.032748
 21
-131.9413109999999
  0
LINE
  5
12A
100
AcDbEntity
  8
LC-003-002-----0
  6
CONTINUOUS
 62
             7
100
AcDbLine
 10
-115.032748
 20
-30.0
 11
-115.032748
 21
-130.94131100000001
  0
LINE
  5
129
100
AcDbEntity
  8
LC-003-002-----0
  6
DASHDOT
 62
             2
100
AcDbLine
 10
-125.0
 20
0.0
 11
-125.0
 21
-140.0
  0
LINE
  5
128
100
AcDbEntity
  8
LC-003-002-----0
  6
CONTINUOUS
 62
             7
100
AcDbLine
 10
-66.44999950000006
 20
30.92600000000005
 11
66.45000049999992
 21
30.92600000000005
  0
LINE
  5
127
100
AcDbEntity
  8
LC-003-002-----0
  6
CONTINUOUS
 62
             7
100
AcDbLine
 10
-66.49999950000002
 20
23.92600000000005
 11
66.50000049999999
 21
23.92600000000005
  0
LINE
  5
126
100
AcDbEntity
  8
LC-003-002-----0
  6
CONTINUOUS
 62
             7
100
AcDbLine
 10
66.50000049999999
 20
26.42600000000005
 11
99.24999949999999
 21
26.42600000000005
  0
POINT
  5
125
100
AcDbEntity
  8
LC-004-003-----0
 62
             7
100
AcDbPoint
 10
147.401037
 20
-0.10030599999993
  0
POINT
  5
124
100
AcDbEntity
  8
LC-004-003-----0
 62
             7
100
AcDbPoint
 10
71.16025499999999
 20
-140.0
  0
POINT
  5
123
100
AcDbEntity
  8
LC-004-003-----0
 62
             7
100
AcDbPoint
 10
-152.56190000000001
 20
0.0
  0
POINT
  5
122
100
AcDbEntity
  8
LC-004-003-----0
 62
             7
100
AcDbPoint
 10
-113.34225000000001
 20
-33.0
  0
POINT
  5
121
100
AcDbEntity
  8
LC-004-003-----0
 62
             7
100
AcDbPoint
 10
251.5
 20
-20.89999999999998
  0
POINT
  5
120
100
AcDbEntity
  8
LC-004-003-----0
 62
             7
100
AcDbPoint
 10
-251.5
 20
-19.39999999999998
  0
POINT
  5
11F
100
AcDbEntity
  8
LC-004-003-----0
 62
             7
100
AcDbPoint
 10
72.49999999999999
 20
-135.00000000000011
  0
POINT
  5
11E
100
AcDbEntity
  8
LC-004-003-----0
 62
             7
100
AcDbPoint
 10
-72.50000000000001
 20
-135.00000000000011
  0
POINT
  5
11D
100
AcDbEntity
  8
LC-004-003-----0
 62
             7
100
AcDbPoint
 10
153.5
 20
-17.89999999999998
  0
POINT
  5
11C
100
AcDbEntity
  8
LC-004-003-----0
 62
             7
100
AcDbPoint
 10
-153.5
 20
-17.89999999999998
  0
ENDBLK
  5
194
100
AcDbEntity
  8
0
100
AcDbBlockEnd
  0
BLOCK
  5
197
100
AcDbEntity
  8
0
100
AcDbBlockBegin
  2
*D2
 70
             1
 10
0.0
 20
0.0
 30
0.0
  3
*D2
  1

  0
LINE
  5
198
100
AcDbEntity
  8
0
  6
CONTINUOUS
 62
             4
100
AcDbLine
 10
-72.50000000000001
 20
-159.19892340505439
 11
72.49999999999999
 21
-159.19892340505439
  0
LINE
  5
199
100
AcDbEntity
  8
0
  6
CONTINUOUS
 62
             4
100
AcDbLine
 10
72.49999999999999
 20
-135.00000000000009
 11
72.49999999999999
 21
-161.19892340505439
  0
LINE
  5
19A
100
AcDbEntity
  8
0
  6
CONTINUOUS
 62
             4
100
AcDbLine
 10
-72.50000000000001
 20
-135.00000000000009
 11
-72.50000000000001
 21
-161.19892340505439
  0
SOLID
  5
19B
100
AcDbEntity
  8
0
 62
             4
100
AcDbTrace
 10
62.49999999999999
 20
-160.51544838092835
 11
62.49999999999999
 21
-157.88239842918043
 12
72.49999999999999
 22
-159.19892340505439
 13
72.49999999999999
 23
-159.19892340505439
  0
SOLID
  5
19C
100
AcDbEntity
  8
0
 62
             4
100
AcDbTrace
 10
-62.50000000000001
 20
-157.88239842918043
 11
-62.50000000000001
 21
-160.51544838092835
 12
-72.50000000000001
 22
-159.19892340505439
 13
-72.50000000000001
 23
-159.19892340505439
  0
MTEXT
  5
19E
100
AcDbEntity
  8
0
 62
             1
100
AcDbMText
 10
-39.44689971955211
 20
-157.19894328241531
 30
0.0
 40
10.0
 41
0.0
 71
             7
 72
             1
  1
\C1;Ø\C1;145
  7
CONVERTER_1
 11
0.99999999999706
 21
0.00000242406841
 31
0.0
  0
ENDBLK
  5
19F
100
AcDbEntity
  8
0
100
AcDbBlockEnd
  0
BLOCK
  5
1A3
100
AcDbEntity
  8
0
100
AcDbBlockBegin
  2
*D3
 70
             1
 10
0.0
 20
0.0
 30
0.0
  3
*D3
  1

  0
LINE
  5
1A4
100
AcDbEntity
  8
0
  6
CONTINUOUS
 62
             4
100
AcDbLine
 10
-251.5
 20
89.66429451205863
 11
251.5
 21
89.66429451205863
  0
LINE
  5
1A5
100
AcDbEntity
  8
0
  6
CONTINUOUS
 62
             4
100
AcDbLine
 10
251.5
 20
-17.89999999999996
 11
251.5
 21
91.66429451205863
  0
LINE
  5
1A6
100
AcDbEntity
  8
0
  6
CONTINUOUS
 62
             4
100
AcDbLine
 10
-251.5
 20
-17.89999999999996
 11
-251.5
 21
91.66429451205863
  0
SOLID
  5
1A7
100
AcDbEntity
  8
0
 62
             4
100
AcDbTrace
 10
241.5
 20
88.34776953618467
 11
241.5
 21
90.98081948793259
 12
251.5
 22
89.66429451205863
 13
251.5
 23
89.66429451205863
  0
SOLID
  5
1A8
100
AcDbEntity
  8
0
 62
             4
100
AcDbTrace
 10
-241.5
 20
90.98081948793259
 11
-241.5
 21
88.34776953618467
 12
-251.5
 22
89.66429451205863
 13
-251.5
 23
89.66429451205863
  0
MTEXT
  5
1A9
100
AcDbEntity
  8
0
 62
             1
100
AcDbMText
 10
54.694113385489
 20
91.66429451205863
 30
0.0
 40
10.0
 41
0.0
 71
             7
 72
             1
  1
\C1;503\C1;x503
  7
CONVERTER_1
 11
0.99999999999706
 21
0.00000242406841
 31
0.0
  0
ENDBLK
  5
1AA
100
AcDbEntity
  8
0
100
AcDbBlockEnd
  0
BLOCK
  5
1AE
100
AcDbEntity
  8
0
100
AcDbBlockBegin
  2
*D4
 70
             1
 10
0.0
 20
0.0
 30
0.0
  3
*D4
  1

  0
LINE
  5
1AF
100
AcDbEntity
  8
0
  6
CONTINUOUS
 62
             4
100
AcDbLine
 10
-153.5
 20
68.01509559139265
 11
153.5
 21
68.01509559139265
  0
LINE
  5
1B0
100
AcDbEntity
  8
0
  6
CONTINUOUS
 62
             4
100
AcDbLine
 10
153.5
 20
-9.26423329254339
 11
153.5
 21
70.01509559139265
  0
LINE
  5
1B1
100
AcDbEntity
  8
0
  6
CONTINUOUS
 62
             4
100
AcDbLine
 10
-153.5
 20
-9.26423329254339
 11
-153.5
 21
70.01509559139265
  0
SOLID
  5
1B2
100
AcDbEntity
  8
0
 62
             4
100
AcDbTrace
 10
143.5
 20
66.69857061551869
 11
143.5
 21
69.33162056726661
 12
153.5
 22
68.01509559139265
 13
153.5
 23
68.01509559139265
  0
SOLID
  5
1B3
100
AcDbEntity
  8
0
 62
             4
100
AcDbTrace
 10
-143.5
 20
69.33162056726661
 11
-143.5
 21
66.69857061551869
 12
-153.5
 22
68.01509559139265
 13
-153.5
 23
68.01509559139265
  0
MTEXT
  5
1B4
100
AcDbEntity
  8
0
 62
             1
100
AcDbMText
 10
-51.64165778366611
 20
70.01509559139265
 30
0.0
 40
10.0
 41
0.0
 71
             7
 72
             1
  1
\C1;307\C1;x307
  7
CONVERTER_1
 11
0.99999999999706
 21
0.00000242406841
 31
0.0
  0
ENDBLK
  5
1B5
100
AcDbEntity
  8
0
100
AcDbBlockEnd
  0
BLOCK
  5
1B9
100
AcDbEntity
  8
0
100
AcDbBlockBegin
  2
*D5
 70
             1
 10
0.0
 20
0.0
 30
0.0
  3
*D5
  1

  0
LINE
  5
1BA
100
AcDbEntity
  8
0
  6
CONTINUOUS
 62
             4
100
AcDbLine
 10
-64.25000000000001
 20
44.18691087687967
 11
64.24999999999999
 21
44.18691087687967
  0
LINE
  5
1BB
100
AcDbEntity
  8
0
  6
CONTINUOUS
 62
             4
100
AcDbLine
 10
64.24999999999999
 20
33.92600000000005
 11
64.24999999999999
 21
46.18691087687967
  0
LINE
  5
1BC
100
AcDbEntity
  8
0
  6
CONTINUOUS
 62
             4
100
AcDbLine
 10
-64.25000000000001
 20
33.92600000000005
 11
-64.25000000000001
 21
46.18691087687967
  0
SOLID
  5
1BD
100
AcDbEntity
  8
0
 62
             4
100
AcDbTrace
 10
54.24999999999999
 20
42.87038590100572
 11
54.24999999999999
 21
45.50343585275363
 12
64.24999999999999
 22
44.18691087687967
 13
64.24999999999999
 23
44.18691087687967
  0
SOLID
  5
1BE
100
AcDbEntity
  8
0
 62
             4
100
AcDbTrace
 10
-54.25000000000001
 20
45.50343585275363
 11
-54.25000000000001
 21
42.87038590100571
 12
-64.25000000000001
 22
44.18691087687967
 13
-64.25000000000001
 23
44.18691087687967
  0
MTEXT
  5
1BF
100
AcDbEntity
  8
0
 62
             1
100
AcDbMText
 10
-18.51189910761201
 20
47.18689099951875
 30
0.0
 40
10.0
 41
0.0
 71
             7
 72
             1
  1
\C1;Ø\C1;128,5
  7
CONVERTER_1
 11
0.99999999999706
 21
0.00000242406841
 31
0.0
  0
ENDBLK
  5
1C0
100
AcDbEntity
  8
0
100
AcDbBlockEnd
  0
BLOCK
  5
1C4
100
AcDbEntity
  8
0
100
AcDbBlockBegin
  2
*D6
 70
             1
 10
0.0
 20
0.0
 30
0.0
  3
*D6
  1

  0
LINE
  5
1C5
100
AcDbEntity
  8
0
  6
CONTINUOUS
 62
             4
100
AcDbLine
 10
274.80208077697603
 20
-33.0
 11
274.80208077697603
 21
0.0
  0
LINE
  5
1C6
100
AcDbEntity
  8
0
  6
CONTINUOUS
 62
             4
100
AcDbLine
 10
152.56190100000003
 20
0.0
 11
276.80208077697603
 21
0.0
  0
LINE
  5
1C7
100
AcDbEntity
  8
0
  6
CONTINUOUS
 62
             4
100
AcDbLine
 10
114.99999900000003
 20
-33.0
 11
276.80208077697603
 21
-33.0
  0
SOLID
  5
1C8
100
AcDbEntity
  8
0
 62
             4
100
AcDbTrace
 10
276.11860575284999
 20
-10.0
 11
273.48555580110207
 21
-10.0
 12
274.80208077697603
 22
0.0
 13
274.80208077697603
 23
0.0
  0
SOLID
  5
1C9
100
AcDbEntity
  8
0
 62
             4
100
AcDbTrace
 10
273.48555580110207
 20
-23.0
 11
276.11860575284999
 21
-23.0
 12
274.80208077697603
 22
-33.0
 13
274.80208077697603
 23
-33.0
  0
MTEXT
  5
1CA
100
AcDbEntity
  8
0
 62
             1
100
AcDbMText
 10
272.80208077697603
 20
-24.17562924907633
 30
0.0
 40
10.0
 41
0.0
 71
             7
 72
             1
  1
33
  7
CONVERTER_1
 11
0.0
 21
1.0
 31
0.0
  0
ENDBLK
  5
1CB
100
AcDbEntity
  8
0
100
AcDbBlockEnd
  0
BLOCK
  5
1CF
100
AcDbEntity
  8
0
100
AcDbBlockBegin
  2
*D7
 70
             1
 10
0.0
 20
0.0
 30
0.0
  3
*D7
  1

  0
LINE
  5
1D0
100
AcDbEntity
  8
0
  6
CONTINUOUS
 62
             4
100
AcDbLine
 10
294.40431511874101
 20
-140.0
 11
294.40431511874101
 21
0.0
  0
LINE
  5
1D1
100
AcDbEntity
  8
0
  6
CONTINUOUS
 62
             4
100
AcDbLine
 10
152.56190100000001
 20
0.0
 11
296.40431511874101
 21
0.0
  0
LINE
  5
1D2
100
AcDbEntity
  8
0
  6
CONTINUOUS
 62
             4
100
AcDbLine
 10
71.16025500000001
 20
-140.0
 11
296.40431511874101
 21
-140.0
  0
SOLID
  5
1D3
100
AcDbEntity
  8
0
 62
             4
100
AcDbTrace
 10
295.72084009461497
 20
-10.0
 11
293.08779014286705
 21
-10.0
 12
294.40431511874101
 22
0.0
 13
294.40431511874101
 23
0.0
  0
SOLID
  5
1D4
100
AcDbEntity
  8
0
 62
             4
100
AcDbTrace
 10
293.08779014286705
 20
-130.0
 11
295.72084009461497
 21
-130.0
 12
294.40431511874101
 22
-140.0
 13
294.40431511874101
 23
-140.0
  0
MTEXT
  5
1D5
100
AcDbEntity
  8
0
 62
             1
100
AcDbMText
 10
292.40431511874101
 20
-78.01846587586419
 30
0.0
 40
10.0
 41
0.0
 71
             7
 72
             1
  1
140
  7
CONVERTER_1
 11
0.0
 21
1.0
 31
0.0
  0
ENDBLK
  5
1D6
100
AcDbEntity
  8
0
100
AcDbBlockEnd
  0
ENDSEC
  0
SECTION
  2
ENTITIES
  0
DIMENSION
  5
1D8
100
AcDbEntity
  8
1
100
AcDbDimension
  2
*D7
 10
294.40431511874101
 20
0.0
 11
287.40431511874101
 21
-67.51846587586419
 31
0.0
 53
89.99999999999999
  1
<>
  3
ME10_DIM_5
100
AcDbAlignedDimension
 13
71.16025499999999
 23
-140.0
 14
152.56190100000001
 24
0.0
 50
89.99999999999999
100
AcDbRotatedDimension
  0
DIMENSION
  5
1CD
100
AcDbEntity
  8
1
100
AcDbDimension
  2
*D6
 10
274.80208077697603
 20
0.0
 11
267.80208077697603
 21
-16.67562924907633
 31
0.0
 53
89.99999999999999
  1
<>
  3
ME10_DIM_4
100
AcDbAlignedDimension
 13
114.999999
 23
-33.0
 14
152.56190100000001
 24
0.0
 50
89.99999999999999
100
AcDbRotatedDimension
  0
DIMENSION
  5
1C2
100
AcDbEntity
  8
1
100
AcDbDimension
  2
*D5
 10
64.24999999999999
 20
44.18691087687967
 11
0.43810089236389
 21
51.68691087687967
 31
0.0
 53
180.0
  1
<>
  3
ME10_DIM_3
100
AcDbAlignedDimension
 13
-64.25000000000001
 23
33.92600000000005
 14
64.24999999999999
 24
33.92600000000005
 50
180.0
100
AcDbRotatedDimension
  0
DIMENSION
  5
1B7
100
AcDbEntity
  8
1
100
AcDbDimension
  2
*D4
 10
153.5
 20
68.01509559139265
 11
-20.6416577836661
 21
75.01509559139265
 31
0.0
 53
180.0
  1
<>
  3
ME10_DIM_2
100
AcDbAlignedDimension
 13
-153.5
 23
-9.26423329254339
 14
153.5
 24
-9.26423329254339
 50
180.0
100
AcDbRotatedDimension
  0
DIMENSION
  5
1AC
100
AcDbEntity
  8
1
100
AcDbDimension
  2
*D3
 10
251.5
 20
89.66429451205863
 11
85.694113385489
 21
96.66429451205863
 31
0.0
 53
180.0
  1
<>
  3
ME10_DIM_1
100
AcDbAlignedDimension
 13
-251.5
 23
-17.89999999999998
 14
251.5
 24
-17.89999999999998
 50
180.0
100
AcDbRotatedDimension
  0
DIMENSION
  5
1A1
100
AcDbEntity
  8
1
100
AcDbDimension
  2
*D2
 10
72.49999999999999
 20
-159.19892340505439
 11
-26.74689971957621
 21
-152.19892340505439
 31
0.0
 53
180.0
  1
<>
  3
ME10_DIM_0
100
AcDbAlignedDimension
 13
-72.50000000000001
 23
-135.00000000000011
 14
72.49999999999999
 24
-135.00000000000011
 50
180.0
100
AcDbRotatedDimension
  0
INSERT
  5
30
100
AcDbEntity
  8
1
100
AcDbBlockReference
  2
HL_360_AUFSTOCKELEMENTN__1
 10
-254.42720858711101
 20
201.99839501372199
  0
INSERT
  5
31
100
AcDbEntity
  8
0
100
AcDbBlockReference
  2
HL_360_AUFSTOCKELEMENTN__2
 10
-631.95108663994495
 20
-12.9944767053146
  0
ENDSEC
  0
SECTION
  2
OBJECTS
  0
DICTIONARY
  5
19
100
AcDbDictionary
  3
ACAD_GROUP
350
1A
  3
ACAD_MLINESTYLE
350
1B
  0
DICTIONARY
  5
1A
102
{ACAD_REACTORS
330
19
102
}
100
AcDbDictionary
  0
DICTIONARY
  5
1B
102
{ACAD_REACTORS
330
19
102
}
100
AcDbDictionary
  3
STANDARD
350
1C
  0
MLINESTYLE
  5
1C
102
{ACAD_REACTORS
330
1B
102
}
100
AcDbMlineStyle
  2
STANDARD
 70
             0
  3

 62
             0
 51
90.0
 52
90.0
 71
             2
 49
0.5
 62
           256
  6
BYLAYER
 49
-0.5
 62
           256
  6
BYLAYER
  0
ENDSEC
  0
EOF
