  0
SECTION
  2
HEADER
  9
$ACADVER
  1
AC1015
  9
$ACADMAINTVER
 70
     6
  9
$DWGCODEPAGE
  3
ANSI_1252
  9
$INSBASE
 10
0.0
 20
0.0
 30
0.0
  9
$EXTMIN
 10
-102.3
 20
-246.3052864401071
 30
0.0
  9
$EXTMAX
 10
128.502769216881
 20
431.811529660617
 30
0.0
  9
$LIMMIN
 10
0.0
 20
0.0
  9
$LIMMAX
 10
12.0
 20
9.0
  9
$ORTHOMODE
 70
     0
  9
$REGENMODE
 70
     1
  9
$FILLMODE
 70
     1
  9
$QTEXTMODE
 70
     0
  9
$MIRRTEXT
 70
     1
  9
$LTSCALE
 40
1.0
  9
$ATTMODE
 70
     1
  9
$TEXTSIZE
 40
0.2
  9
$TRACEWID
 40
0.05
  9
$TEXTSTYLE
  7
Standard
  9
$CLAYER
  8
0
  9
$CELTYPE
  6
ByLayer
  9
$CECOLOR
 62
   256
  9
$CELTSCALE
 40
1.0
  9
$DISPSILH
 70
     0
  9
$DIMSCALE
 40
1.0
  9
$DIMASZ
 40
0.18
  9
$DIMEXO
 40
0.0625
  9
$DIMDLI
 40
0.38
  9
$DIMRND
 40
0.0
  9
$DIMDLE
 40
0.0
  9
$DIMEXE
 40
0.18
  9
$DIMTP
 40
0.0
  9
$DIMTM
 40
0.0
  9
$DIMTXT
 40
0.18
  9
$DIMCEN
 40
0.09
  9
$DIMTSZ
 40
0.0
  9
$DIMTOL
 70
     0
  9
$DIMLIM
 70
     0
  9
$DIMTIH
 70
     1
  9
$DIMTOH
 70
     1
  9
$DIMSE1
 70
     0
  9
$DIMSE2
 70
     0
  9
$DIMTAD
 70
     0
  9
$DIMZIN
 70
     0
  9
$DIMBLK
  1

  9
$DIMASO
 70
     1
  9
$DIMSHO
 70
     1
  9
$DIMPOST
  1

  9
$DIMAPOST
  1

  9
$DIMALT
 70
     0
  9
$DIMALTD
 70
     2
  9
$DIMALTF
 40
25.4
  9
$DIMLFAC
 40
1.0
  9
$DIMTOFL
 70
     0
  9
$DIMTVP
 40
0.0
  9
$DIMTIX
 70
     0
  9
$DIMSOXD
 70
     0
  9
$DIMSAH
 70
     0
  9
$DIMBLK1
  1

  9
$DIMBLK2
  1

  9
$DIMSTYLE
  2
Standard
  9
$DIMCLRD
 70
     0
  9
$DIMCLRE
 70
     0
  9
$DIMCLRT
 70
     0
  9
$DIMTFAC
 40
1.0
  9
$DIMGAP
 40
0.09
  9
$DIMJUST
 70
     0
  9
$DIMSD1
 70
     0
  9
$DIMSD2
 70
     0
  9
$DIMTOLJ
 70
     1
  9
$DIMTZIN
 70
     0
  9
$DIMALTZ
 70
     0
  9
$DIMALTTZ
 70
     0
  9
$DIMUPT
 70
     0
  9
$DIMDEC
 70
     4
  9
$DIMTDEC
 70
     4
  9
$DIMALTU
 70
     2
  9
$DIMALTTD
 70
     2
  9
$DIMTXSTY
  7
Standard
  9
$DIMAUNIT
 70
     0
  9
$DIMADEC
 70
     0
  9
$DIMALTRND
 40
0.0
  9
$DIMAZIN
 70
     0
  9
$DIMDSEP
 70
    46
  9
$DIMATFIT
 70
     3
  9
$DIMFRAC
 70
     0
  9
$DIMLDRBLK
  1

  9
$DIMLUNIT
 70
     2
  9
$DIMLWD
 70
    -2
  9
$DIMLWE
 70
    -2
  9
$DIMTMOVE
 70
     0
  9
$LUNITS
 70
     2
  9
$LUPREC
 70
     4
  9
$SKETCHINC
 40
0.1
  9
$FILLETRAD
 40
0.5
  9
$AUNITS
 70
     0
  9
$AUPREC
 70
     0
  9
$MENU
  1
.
  9
$ELEVATION
 40
0.0
  9
$PELEVATION
 40
0.0
  9
$THICKNESS
 40
0.0
  9
$LIMCHECK
 70
     0
  9
$CHAMFERA
 40
0.5
  9
$CHAMFERB
 40
0.5
  9
$CHAMFERC
 40
1.0
  9
$CHAMFERD
 40
0.0
  9
$SKPOLY
 70
     0
  9
$TDCREATE
 40
2454704.374468021
  9
$TDUCREATE
 40
2454704.291134688
  9
$TDUPDATE
 40
2454704.374468032
  9
$TDUUPDATE
 40
2454704.291134699
  9
$TDINDWG
 40
0.0000000116
  9
$TDUSRTIMER
 40
0.0000000116
  9
$USRTIMER
 70
     1
  9
$ANGBASE
 50
0.0
  9
$ANGDIR
 70
     0
  9
$PDMODE
 70
     0
  9
$PDSIZE
 40
0.0
  9
$PLINEWID
 40
0.0
  9
$SPLFRAME
 70
     0
  9
$SPLINETYPE
 70
     6
  9
$SPLINESEGS
 70
     8
  9
$HANDSEED
  5
F7
  9
$SURFTAB1
 70
     6
  9
$SURFTAB2
 70
     6
  9
$SURFTYPE
 70
     6
  9
$SURFU
 70
     6
  9
$SURFV
 70
     6
  9
$UCSBASE
  2

  9
$UCSNAME
  2

  9
$UCSORG
 10
0.0
 20
0.0
 30
0.0
  9
$UCSXDIR
 10
1.0
 20
0.0
 30
0.0
  9
$UCSYDIR
 10
0.0
 20
1.0
 30
0.0
  9
$UCSORTHOREF
  2

  9
$UCSORTHOVIEW
 70
     0
  9
$UCSORGTOP
 10
0.0
 20
0.0
 30
0.0
  9
$UCSORGBOTTOM
 10
0.0
 20
0.0
 30
0.0
  9
$UCSORGLEFT
 10
0.0
 20
0.0
 30
0.0
  9
$UCSORGRIGHT
 10
0.0
 20
0.0
 30
0.0
  9
$UCSORGFRONT
 10
0.0
 20
0.0
 30
0.0
  9
$UCSORGBACK
 10
0.0
 20
0.0
 30
0.0
  9
$PUCSBASE
  2

  9
$PUCSNAME
  2

  9
$PUCSORG
 10
0.0
 20
0.0
 30
0.0
  9
$PUCSXDIR
 10
1.0
 20
0.0
 30
0.0
  9
$PUCSYDIR
 10
0.0
 20
1.0
 30
0.0
  9
$PUCSORTHOREF
  2

  9
$PUCSORTHOVIEW
 70
     0
  9
$PUCSORGTOP
 10
0.0
 20
0.0
 30
0.0
  9
$PUCSORGBOTTOM
 10
0.0
 20
0.0
 30
0.0
  9
$PUCSORGLEFT
 10
0.0
 20
0.0
 30
0.0
  9
$PUCSORGRIGHT
 10
0.0
 20
0.0
 30
0.0
  9
$PUCSORGFRONT
 10
0.0
 20
0.0
 30
0.0
  9
$PUCSORGBACK
 10
0.0
 20
0.0
 30
0.0
  9
$USERI1
 70
     0
  9
$USERI2
 70
     0
  9
$USERI3
 70
     0
  9
$USERI4
 70
     0
  9
$USERI5
 70
     0
  9
$USERR1
 40
15.5
  9
$USERR2
 40
0.0
  9
$USERR3
 40
0.0
  9
$USERR4
 40
0.0
  9
$USERR5
 40
0.0
  9
$WORLDVIEW
 70
     1
  9
$SHADEDGE
 70
     3
  9
$SHADEDIF
 70
    70
  9
$TILEMODE
 70
     1
  9
$MAXACTVP
 70
    64
  9
$PINSBASE
 10
0.0
 20
0.0
 30
0.0
  9
$PLIMCHECK
 70
     0
  9
$PEXTMIN
 10
1.00000000000000E+20
 20
1.00000000000000E+20
 30
1.00000000000000E+20
  9
$PEXTMAX
 10
-1.00000000000000E+20
 20
-1.00000000000000E+20
 30
-1.00000000000000E+20
  9
$PLIMMIN
 10
0.0
 20
0.0
  9
$PLIMMAX
 10
12.0
 20
9.0
  9
$UNITMODE
 70
     0
  9
$VISRETAIN
 70
     1
  9
$PLINEGEN
 70
     0
  9
$PSLTSCALE
 70
     1
  9
$TREEDEPTH
 70
  3020
  9
$CMLSTYLE
  2
Standard
  9
$CMLJUST
 70
     0
  9
$CMLSCALE
 40
1.0
  9
$PROXYGRAPHICS
 70
     1
  9
$MEASUREMENT
 70
     1
  9
$CELWEIGHT
370
    -1
  9
$ENDCAPS
280
     0
  9
$JOINSTYLE
280
     0
  9
$LWDISPLAY
290
     0
  9
$INSUNITS
 70
     1
  9
$HYPERLINKBASE
  1

  9
$STYLESHEET
  1

  9
$XEDIT
290
     1
  9
$CEPSNTYPE
380
     0
  9
$PSTYLEMODE
290
     1
  9
$FINGERPRINTGUID
  2
{ED2D9B97-714F-446C-940C-364F6F6B2AB6}
  9
$VERSIONGUID
  2
{FAEB1C32-E019-11D5-929B-00C0DF256EC4}
  9
$EXTNAMES
290
     1
  9
$PSVPSCALE
 40
0.0
  9
$OLESTARTUP
290
     0
  0
ENDSEC
  0
SECTION
  2
CLASSES
  0
CLASS
  1
ACDBDICTIONARYWDFLT
  2
AcDbDictionaryWithDefault
  3
ObjectDBX Classes
 90
        0
280
     0
281
     0
  0
CLASS
  1
VISUALSTYLE
  2
AcDbVisualStyle
  3
ObjectDBX Classes
 90
     4095
280
     0
281
     0
  0
CLASS
  1

  2
exOdDbSpline
  3

 90
        0
280
     0
281
     1
  0
CLASS
  1

  2
exOdDbCircle
  3

 90
        0
280
     0
281
     1
  0
CLASS
  1
ACDBPLACEHOLDER
  2
AcDbPlaceHolder
  3
ObjectDBX Classes
 90
        0
280
     0
281
     0
  0
CLASS
  1
LAYOUT
  2
AcDbLayout
  3
ObjectDBX Classes
 90
        0
280
     0
281
     0
  0
ENDSEC
  0
SECTION
  2
TABLES
  0
TABLE
  2
VPORT
  5
8
330
0
100
AcDbSymbolTable
 70
     1
  0
VPORT
  5
29
330
8
100
AcDbSymbolTableRecord
100
AcDbViewportTableRecord
  2
*Active
 70
     0
 10
0.0
 20
0.0
 11
1.0
 21
1.0
 12
13.1013846084405
 22
92.75312161025495
 13
0.0
 23
0.0
 14
0.5
 24
0.5
 15
0.5
 25
0.5
 16
0.0
 26
0.0
 36
1.0
 17
0.0
 27
0.0
 37
0.0
 40
745.9284977107966
 41
1.60267857142857
 42
50.0
 43
0.0
 44
0.0
 50
0.0
 51
0.0
 71
     0
 72
   100
 73
     1
 74
     3
 75
     0
 76
     0
 77
     0
 78
     0
281
     0
 65
     1
110
0.0
120
0.0
130
0.0
111
1.0
121
0.0
131
0.0
112
0.0
122
1.0
132
0.0
 79
     0
146
0.0
  0
ENDTAB
  0
TABLE
  2
LTYPE
  5
5
330
0
100
AcDbSymbolTable
 70
     8
  0
LTYPE
  5
14
330
5
100
AcDbSymbolTableRecord
100
AcDbLinetypeTableRecord
  2
ByBlock
 70
     0
  3

 72
    65
 73
     0
 40
0.0
  0
LTYPE
  5
15
330
5
100
AcDbSymbolTableRecord
100
AcDbLinetypeTableRecord
  2
ByLayer
 70
     0
  3

 72
    65
 73
     0
 40
0.0
  0
LTYPE
  5
16
330
5
100
AcDbSymbolTableRecord
100
AcDbLinetypeTableRecord
  2
Continuous
 70
     0
  3
Solid line
 72
    65
 73
     0
 40
0.0
  0
LTYPE
  5
3B
330
5
100
AcDbSymbolTableRecord
100
AcDbLinetypeTableRecord
  2
DASHED
 70
     0
  3
Dashed
 72
    65
 73
     2
 40
15.0
 49
7.0
 74
     0
 49
-8.0
 74
     0
  0
LTYPE
  5
3C
330
5
100
AcDbSymbolTableRecord
100
AcDbLinetypeTableRecord
  2
DOTTED
 70
     0
  3
Dotted
 72
    65
 73
     2
 40
1.0
 49
0.0
 74
     0
 49
-1.0
 74
     0
  0
LTYPE
  5
3D
330
5
100
AcDbSymbolTableRecord
100
AcDbLinetypeTableRecord
  2
DOT_CENTER
 70
     0
  3
Dot_Center
 72
    65
 73
     4
 40
14.0
 49
12.0
 74
     0
 49
-1.0
 74
     0
 49
0.0
 74
     0
 49
-1.0
 74
     0
  0
LTYPE
  5
3E
330
5
100
AcDbSymbolTableRecord
100
AcDbLinetypeTableRecord
  2
LONG_DASHED
 70
     0
  3
Long_Dashed
 72
    65
 73
     2
 40
15.0
 49
10.0
 74
     0
 49
-5.0
 74
     0
  0
LTYPE
  5
3F
330
5
100
AcDbSymbolTableRecord
100
AcDbLinetypeTableRecord
  2
DASH_CENTER
 70
     0
  3
Dash_Center
 72
    65
 73
     4
 40
14.0
 49
11.0
 74
     0
 49
-1.0
 74
     0
 49
1.0
 74
     0
 49
-1.0
 74
     0
  0
LTYPE
  5
40
330
5
100
AcDbSymbolTableRecord
100
AcDbLinetypeTableRecord
  2
PHANTOM
 70
     0
  3
Phantom
 72
    65
 73
     6
 40
13.0
 49
10.0
 74
     0
 49
-1.0
 74
     0
 49
0.0
 74
     0
 49
-1.0
 74
     0
 49
0.0
 74
     0
 49
-1.0
 74
     0
  0
LTYPE
  5
41
330
5
100
AcDbSymbolTableRecord
100
AcDbLinetypeTableRecord
  2
CENTER_DASH_DASH
 70
     0
  3
Center_Dash_Dash
 72
    65
 73
     6
 40
14.0
 49
9.0
 74
     0
 49
-1.0
 74
     0
 49
1.0
 74
     0
 49
-1.0
 74
     0
 49
1.0
 74
     0
 49
-1.0
 74
     0
  0
ENDTAB
  0
TABLE
  2
LAYER
  5
2
330
0
100
AcDbSymbolTable
 70
     2
  0
LAYER
  5
10
330
2
100
AcDbSymbolTableRecord
100
AcDbLayerTableRecord
  2
0
 70
     0
 62
     7
  6
Continuous
370
    -3
390
F
  0
LAYER
  5
42
330
2
100
AcDbSymbolTableRecord
100
AcDbLayerTableRecord
  2
1
 70
     0
 62
     7
  6
Continuous
370
    -3
390
F
  0
ENDTAB
  0
TABLE
  2
STYLE
  5
3
330
0
100
AcDbSymbolTable
 70
     2
  0
STYLE
  5
11
330
3
100
AcDbSymbolTableRecord
100
AcDbTextStyleTableRecord
  2
Standard
 70
     0
 40
0.0
 41
1.0
 50
0.0
 71
     0
 42
0.2
  3
txt
  4

  0
STYLE
  5
C4
330
3
100
AcDbSymbolTableRecord
100
AcDbTextStyleTableRecord
  2
CONVERTER_11
 70
     0
 40
0.0
 41
0.9
 50
0.0
 71
     0
 42
0.2
  3
txt.shx
  4

  0
ENDTAB
  0
TABLE
  2
VIEW
  5
6
330
0
100
AcDbSymbolTable
 70
     0
  0
ENDTAB
  0
TABLE
  2
UCS
  5
7
330
0
100
AcDbSymbolTable
 70
     0
  0
ENDTAB
  0
TABLE
  2
APPID
  5
9
330
0
100
AcDbSymbolTable
 70
     1
  0
APPID
  5
12
330
9
100
AcDbSymbolTableRecord
100
AcDbRegAppTableRecord
  2
ACAD
 70
     0
  0
ENDTAB
  0
TABLE
  2
DIMSTYLE
  5
A
330
0
100
AcDbSymbolTable
 70
     6
100
AcDbDimStyleTable
  0
DIMSTYLE
105
27
330
A
100
AcDbSymbolTableRecord
100
AcDbDimStyleTableRecord
  2
Standard
 70
     0
340
11
  0
DIMSTYLE
105
C8
102
{ACAD_REACTORS
330
C9
102
}
330
A
100
AcDbSymbolTableRecord
100
AcDbDimStyleTableRecord
  2
ME10_DIM_10
 70
     0
  3
DN<>
 41
10.0
 42
0.0
 44
2.0
 73
     0
 74
     0
 77
     1
 78
     8
140
10.0
147
2.0
172
     1
173
     1
176
     4
177
     4
178
     1
271
     2
340
C4
  0
DIMSTYLE
105
D3
102
{ACAD_REACTORS
330
D4
102
}
330
A
100
AcDbSymbolTableRecord
100
AcDbDimStyleTableRecord
  2
ME10_DIM_11
 70
     0
  3
DN<>
 41
10.0
 42
0.0
 44
2.0
 73
     0
 74
     0
 77
     1
 78
     8
140
10.0
147
2.0
172
     1
173
     1
176
     4
177
     4
178
     1
271
     2
340
C4
  0
DIMSTYLE
105
DE
102
{ACAD_REACTORS
330
DF
102
}
330
A
100
AcDbSymbolTableRecord
100
AcDbDimStyleTableRecord
  2
ME10_DIM_12
 70
     0
 41
10.0
 42
0.0
 44
2.0
 73
     0
 74
     0
 77
     1
 78
     8
140
10.0
147
2.0
172
     1
173
     1
176
     4
177
     4
178
     1
271
     2
340
C4
  0
DIMSTYLE
105
E9
102
{ACAD_REACTORS
330
EA
102
}
330
A
100
AcDbSymbolTableRecord
100
AcDbDimStyleTableRecord
  2
ME10_DIM_13
 70
     0
 41
10.0
 42
0.0
 44
2.0
 73
     0
 74
     0
 77
     1
 78
     8
140
10.0
147
2.0
172
     1
173
     1
176
     4
177
     4
178
     1
271
     2
340
C4
  0
DIMSTYLE
105
F4
102
{ACAD_REACTORS
330
F5
102
}
330
A
100
AcDbSymbolTableRecord
100
AcDbDimStyleTableRecord
  2
ME10_DIM_14
 70
     0
 41
10.0
 42
0.0
 44
2.0
 73
     0
 74
     0
 77
     1
 78
     8
140
10.0
147
2.0
172
     1
173
     1
176
     4
177
     4
178
     1
271
     2
340
C4
  0
ENDTAB
  0
TABLE
  2
BLOCK_RECORD
  5
1
330
0
100
AcDbSymbolTable
 70
    14
  0
BLOCK_RECORD
  5
1F
330
1
100
AcDbSymbolTableRecord
100
AcDbBlockTableRecord
  2
*Model_Space
340
22
  0
BLOCK_RECORD
  5
1B
330
1
100
AcDbSymbolTableRecord
100
AcDbBlockTableRecord
  2
*Paper_Space
340
1E
  0
BLOCK_RECORD
  5
23
330
1
100
AcDbSymbolTableRecord
100
AcDbBlockTableRecord
  2
*Paper_Space0
340
26
  0
BLOCK_RECORD
  5
43
330
1
100
AcDbSymbolTableRecord
100
AcDbBlockTableRecord
  2
EinsatzHL606Serie
340
0
102
{BLKREFS
331
4A
102
}
  0
BLOCK_RECORD
  5
46
330
1
100
AcDbSymbolTableRecord
100
AcDbBlockTableRecord
  2
HL603Körper
340
0
102
{BLKREFS
331
4B
102
}
  0
BLOCK_RECORD
  5
49
330
1
100
AcDbSymbolTableRecord
100
AcDbBlockTableRecord
  2
BgrKlappeneinsatz0606_3E__1
340
0
102
{BLKREFS
331
4F
102
}
  0
BLOCK_RECORD
  5
4E
330
1
100
AcDbSymbolTableRecord
100
AcDbBlockTableRecord
  2
Drfsicht1
340
0
102
{BLKREFS
331
53
102
}
  0
BLOCK_RECORD
  5
52
330
1
100
AcDbSymbolTableRecord
100
AcDbBlockTableRecord
  2
1
340
0
102
{BLKREFS
331
57
102
}
  0
BLOCK_RECORD
  5
56
330
1
100
AcDbSymbolTableRecord
100
AcDbBlockTableRecord
  2
BgrKlappeneinsatz0606_3E__2
340
0
102
{BLKREFS
331
60
102
}
  0
BLOCK_RECORD
  5
5A
330
1
100
AcDbSymbolTableRecord
100
AcDbBlockTableRecord
  2
HL_606_1_Körper__3
340
0
102
{BLKREFS
331
61
102
}
  0
BLOCK_RECORD
  5
5D
330
1
100
AcDbSymbolTableRecord
100
AcDbBlockTableRecord
  2
HL_606_1_Körper__4
340
0
102
{BLKREFS
331
62
102
}
  0
BLOCK_RECORD
  5
BE
330
1
100
AcDbSymbolTableRecord
100
AcDbBlockTableRecord
  2
*D9
340
0
  0
BLOCK_RECORD
  5
CA
330
1
100
AcDbSymbolTableRecord
100
AcDbBlockTableRecord
  2
*D10
340
0
  0
BLOCK_RECORD
  5
D5
330
1
100
AcDbSymbolTableRecord
100
AcDbBlockTableRecord
  2
*D11
340
0
  0
BLOCK_RECORD
  5
E0
330
1
100
AcDbSymbolTableRecord
100
AcDbBlockTableRecord
  2
*D12
340
0
  0
BLOCK_RECORD
  5
EB
330
1
100
AcDbSymbolTableRecord
100
AcDbBlockTableRecord
  2
*D13
340
0
  0
ENDTAB
  0
ENDSEC
  0
SECTION
  2
BLOCKS
  0
BLOCK
  5
20
330
1F
100
AcDbEntity
  8
0
100
AcDbBlockBegin
  2
*Model_Space
 70
     0
 71
     0
 10
0.0
 20
0.0
 30
0.0
  3
*Model_Space
  1

  0
ENDBLK
  5
21
330
1F
100
AcDbEntity
  8
0
100
AcDbBlockEnd
  0
BLOCK
  5
1C
330
1B
100
AcDbEntity
 67
     1
  8
0
100
AcDbBlockBegin
  2
*Paper_Space
 70
     0
 71
     0
 10
0.0
 20
0.0
 30
0.0
  3
*Paper_Space
  1

  0
ENDBLK
  5
1D
330
1B
100
AcDbEntity
 67
     1
  8
0
100
AcDbBlockEnd
  0
BLOCK
  5
24
330
23
100
AcDbEntity
  8
0
100
AcDbBlockBegin
  2
*Paper_Space0
 70
     0
 71
     0
 10
0.0
 20
0.0
 30
0.0
  3
*Paper_Space0
  1

  0
ENDBLK
  5
25
330
23
100
AcDbEntity
  8
0
100
AcDbBlockEnd
  0
BLOCK
  5
44
330
43
100
AcDbEntity
  8
0
100
AcDbBlockBegin
  2
EinsatzHL606Serie
 70
     0
 71
     0
 10
-28.92925705603699
 20
-194.9599111758876
 30
0.0
  3
EinsatzHL606Serie
  1

  0
LINE
  5
63
330
43
100
AcDbEntity
  8
0
  6
Continuous
 62
     3
100
AcDbLine
 10
-11.47999168210464
 20
-187.6115856527055
 30
0.0
 11
-25.05503566829606
 21
-187.6115856527055
 31
0.0
  0
LINE
  5
64
330
43
100
AcDbEntity
  8
0
  6
Continuous
 62
     7
100
AcDbLine
 10
-13.0118857822319
 20
-190.5052864401071
 30
0.0
 11
-20.94636006565338
 21
-190.5052864401071
 31
0.0
  0
LINE
  5
65
330
43
100
AcDbEntity
  8
0
  6
Continuous
 62
     7
100
AcDbLine
 10
-11.07074294396301
 20
-105.0052864401071
 30
0.0
 11
-11.07074294396301
 21
-183.0052864401071
 31
0.0
  0
LINE
  5
66
330
43
100
AcDbEntity
  8
0
  6
Continuous
 62
     3
100
AcDbLine
 10
-11.47999168210464
 20
-100.3989872275086
 30
0.0
 11
-25.05503566829606
 21
-100.3989872275087
 31
0.0
  0
LINE
  5
67
330
43
100
AcDbEntity
  8
0
  6
Continuous
 62
     7
100
AcDbLine
 10
-13.0118857822319
 20
-97.50528644010711
 30
0.0
 11
-20.94636006565338
 21
-97.50528644010711
 31
0.0
  0
LINE
  5
68
330
43
100
AcDbEntity
  8
0
  6
Continuous
 62
     3
100
AcDbLine
 10
-8.74164011224661
 20
-93.760050564972
 30
0.0
 11
-8.74164011224661
 21
-194.2505223152421
 31
0.0
  0
LINE
  5
69
330
43
100
AcDbEntity
  8
0
  6
Continuous
 62
     3
100
AcDbLine
 10
-2.15086448568599
 20
-93.05066170432661
 30
0.0
 11
-2.15086448568599
 21
-194.9599111758876
 31
0.0
  0
SPLINE
  5
6A
330
43
100
AcDbEntity
  8
0
  6
Continuous
 62
     7
100
AcDbSpline
210
0.0
220
0.0
230
1.0
 70
     8
 71
     3
 72
    15
 73
    11
 74
     9
 42
0.0000000001
 43
0.0000000001
 44
0.00000001
 40
0.0
 40
0.0
 40
0.0
 40
0.0
 40
1.463652667477797
 40
2.874930693320988
 40
4.183930630120759
 40
5.345810285558281
 40
6.323815910981814
 40
7.093866884968394
 40
7.654896002618775
 40
8.060087569738062
 40
8.060087569738062
 40
8.060087569738062
 40
8.060087569738062
 10
-11.07074294396301
 20
-183.0052864401071
 30
0.0
 10
-11.07777217720976
 20
-183.4932404110621
 30
0.0
 10
-11.09157911300856
 20
-184.4516876432486
 30
0.0
 10
-11.20269386808783
 20
-185.8426868454592
 30
0.0
 10
-11.3752196041284
 20
-187.1265801664594
 30
0.0
 10
-11.60869524516447
 20
-188.2514062958651
 30
0.0
 10
-11.88939561695371
 20
-189.1875983195257
 30
0.0
 10
-12.21337068037676
 20
-189.8748054040835
 30
0.0
 10
-12.55965700828575
 20
-190.3812889827282
 30
0.0
 10
-12.87827221318344
 20
-190.4686506845165
 30
0.0
 10
-13.0118857822319
 20
-190.5052864401071
 30
0.0
 11
-11.07074294396301
 21
-183.0052864401071
 31
0.0
 11
-11.10804154959818
 21
-184.4684637858286
 31
0.0
 11
-11.21850364427439
 21
-185.8754121828452
 31
0.0
 11
-11.3978845756257
 21
-187.1720629901211
 31
0.0
 11
-11.63929051804024
 21
-188.3085872990061
 31
0.0
 11
-11.93344465440167
 21
-189.2413082365976
 31
0.0
 11
-12.26904257817225
 21
-189.9343829339417
 31
0.0
 11
-12.63318761879661
 21
-190.3611756942367
 31
0.0
 11
-13.0118857822319
 21
-190.5052864401071
 31
0.0
  0
SPLINE
  5
6B
330
43
100
AcDbEntity
  8
0
  6
Continuous
 62
     7
100
AcDbSpline
210
0.0
220
0.0
230
1.0
 70
     8
 71
     3
 72
    15
 73
    11
 74
     9
 42
0.0000000001
 43
0.0000000001
 44
0.00000001
 40
0.0
 40
0.0
 40
0.0
 40
0.0
 40
1.463652667477854
 40
2.874930693321102
 40
4.183930630120873
 40
5.345810285558381
 40
6.323815910981846
 40
7.093866884968465
 40
7.654896002618846
 40
8.060087569738103
 40
8.060087569738103
 40
8.060087569738103
 40
8.060087569738103
 10
-11.07074294396301
 20
-105.0052864401071
 30
0.0
 10
-11.07777217720977
 20
-104.517332469152
 30
0.0
 10
-11.09157911300857
 20
-103.5588852369655
 30
0.0
 10
-11.20269386808782
 20
-102.1678860347549
 30
0.0
 10
-11.37521960412841
 20
-100.8839927137547
 30
0.0
 10
-11.60869524516445
 20
-99.75916658434909
 30
0.0
 10
-11.88939561695373
 20
-98.82297456068845
 30
0.0
 10
-12.21337068037675
 20
-98.13576747613062
 30
0.0
 10
-12.55965700828573
 20
-97.6292838974859
 30
0.0
 10
-12.87827221318344
 20
-97.54192219569768
 30
0.0
 10
-13.0118857822319
 20
-97.50528644010711
 30
0.0
 11
-11.07074294396301
 21
-105.0052864401071
 31
0.0
 11
-11.10804154959818
 21
-103.5421090943856
 31
0.0
 11
-11.21850364427439
 21
-102.1351606973689
 31
0.0
 11
-11.3978845756257
 21
-100.838509890093
 31
0.0
 11
-11.63929051804024
 21
-99.70198558120796
 31
0.0
 11
-11.93344465440167
 21
-98.76926464361655
 31
0.0
 11
-12.26904257817225
 21
-98.07618994627245
 31
0.0
 11
-12.63318761879661
 21
-97.64939718597742
 31
0.0
 11
-13.0118857822319
 21
-97.50528644010711
 31
0.0
  0
SPLINE
  5
6C
330
43
100
AcDbEntity
  8
0
  6
Continuous
 62
     7
100
AcDbSpline
210
0.0
220
0.0
230
1.0
 70
     8
 71
     3
 72
    11
 73
     7
 74
     5
 42
0.0000000001
 43
0.0000000001
 44
0.00000001
 40
0.0
 40
0.0
 40
0.0
 40
0.0
 40
6.813085223175275
 40
13.95186835854327
 40
20.51404788331051
 40
27.78009184948871
 40
27.78009184948871
 40
27.78009184948871
 40
27.78009184948871
 10
-28.92925705603699
 20
-144.0052864401071
 30
0.0
 10
-28.91880121905789
 20
-146.2763381168134
 30
0.0
 10
-28.89738970630964
 20
-150.9270085533249
 30
0.0
 10
-28.73185548918592
 20
-157.7633878479145
 30
0.0
 10
-28.48983678606058
 20
-164.7482901668135
 30
0.0
 10
-28.27792407191411
 20
-169.3528634350138
 30
0.0
 10
-28.16657447599613
 20
-171.7723377683683
 30
0.0
 11
-28.92925705603699
 21
-144.0052864401071
 31
0.0
 11
-28.87614867293286
 21
-150.818164668719
 31
0.0
 11
-28.71428254079797
 21
-157.9551124763663
 31
0.0
 11
-28.48618449550879
 21
-164.5133265165612
 31
0.0
 11
-28.16657447599613
 21
-171.7723377683683
 31
0.0
  0
SPLINE
  5
6D
330
43
100
AcDbEntity
  8
0
  6
Continuous
 62
     7
100
AcDbSpline
210
0.0
220
0.0
230
1.0
 70
     8
 71
     3
 72
    11
 73
     7
 74
     5
 42
0.0000000001
 43
0.0000000001
 44
0.00000001
 40
0.0
 40
0.0
 40
0.0
 40
0.0
 40
6.813085223175332
 40
13.95186835854339
 40
20.51404788331063
 40
27.78009184948885
 40
27.78009184948885
 40
27.78009184948885
 40
27.78009184948885
 10
-28.92925705603699
 20
-144.0052864401071
 30
0.0
 10
-28.91880121905788
 20
-141.7342347634008
 30
0.0
 10
-28.89738970630964
 20
-137.0835643268893
 30
0.0
 10
-28.73185548918593
 20
-130.2471850322997
 30
0.0
 10
-28.48983678606057
 20
-123.2622827134006
 30
0.0
 10
-28.27792407191411
 20
-118.6577094452003
 30
0.0
 10
-28.16657447599613
 20
-116.2382351118458
 30
0.0
 11
-28.92925705603699
 21
-144.0052864401071
 31
0.0
 11
-28.87614867293286
 21
-137.1924082114952
 31
0.0
 11
-28.71428254079797
 21
-130.0554604038478
 31
0.0
 11
-28.48618449550879
 21
-123.4972463636529
 31
0.0
 11
-28.16657447599613
 21
-116.2382351118458
 31
0.0
  0
SPLINE
  5
6E
330
43
100
AcDbEntity
  8
0
  6
Continuous
 62
     7
100
AcDbSpline
210
0.0
220
0.0
230
1.0
 70
     8
 71
     3
 72
     9
 73
     5
 74
     3
 42
0.0000000001
 43
0.0000000001
 44
0.00000001
 40
0.0
 40
0.0
 40
0.0
 40
0.0
 40
7.185619512011767
 40
15.3047104216266
 40
15.3047104216266
 40
15.3047104216266
 40
15.3047104216266
 10
-28.16657447599613
 20
-116.2382351118458
 30
0.0
 10
-28.0473962563894
 20
-113.8459861453958
 30
0.0
 10
-27.79355758087965
 20
-108.7507152885475
 30
0.0
 10
-27.50024841424252
 20
-103.657560993276
 30
0.0
 10
-27.34464901229728
 20
-100.9556619307774
 30
0.0
 11
-28.16657447599613
 21
-116.2382351118458
 31
0.0
 11
-27.80033918656724
 21
-109.0619547742209
 31
0.0
 11
-27.34464901229728
 21
-100.9556619307774
 31
0.0
  0
SPLINE
  5
6F
330
43
100
AcDbEntity
  8
0
  6
Continuous
 62
     7
100
AcDbSpline
210
0.0
220
0.0
230
1.0
 70
     8
 71
     3
 72
     9
 73
     5
 74
     3
 42
0.0000000001
 43
0.0000000001
 44
0.00000001
 40
0.0
 40
0.0
 40
0.0
 40
0.0
 40
7.185619512011824
 40
15.30471042162661
 40
15.30471042162661
 40
15.30471042162661
 40
15.30471042162661
 10
-28.16657447599613
 20
-171.7723377683683
 30
0.0
 10
-28.0473962563894
 20
-174.1645867348184
 30
0.0
 10
-27.79355758087965
 20
-179.2598575916666
 30
0.0
 10
-27.50024841424252
 20
-184.3530118869382
 30
0.0
 10
-27.34464901229728
 20
-187.0549109494367
 30
0.0
 11
-28.16657447599613
 21
-171.7723377683683
 31
0.0
 11
-27.80033918656724
 21
-178.9486181059932
 31
0.0
 11
-27.34464901229728
 21
-187.0549109494367
 31
0.0
  0
SPLINE
  5
70
330
43
100
AcDbEntity
  8
0
  6
Continuous
 62
     7
100
AcDbSpline
210
0.0
220
0.0
230
1.0
 70
     8
 71
     3
 72
     9
 73
     5
 74
     3
 42
0.0000000001
 43
0.0000000001
 44
0.00000001
 40
0.0
 40
0.0
 40
0.0
 40
0.0
 40
0.5010779381494036
 40
0.9682729047935467
 40
0.9682729047935467
 40
0.9682729047935467
 40
0.9682729047935467
 10
-25.05503566829606
 20
-100.3989872275087
 30
0.0
 10
-25.02081078525256
 20
-100.2354630566808
 30
0.0
 10
-24.95467531131185
 20
-99.91947224599721
 30
0.0
 10
-24.87018206611803
 20
-99.60789428347573
 30
0.0
 10
-24.82941378821357
 20
-99.45755685785264
 30
0.0
 11
-25.05503566829606
 21
-100.3989872275087
 31
0.0
 11
-24.94744475784854
 21
-99.909596487824
 31
0.0
 11
-24.82941378821357
 21
-99.45755685785264
 31
0.0
  0
SPLINE
  5
71
330
43
100
AcDbEntity
  8
0
  6
Continuous
 62
     7
100
AcDbSpline
210
0.0
220
0.0
230
1.0
 70
     8
 71
     3
 72
     9
 73
     5
 74
     3
 42
0.0000000001
 43
0.0000000001
 44
0.00000001
 40
0.0
 40
0.0
 40
0.0
 40
0.0
 40
0.5010779381493758
 40
0.9682729047935051
 40
0.9682729047935051
 40
0.9682729047935051
 40
0.9682729047935051
 10
-25.05503566829606
 20
-187.6115856527055
 30
0.0
 10
-25.02081078525256
 20
-187.7751098235333
 30
0.0
 10
-24.95467531131185
 20
-188.0911006342169
 30
0.0
 10
-24.87018206611803
 20
-188.4026785967384
 30
0.0
 10
-24.82941378821357
 20
-188.5530160223615
 30
0.0
 11
-25.05503566829606
 21
-187.6115856527055
 31
0.0
 11
-24.94744475784854
 21
-188.1009763923902
 31
0.0
 11
-24.82941378821357
 21
-188.5530160223615
 31
0.0
  0
SPLINE
  5
72
330
43
100
AcDbEntity
  8
0
  6
Continuous
 62
     7
100
AcDbSpline
210
0.0
220
0.0
230
1.0
 70
     8
 71
     3
 72
    13
 73
     9
 74
     7
 42
0.0000000001
 43
0.0000000001
 44
0.00000001
 40
0.0
 40
0.0
 40
0.0
 40
0.0
 40
7.810791285411635
 40
15.5331892554608
 40
23.08009746265706
 40
30.36702652106222
 40
37.31343677400753
 40
43.84415265601218
 40
43.84415265601218
 40
43.84415265601218
 40
43.84415265601218
 10
-28.92925705603699
 20
-144.0052864401071
 30
0.0
 10
-28.90796161621833
 20
-146.6089786176879
 30
0.0
 10
-28.86561173323023
 20
-151.7868974583646
 30
0.0
 10
-28.52280877855036
 20
-159.4741899838747
 30
0.0
 10
-27.98190796820554
 20
-166.97457126523
 30
0.0
 10
-27.22172031770496
 20
-174.1956464626243
 30
0.0
 10
-26.28625558096373
 20
-181.0560375732535
 30
0.0
 10
-25.45691546278291
 20
-185.4718035651898
 30
0.0
 10
-25.05503566829606
 20
-187.6115856527055
 30
0.0
 11
-28.92925705603699
 21
-144.0052864401071
 31
0.0
 11
-28.81774308833194
 21
-151.8152816474852
 31
0.0
 11
-28.48455471720763
 21
-159.5304884442708
 31
0.0
 11
-27.93373568010204
 21
-167.057268757008
 31
0.0
 11
-27.17197126756673
 21
-174.3042715914234
 31
0.0
 11
-26.20850676981618
 21
-181.1835412884042
 31
0.0
 11
-25.05503566829606
 21
-187.6115856527055
 31
0.0
  0
SPLINE
  5
73
330
43
100
AcDbEntity
  8
0
  6
Continuous
 62
     7
100
AcDbSpline
210
0.0
220
0.0
230
1.0
 70
     8
 71
     3
 72
    13
 73
     9
 74
     7
 42
0.0000000001
 43
0.0000000001
 44
0.00000001
 40
0.0
 40
0.0
 40
0.0
 40
0.0
 40
7.810791285411749
 40
15.53318925546089
 40
23.08009746265715
 40
30.36702652106231
 40
37.3134367740076
 40
43.84415265601223
 40
43.84415265601223
 40
43.84415265601223
 40
43.84415265601223
 10
-28.92925705603699
 20
-144.0052864401071
 30
0.0
 10
-28.90796161621833
 20
-141.4015942625263
 30
0.0
 10
-28.86561173323023
 20
-136.2236754218496
 30
0.0
 10
-28.52280877855037
 20
-128.5363828963394
 30
0.0
 10
-27.98190796820555
 20
-121.0360016149841
 30
0.0
 10
-27.22172031770494
 20
-113.8149264175899
 30
0.0
 10
-26.28625558096374
 20
-106.9545353069607
 30
0.0
 10
-25.45691546278292
 20
-102.5387693150243
 30
0.0
 10
-25.05503566829606
 20
-100.3989872275087
 30
0.0
 11
-28.92925705603699
 21
-144.0052864401071
 31
0.0
 11
-28.81774308833194
 21
-136.1952912327289
 31
0.0
 11
-28.48455471720763
 21
-128.4800844359433
 31
0.0
 11
-27.93373568010204
 21
-120.9533041232061
 31
0.0
 11
-27.17197126756673
 21
-113.7063012887907
 31
0.0
 11
-26.20850676981618
 21
-106.82703159181
 31
0.0
 11
-25.05503566829606
 21
-100.3989872275087
 31
0.0
  0
ENDBLK
  5
45
330
43
100
AcDbEntity
  8
0
100
AcDbBlockEnd
  0
BLOCK
  5
47
330
46
100
AcDbEntity
  8
0
100
AcDbBlockBegin
  2
HL603Körper
 70
     0
 71
     0
 10
-94.0
 20
-238.0052864401071
 30
0.0
  3
HL603Körper
  1

  0
LINE
  5
74
330
46
100
AcDbEntity
  8
1
  6
DOT_CENTER
 62
     2
100
AcDbLine
 10
102.3
 20
-144.0052864401071
 30
0.0
 11
-102.3
 21
-144.0052864401071
 31
0.0
  0
LINE
  5
75
330
46
100
AcDbEntity
  8
1
  6
DOT_CENTER
 62
     2
100
AcDbLine
 10
0.0
 20
-41.7052864401071
 30
0.0
 11
0.0
 21
-246.3052864401071
 31
0.0
  0
ARC
  5
76
330
46
100
AcDbEntity
  8
0
  6
Continuous
 62
     7
100
AcDbCircle
 10
0.0
 20
-144.0052864401071
 30
0.0
 40
50.99999999999999
100
AcDbArc
 50
114.2496286025052
 51
-114.2496286025052
  0
ARC
  5
77
330
46
100
AcDbEntity
  8
0
  6
Continuous
 62
     7
100
AcDbCircle
 10
0.0
 20
-144.0052864401071
 30
0.0
 40
50.99999999999999
100
AcDbArc
 50
-114.2496286025052
 51
0.0
  0
ARC
  5
78
330
46
100
AcDbEntity
  8
0
  6
Continuous
 62
     7
100
AcDbCircle
 10
0.0
 20
-144.0052864401071
 30
0.0
 40
51.0
100
AcDbArc
 50
0.0
 51
114.2496286025052
  0
CIRCLE
  5
79
330
46
100
AcDbEntity
  8
0
  6
Continuous
 62
     7
100
AcDbCircle
 10
0.0
 20
-144.0052864401071
 30
0.0
 40
94.0
  0
CIRCLE
  5
7A
330
46
100
AcDbEntity
  8
0
  6
Continuous
 62
     7
100
AcDbCircle
 10
0.0
 20
-144.0052864401071
 30
0.0
 40
89.5
  0
CIRCLE
  5
7B
330
46
100
AcDbEntity
  8
0
  6
Continuous
 62
     7
100
AcDbCircle
 10
0.0
 20
-144.0052864401071
 30
0.0
 40
78.0
  0
CIRCLE
  5
7C
330
46
100
AcDbEntity
  8
0
  6
Continuous
 62
     3
100
AcDbCircle
 10
0.0
 20
-144.0052864401071
 30
0.0
 40
56.0
  0
CIRCLE
  5
7D
330
46
100
AcDbEntity
  8
0
  6
Continuous
 62
     7
100
AcDbCircle
 10
0.0
 20
-144.0052864401071
 30
0.0
 40
53.79422863405989
  0
CIRCLE
  5
7E
330
46
100
AcDbEntity
  8
0
  6
Continuous
 62
     7
100
AcDbCircle
 10
0.0
 20
-144.0052864401071
 30
0.0
 40
55.0
  0
CIRCLE
  5
7F
330
46
100
AcDbEntity
  8
0
  6
Continuous
 62
     7
100
AcDbCircle
 10
0.0
 20
-144.0052864401071
 30
0.0
 40
83.75853741792002
  0
CIRCLE
  5
80
330
46
100
AcDbEntity
  8
0
  6
Continuous
 62
     7
100
AcDbCircle
 10
0.0
 20
-144.0052864401071
 30
0.0
 40
93.0
  0
ENDBLK
  5
48
330
46
100
AcDbEntity
  8
0
100
AcDbBlockEnd
  0
BLOCK
  5
4C
330
49
100
AcDbEntity
  8
0
100
AcDbBlockBegin
  2
BgrKlappeneinsatz0606_3E__1
 70
     0
 71
     0
 10
-94.0
 20
-238.0052864401071
 30
0.0
  3
BgrKlappeneinsatz0606_3E__1
  1

  0
INSERT
  5
4A
330
49
100
AcDbEntity
  8
0
100
AcDbBlockReference
  2
EinsatzHL606Serie
 10
-28.92925705603699
 20
-194.9599111758876
 30
0.0
  0
INSERT
  5
4B
330
49
100
AcDbEntity
  8
0
100
AcDbBlockReference
  2
HL603Körper
 10
-94.0
 20
-238.0052864401071
 30
0.0
  0
ENDBLK
  5
4D
330
49
100
AcDbEntity
  8
0
100
AcDbBlockEnd
  0
BLOCK
  5
50
330
4E
100
AcDbEntity
  8
0
100
AcDbBlockBegin
  2
Drfsicht1
 70
     0
 71
     0
 10
0.0
 20
-144.0052864401071
 30
0.0
  3
Drfsicht1
  1

  0
INSERT
  5
4F
330
4E
100
AcDbEntity
  8
0
100
AcDbBlockReference
  2
BgrKlappeneinsatz0606_3E__1
 10
-94.0
 20
-238.0052864401071
 30
0.0
  0
ENDBLK
  5
51
330
4E
100
AcDbEntity
  8
0
100
AcDbBlockEnd
  0
BLOCK
  5
54
330
52
100
AcDbEntity
  8
0
100
AcDbBlockBegin
  2
1
 70
     0
 71
     0
 10
-7.0
 20
-574.7333443014346
 30
0.0
  3
1
  1

  0
INSERT
  5
53
330
52
100
AcDbEntity
  8
0
100
AcDbBlockReference
  2
Drfsicht1
 10
0.0
 20
-144.0052864401071
 30
0.0
  0
ENDBLK
  5
55
330
52
100
AcDbEntity
  8
0
100
AcDbBlockEnd
  0
BLOCK
  5
58
330
56
100
AcDbEntity
  8
0
100
AcDbBlockBegin
  2
BgrKlappeneinsatz0606_3E__2
 70
     0
 71
     0
 10
-7.0
 20
-574.7333443014346
 30
0.0
  3
BgrKlappeneinsatz0606_3E__2
  1

  0
INSERT
  5
57
330
56
100
AcDbEntity
  8
1
100
AcDbBlockReference
  2
1
 10
-7.0
 20
-574.7333443014346
 30
0.0
  0
ENDBLK
  5
59
330
56
100
AcDbEntity
  8
0
100
AcDbBlockEnd
  0
BLOCK
  5
5B
330
5A
100
AcDbEntity
  8
0
100
AcDbBlockBegin
  2
HL_606_1_Körper__3
 70
     0
 71
     0
 10
0.0
 20
0.0
 30
0.0
  3
HL_606_1_Körper__3
  1

  0
POINT
  5
81
330
5A
100
AcDbEntity
  8
1
 62
     3
 60
     1
100
AcDbPoint
 10
55.0
 20
4.835
 30
0.0
  0
LINE
  5
82
330
5A
100
AcDbEntity
  8
1
  6
Continuous
 62
     7
100
AcDbLine
 10
94.49999999999999
 20
208.3327044069929
 30
0.0
 11
94.49999999999999
 21
206.3327044069929
 31
0.0
  0
LINE
  5
83
330
5A
100
AcDbEntity
  8
1
  6
Continuous
 62
     7
100
AcDbLine
 10
-94.5
 20
206.3327044069929
 30
0.0
 11
-94.5
 21
208.3327044069929
 31
0.0
  0
LINE
  5
84
330
5A
100
AcDbEntity
  8
1
  6
Continuous
 62
     7
100
AcDbLine
 10
93.49999999999999
 20
205.3327044069929
 30
0.0
 11
-93.5
 21
205.3327044069929
 31
0.0
  0
LINE
  5
85
330
5A
100
AcDbEntity
  8
1
  6
Continuous
 62
     7
100
AcDbLine
 10
-88.0
 20
203.1046960070848
 30
0.0
 11
88.0
 21
203.1046960070848
 31
0.0
  0
LINE
  5
86
330
5A
100
AcDbEntity
  8
1
  6
PHANTOM
 62
     2
100
AcDbLine
 10
0.0
 20
9.835
 30
0.0
 11
0.0
 21
409.3304088139858
 31
0.0
  0
LINE
  5
87
330
5A
100
AcDbEntity
  8
1
  6
Continuous
 62
     7
100
AcDbLine
 10
-89.5
 20
198.3350000000009
 30
0.0
 11
89.5
 21
198.3350000000009
 31
0.0
  0
LINE
  5
88
330
5A
100
AcDbEntity
  8
1
  6
Continuous
 62
     7
100
AcDbLine
 10
83.75853741792002
 20
72.82892013079297
 30
0.0
 11
-83.75853741792002
 21
72.82892013079297
 31
0.0
  0
LINE
  5
89
330
5A
100
AcDbEntity
  8
1
  6
Continuous
 62
     7
100
AcDbLine
 10
-56.0
 20
67.33500000000001
 30
0.0
 11
56.0
 21
67.33500000000001
 31
0.0
  0
LINE
  5
8A
330
5A
100
AcDbEntity
  8
1
  6
Continuous
 62
     7
100
AcDbLine
 10
-55.0
 20
9.835
 30
0.0
 11
55.0
 21
9.835
 31
0.0
  0
LINE
  5
8B
330
5A
100
AcDbEntity
  8
1
  6
Continuous
 62
     7
100
AcDbLine
 10
89.5
 20
198.3350000000009
 30
0.0
 11
83.75853741792002
 21
72.82892013079297
 31
0.0
  0
LINE
  5
8C
330
5A
100
AcDbEntity
  8
1
  6
Continuous
 62
     7
100
AcDbLine
 10
-55.0
 20
9.835
 30
0.0
 11
-55.0
 21
66.33500000000001
 31
0.0
  0
LINE
  5
8D
330
5A
100
AcDbEntity
  8
1
  6
Continuous
 62
     7
100
AcDbLine
 10
-56.0
 20
67.33500000000001
 30
0.0
 11
-78.0
 21
67.33500000000001
 31
0.0
  0
LINE
  5
8E
330
5A
100
AcDbEntity
  8
1
  6
Continuous
 62
     7
100
AcDbLine
 10
-83.75853741792002
 20
72.82892013079297
 30
0.0
 11
-89.5
 21
198.3350000000009
 31
0.0
  0
LINE
  5
8F
330
5A
100
AcDbEntity
  8
1
  6
Continuous
 62
     7
100
AcDbLine
 10
-55.0
 20
9.835
 30
0.0
 11
-53.79422863405989
 21
5.335
 31
0.0
  0
LINE
  5
90
330
5A
100
AcDbEntity
  8
1
  6
Continuous
 62
     7
100
AcDbLine
 10
-83.75853741792002
 20
72.82892013079297
 30
0.0
 11
-78.0
 21
67.33500000000001
 31
0.0
  0
LINE
  5
91
330
5A
100
AcDbEntity
  8
1
  6
Continuous
 62
     7
100
AcDbLine
 10
-51.0
 20
5.335
 30
0.0
 11
-53.79422863405989
 21
5.335
 31
0.0
  0
LINE
  5
92
330
5A
100
AcDbEntity
  8
1
  6
Continuous
 62
     7
100
AcDbLine
 10
-93.0
 20
203.1046960070848
 30
0.0
 11
-93.0
 21
205.3327044069929
 31
0.0
  0
LINE
  5
93
330
5A
100
AcDbEntity
  8
1
  6
Continuous
 62
     7
100
AcDbLine
 10
55.0
 20
66.33500000000001
 30
0.0
 11
55.0
 21
9.835
 31
0.0
  0
LINE
  5
94
330
5A
100
AcDbEntity
  8
1
  6
Continuous
 62
     7
100
AcDbLine
 10
78.0
 20
67.33500000000001
 30
0.0
 11
56.0
 21
67.33500000000001
 31
0.0
  0
LINE
  5
95
330
5A
100
AcDbEntity
  8
1
  6
Continuous
 62
     7
100
AcDbLine
 10
53.79422863405989
 20
5.335
 30
0.0
 11
55.0
 21
9.835
 31
0.0
  0
LINE
  5
96
330
5A
100
AcDbEntity
  8
1
  6
Continuous
 62
     7
100
AcDbLine
 10
78.0
 20
67.33500000000001
 30
0.0
 11
83.75853741792002
 21
72.82892013079297
 31
0.0
  0
LINE
  5
97
330
5A
100
AcDbEntity
  8
1
  6
Continuous
 62
     7
100
AcDbLine
 10
53.79422863405989
 20
5.335
 30
0.0
 11
51.0
 21
5.335
 31
0.0
  0
LINE
  5
98
330
5A
100
AcDbEntity
  8
0
  6
Continuous
 62
     7
100
AcDbLine
 10
-51.0
 20
5.335
 30
0.0
 11
0.0
 21
5.335
 31
0.0
  0
LINE
  5
99
330
5A
100
AcDbEntity
  8
0
  6
Continuous
 62
     7
100
AcDbLine
 10
0.0
 20
5.335
 30
0.0
 11
51.0
 21
5.335
 31
0.0
  0
LINE
  5
9A
330
5A
100
AcDbEntity
  8
1
  6
Continuous
 62
     7
100
AcDbLine
 10
93.0
 20
205.3327044069929
 30
0.0
 11
93.0
 21
203.1046960070848
 31
0.0
  0
ARC
  5
9B
330
5A
100
AcDbEntity
  8
1
  6
Continuous
 62
     7
100
AcDbCircle
 10
-88.0
 20
203.1046960070848
 30
0.0
 40
5.0
100
AcDbArc
 50
180.0
 51
-107.4576031237249
  0
ARC
  5
9C
330
5A
100
AcDbEntity
  8
1
  6
Continuous
 62
     7
100
AcDbCircle
 10
88.0
 20
203.1046960070848
 30
0.0
 40
4.999999999999231
100
AcDbArc
 50
-72.54239687627515
 51
0.0
  0
ARC
  5
9D
330
5A
100
AcDbEntity
  8
1
  6
Continuous
 62
     7
100
AcDbCircle
 10
93.49999999999999
 20
206.3327044069929
 30
0.0
 40
1.0
100
AcDbArc
 50
-90.0
 51
0.0
  0
ARC
  5
9E
330
5A
100
AcDbEntity
  8
1
  6
Continuous
 62
     7
100
AcDbCircle
 10
-93.5
 20
206.3327044069929
 30
0.0
 40
1.0
100
AcDbArc
 50
180.0
 51
-90.0
  0
ARC
  5
9F
330
5A
100
AcDbEntity
  8
1
  6
Continuous
 62
     7
100
AcDbCircle
 10
-56.0
 20
66.33500000000001
 30
0.0
 40
1.0
100
AcDbArc
 50
0.0
 51
90.0
  0
ARC
  5
A0
330
5A
100
AcDbEntity
  8
1
  6
Continuous
 62
     7
100
AcDbCircle
 10
56.0
 20
66.33500000000001
 30
0.0
 40
1.0
100
AcDbArc
 50
90.0
 51
180.0
  0
ENDBLK
  5
5C
330
5A
100
AcDbEntity
  8
0
100
AcDbBlockEnd
  0
BLOCK
  5
5E
330
5D
100
AcDbEntity
  8
0
100
AcDbBlockBegin
  2
HL_606_1_Körper__4
 70
     0
 71
     0
 10
0.0
 20
414.6654088139858
 30
0.0
  3
HL_606_1_Körper__4
  1

  0
POINT
  5
A1
330
5D
100
AcDbEntity
  8
1
 62
     3
 60
     1
100
AcDbPoint
 10
55.0
 20
409.8304088139858
 30
0.0
  0
LINE
  5
A2
330
5D
100
AcDbEntity
  8
1
  6
Continuous
 62
     7
100
AcDbLine
 10
-93.5
 20
209.3327044069929
 30
0.0
 11
93.49999999999999
 21
209.3327044069929
 31
0.0
  0
LINE
  5
A3
330
5D
100
AcDbEntity
  8
1
  6
Continuous
 62
     7
100
AcDbLine
 10
-88.0
 20
211.560712806901
 30
0.0
 11
88.0
 21
211.560712806901
 31
0.0
  0
LINE
  5
A4
330
5D
100
AcDbEntity
  8
1
  6
Continuous
 62
     7
100
AcDbLine
 10
89.5
 20
216.3304088139849
 30
0.0
 11
-89.5
 21
216.3304088139849
 31
0.0
  0
LINE
  5
A5
330
5D
100
AcDbEntity
  8
1
  6
Continuous
 62
     7
100
AcDbLine
 10
-83.75853741792002
 20
341.8364886831929
 30
0.0
 11
83.75853741792002
 21
341.8364886831929
 31
0.0
  0
LINE
  5
A6
330
5D
100
AcDbEntity
  8
1
  6
Continuous
 62
     7
100
AcDbLine
 10
56.0
 20
347.3304088139858
 30
0.0
 11
-56.0
 21
347.3304088139858
 31
0.0
  0
LINE
  5
A7
330
5D
100
AcDbEntity
  8
1
  6
Continuous
 62
     7
100
AcDbLine
 10
-55.0
 20
404.8304088139858
 30
0.0
 11
55.0
 21
404.8304088139858
 31
0.0
  0
LINE
  5
A8
330
5D
100
AcDbEntity
  8
1
  6
Continuous
 62
     7
100
AcDbLine
 10
93.0
 20
211.560712806901
 30
0.0
 11
93.0
 21
209.3327044069929
 31
0.0
  0
LINE
  5
A9
330
5D
100
AcDbEntity
  8
0
  6
Continuous
 62
     7
100
AcDbLine
 10
51.0
 20
409.3304088139858
 30
0.0
 11
0.0
 21
409.3304088139858
 31
0.0
  0
LINE
  5
AA
330
5D
100
AcDbEntity
  8
0
  6
Continuous
 62
     7
100
AcDbLine
 10
0.0
 20
409.3304088139858
 30
0.0
 11
-51.0
 21
409.3304088139858
 31
0.0
  0
LINE
  5
AB
330
5D
100
AcDbEntity
  8
1
  6
Continuous
 62
     7
100
AcDbLine
 10
51.0
 20
409.3304088139858
 30
0.0
 11
53.79422863405989
 21
409.3304088139858
 31
0.0
  0
LINE
  5
AC
330
5D
100
AcDbEntity
  8
1
  6
Continuous
 62
     7
100
AcDbLine
 10
83.75853741792002
 20
341.8364886831929
 30
0.0
 11
78.0
 21
347.3304088139858
 31
0.0
  0
LINE
  5
AD
330
5D
100
AcDbEntity
  8
1
  6
Continuous
 62
     7
100
AcDbLine
 10
55.0
 20
404.8304088139858
 30
0.0
 11
53.79422863405989
 21
409.3304088139858
 31
0.0
  0
LINE
  5
AE
330
5D
100
AcDbEntity
  8
1
  6
Continuous
 62
     7
100
AcDbLine
 10
83.75853741792002
 20
341.8364886831929
 30
0.0
 11
89.5
 21
216.3304088139849
 31
0.0
  0
LINE
  5
AF
330
5D
100
AcDbEntity
  8
1
  6
Continuous
 62
     7
100
AcDbLine
 10
56.0
 20
347.3304088139858
 30
0.0
 11
78.0
 21
347.3304088139858
 31
0.0
  0
LINE
  5
B0
330
5D
100
AcDbEntity
  8
1
  6
Continuous
 62
     7
100
AcDbLine
 10
55.0
 20
404.8304088139858
 30
0.0
 11
55.0
 21
348.3304088139858
 31
0.0
  0
LINE
  5
B1
330
5D
100
AcDbEntity
  8
1
  6
Continuous
 62
     7
100
AcDbLine
 10
-93.0
 20
209.3327044069929
 30
0.0
 11
-93.0
 21
211.560712806901
 31
0.0
  0
LINE
  5
B2
330
5D
100
AcDbEntity
  8
1
  6
Continuous
 62
     7
100
AcDbLine
 10
-53.79422863405989
 20
409.3304088139858
 30
0.0
 11
-51.0
 21
409.3304088139858
 31
0.0
  0
LINE
  5
B3
330
5D
100
AcDbEntity
  8
1
  6
Continuous
 62
     7
100
AcDbLine
 10
-78.0
 20
347.3304088139858
 30
0.0
 11
-83.75853741792002
 21
341.8364886831929
 31
0.0
  0
LINE
  5
B4
330
5D
100
AcDbEntity
  8
1
  6
Continuous
 62
     7
100
AcDbLine
 10
-53.79422863405989
 20
409.3304088139858
 30
0.0
 11
-55.0
 21
404.8304088139858
 31
0.0
  0
LINE
  5
B5
330
5D
100
AcDbEntity
  8
1
  6
Continuous
 62
     7
100
AcDbLine
 10
-89.5
 20
216.3304088139849
 30
0.0
 11
-83.75853741792002
 21
341.8364886831929
 31
0.0
  0
LINE
  5
B6
330
5D
100
AcDbEntity
  8
1
  6
Continuous
 62
     7
100
AcDbLine
 10
-78.0
 20
347.3304088139858
 30
0.0
 11
-56.0
 21
347.3304088139858
 31
0.0
  0
LINE
  5
B7
330
5D
100
AcDbEntity
  8
1
  6
Continuous
 62
     7
100
AcDbLine
 10
-55.0
 20
348.3304088139858
 30
0.0
 11
-55.0
 21
404.8304088139858
 31
0.0
  0
ARC
  5
B8
330
5D
100
AcDbEntity
  8
1
  6
Continuous
 62
     7
100
AcDbCircle
 10
88.0
 20
211.560712806901
 30
0.0
 40
5.0
100
AcDbArc
 50
0.0
 51
72.54239687627503
  0
ARC
  5
B9
330
5D
100
AcDbEntity
  8
1
  6
Continuous
 62
     7
100
AcDbCircle
 10
-88.0
 20
211.560712806901
 30
0.0
 40
4.999999999999204
100
AcDbArc
 50
107.457603123725
 51
180.0
  0
ARC
  5
BA
330
5D
100
AcDbEntity
  8
1
  6
Continuous
 62
     7
100
AcDbCircle
 10
-93.5
 20
208.3327044069929
 30
0.0
 40
1.0
100
AcDbArc
 50
90.0
 51
180.0
  0
ARC
  5
BB
330
5D
100
AcDbEntity
  8
1
  6
Continuous
 62
     7
100
AcDbCircle
 10
93.49999999999999
 20
208.3327044069929
 30
0.0
 40
1.0
100
AcDbArc
 50
0.0
 51
90.0
  0
ARC
  5
BC
330
5D
100
AcDbEntity
  8
1
  6
Continuous
 62
     7
100
AcDbCircle
 10
56.0
 20
348.3304088139858
 30
0.0
 40
1.0
100
AcDbArc
 50
180.0
 51
-90.0
  0
ARC
  5
BD
330
5D
100
AcDbEntity
  8
1
  6
Continuous
 62
     7
100
AcDbCircle
 10
-56.0
 20
348.3304088139858
 30
0.0
 40
1.0
100
AcDbArc
 50
-90.0
 51
0.0
  0
ENDBLK
  5
5F
330
5D
100
AcDbEntity
  8
0
100
AcDbBlockEnd
  0
BLOCK
  5
C6
330
BE
100
AcDbEntity
  8
0
100
AcDbBlockBegin
  2
*D9
 70
     1
 71
     0
 10
0.0
 20
0.0
 30
0.0
  3
*D9
  1

  0
LINE
  5
BF
330
BE
100
AcDbEntity
  8
1
  6
Continuous
 62
     4
100
AcDbLine
 10
-55.0
 20
419.811529660617
 30
0.0
 11
55.0
 21
419.811529660617
 31
0.0
  0
LINE
  5
C0
330
BE
100
AcDbEntity
  8
1
  6
Continuous
 62
     4
100
AcDbLine
 10
55.0
 20
404.8304088139858
 30
0.0
 11
55.0
 21
421.811529660617
 31
0.0
  0
LINE
  5
C1
330
BE
100
AcDbEntity
  8
1
  6
Continuous
 62
     4
100
AcDbLine
 10
-55.0
 20
404.8304088139858
 30
0.0
 11
-55.0
 21
421.811529660617
 31
0.0
  0
SOLID
  5
C2
330
BE
100
AcDbEntity
  8
1
 62
     4
100
AcDbTrace
 10
-45.0
 20
421.128054636491
 30
0.0
 11
-45.0
 21
418.495004684743
 31
0.0
 12
-55.0
 22
419.811529660617
 32
0.0
 13
-55.0
 23
419.811529660617
 33
0.0
  0
SOLID
  5
C3
330
BE
100
AcDbEntity
  8
1
 62
     4
100
AcDbTrace
 10
45.0
 20
418.495004684743
 30
0.0
 11
45.0
 21
421.128054636491
 31
0.0
 12
55.0
 22
419.811529660617
 32
0.0
 13
55.0
 23
419.811529660617
 33
0.0
  0
MTEXT
  5
C5
330
BE
100
AcDbEntity
  8
1
 62
     1
100
AcDbMText
 10
-14.77456189678648
 20
421.8114899058951
 30
0.0
 40
10.0
 41
0.0
 71
     7
 72
     1
  1
\C1;DN\C1;110
  7
CONVERTER_11
 11
0.9999999999970619
 21
2.424068405545306E-6
 31
0.0
 73
     1
 44
0.60024009603842
  0
ENDBLK
  5
C7
330
BE
100
AcDbEntity
  8
0
100
AcDbBlockEnd
  0
BLOCK
  5
D1
330
CA
100
AcDbEntity
  8
0
100
AcDbBlockBegin
  2
*D10
 70
     1
 71
     0
 10
0.0
 20
0.0
 30
0.0
  3
*D10
  1

  0
LINE
  5
CB
330
CA
100
AcDbEntity
  8
1
  6
Continuous
 62
     4
100
AcDbLine
 10
-55.0
 20
-14.4980037790073
 30
0.0
 11
55.0
 21
-14.4980037790073
 31
0.0
  0
LINE
  5
CC
330
CA
100
AcDbEntity
  8
1
  6
Continuous
 62
     4
100
AcDbLine
 10
55.00000000000001
 20
9.835
 30
0.0
 11
55.00000000000001
 21
-16.4980037790073
 31
0.0
  0
LINE
  5
CD
330
CA
100
AcDbEntity
  8
1
  6
Continuous
 62
     4
100
AcDbLine
 10
-55.00000000000001
 20
9.835
 30
0.0
 11
-55.00000000000001
 21
-16.4980037790073
 31
0.0
  0
SOLID
  5
CE
330
CA
100
AcDbEntity
  8
1
 62
     4
100
AcDbTrace
 10
-45.0
 20
-13.18147880313334
 30
0.0
 11
-45.0
 21
-15.81452875488126
 31
0.0
 12
-55.0
 22
-14.4980037790073
 32
0.0
 13
-55.0
 23
-14.4980037790073
 33
0.0
  0
SOLID
  5
CF
330
CA
100
AcDbEntity
  8
1
 62
     4
100
AcDbTrace
 10
45.0
 20
-15.81452875488125
 30
0.0
 11
45.0
 21
-13.18147880313334
 31
0.0
 12
55.0
 22
-14.4980037790073
 32
0.0
 13
55.0
 23
-14.4980037790073
 33
0.0
  0
MTEXT
  5
D0
330
CA
100
AcDbEntity
  8
1
 62
     1
100
AcDbMText
 10
-14.02543810311712
 20
-12.49804353372915
 30
0.0
 40
10.0
 41
0.0
 71
     7
 72
     1
  1
\C1;DN\C1;110
  7
CONVERTER_11
 11
0.9999999999970619
 21
2.424068405545306E-6
 31
0.0
 73
     1
 44
0.60024009603842
  0
ENDBLK
  5
D2
330
CA
100
AcDbEntity
  8
0
100
AcDbBlockEnd
  0
BLOCK
  5
DC
330
D5
100
AcDbEntity
  8
0
100
AcDbBlockBegin
  2
*D11
 70
     1
 71
     0
 10
0.0
 20
0.0
 30
0.0
  3
*D11
  1

  0
LINE
  5
D6
330
D5
100
AcDbEntity
  8
1
  6
Continuous
 62
     4
100
AcDbLine
 10
111.502769216881
 20
409.3304088139857
 30
0.0
 11
111.502769216881
 21
347.3304088139857
 31
0.0
  0
LINE
  5
D7
330
D5
100
AcDbEntity
  8
1
  6
Continuous
 62
     4
100
AcDbLine
 10
78.0
 20
347.3304088139857
 30
0.0
 11
113.502769216881
 21
347.3304088139857
 31
0.0
  0
LINE
  5
D8
330
D5
100
AcDbEntity
  8
1
  6
Continuous
 62
     4
100
AcDbLine
 10
50.99999999999999
 20
409.3304088139857
 30
0.0
 11
113.502769216881
 21
409.3304088139857
 31
0.0
  0
SOLID
  5
D9
330
D5
100
AcDbEntity
  8
1
 62
     4
100
AcDbTrace
 10
112.819294192755
 20
399.3304088139857
 30
0.0
 11
110.186244241007
 21
399.3304088139857
 31
0.0
 12
111.502769216881
 22
409.3304088139857
 32
0.0
 13
111.502769216881
 23
409.3304088139857
 33
0.0
  0
SOLID
  5
DA
330
D5
100
AcDbEntity
  8
1
 62
     4
100
AcDbTrace
 10
110.186244241007
 20
357.3304088139857
 30
0.0
 11
112.819294192755
 21
357.3304088139857
 31
0.0
 12
111.502769216881
 22
347.3304088139857
 32
0.0
 13
111.502769216881
 23
347.3304088139857
 33
0.0
  0
MTEXT
  5
DB
330
D5
100
AcDbEntity
  8
1
 62
     1
100
AcDbMText
 10
109.502769216881
 20
369.869359278436
 30
0.0
 40
10.0
 41
0.0
 71
     7
 72
     1
  1
62
  7
CONVERTER_11
 11
0.0
 21
1.0
 31
0.0
 73
     1
 44
0.60024009603842
  0
ENDBLK
  5
DD
330
D5
100
AcDbEntity
  8
0
100
AcDbBlockEnd
  0
BLOCK
  5
E7
330
E0
100
AcDbEntity
  8
0
100
AcDbBlockBegin
  2
*D12
 70
     1
 71
     0
 10
0.0
 20
0.0
 30
0.0
  3
*D12
  1

  0
LINE
  5
E1
330
E0
100
AcDbEntity
  8
1
  6
Continuous
 62
     4
100
AcDbLine
 10
111.502769216881
 20
5.33499999999999
 30
0.0
 11
111.502769216881
 21
67.33500000000001
 31
0.0
  0
LINE
  5
E2
330
E0
100
AcDbEntity
  8
1
  6
Continuous
 62
     4
100
AcDbLine
 10
78.0
 20
67.33500000000001
 30
0.0
 11
113.502769216881
 21
67.33500000000001
 31
0.0
  0
LINE
  5
E3
330
E0
100
AcDbEntity
  8
1
  6
Continuous
 62
     4
100
AcDbLine
 10
50.99999999999999
 20
5.33499999999999
 30
0.0
 11
113.502769216881
 21
5.33499999999999
 31
0.0
  0
SOLID
  5
E4
330
E0
100
AcDbEntity
  8
1
 62
     4
100
AcDbTrace
 10
110.186244241007
 20
15.33499999999999
 30
0.0
 11
112.819294192755
 21
15.33499999999999
 31
0.0
 12
111.502769216881
 22
5.33499999999999
 32
0.0
 13
111.502769216881
 23
5.33499999999999
 33
0.0
  0
SOLID
  5
E5
330
E0
100
AcDbEntity
  8
1
 62
     4
100
AcDbTrace
 10
112.819294192755
 20
57.33500000000001
 30
0.0
 11
110.186244241007
 21
57.33500000000001
 31
0.0
 12
111.502769216881
 22
67.33500000000001
 32
0.0
 13
111.502769216881
 23
67.33500000000001
 33
0.0
  0
MTEXT
  5
E6
330
E0
100
AcDbEntity
  8
1
 62
     1
100
AcDbMText
 10
109.502769216881
 20
26.9529286664792
 30
0.0
 40
10.0
 41
0.0
 71
     7
 72
     1
  1
62
  7
CONVERTER_11
 11
0.0
 21
1.0
 31
0.0
 73
     1
 44
0.60024009603842
  0
ENDBLK
  5
E8
330
E0
100
AcDbEntity
  8
0
100
AcDbBlockEnd
  0
BLOCK
  5
F2
330
EB
100
AcDbEntity
  8
0
100
AcDbBlockBegin
  2
*D13
 70
     1
 71
     0
 10
0.0
 20
0.0
 30
0.0
  3
*D13
  1

  0
LINE
  5
EC
330
EB
100
AcDbEntity
  8
1
  6
Continuous
 62
     4
100
AcDbLine
 10
126.502769216881
 20
5.33500000000009
 30
0.0
 11
126.502769216881
 21
409.330408813986
 31
0.0
  0
LINE
  5
ED
330
EB
100
AcDbEntity
  8
1
  6
Continuous
 62
     4
100
AcDbLine
 10
51.0
 20
409.3304088139859
 30
0.0
 11
128.502769216881
 21
409.3304088139859
 31
0.0
  0
LINE
  5
EE
330
EB
100
AcDbEntity
  8
1
  6
Continuous
 62
     4
100
AcDbLine
 10
51.0
 20
5.33500000000009
 30
0.0
 11
128.502769216881
 21
5.33500000000009
 31
0.0
  0
SOLID
  5
EF
330
EB
100
AcDbEntity
  8
1
 62
     4
100
AcDbTrace
 10
125.186244241007
 20
15.33500000000009
 30
0.0
 11
127.819294192755
 21
15.33500000000009
 31
0.0
 12
126.502769216881
 22
5.33500000000009
 32
0.0
 13
126.502769216881
 23
5.33500000000009
 33
0.0
  0
SOLID
  5
F0
330
EB
100
AcDbEntity
  8
1
 62
     4
100
AcDbTrace
 10
127.819294192755
 20
399.330408813986
 30
0.0
 11
125.186244241007
 21
399.330408813986
 31
0.0
 12
126.502769216881
 22
409.330408813986
 32
0.0
 13
126.502769216881
 23
409.330408813986
 33
0.0
  0
MTEXT
  5
F1
330
EB
100
AcDbEntity
  8
1
 62
     1
100
AcDbMText
 10
124.502769216881
 20
195.332704406993
 30
0.0
 40
10.0
 41
0.0
 71
     7
 72
     1
  1
395
  7
CONVERTER_11
 11
0.0
 21
1.0
 31
0.0
 73
     1
 44
0.60024009603842
  0
ENDBLK
  5
F3
330
EB
100
AcDbEntity
  8
0
100
AcDbBlockEnd
  0
ENDSEC
  0
SECTION
  2
ENTITIES
  0
INSERT
  5
60
330
1F
100
AcDbEntity
  8
0
100
AcDbBlockReference
  2
BgrKlappeneinsatz0606_3E__2
 10
-7.0
 20
-574.7333443014346
 30
0.0
  0
INSERT
  5
61
330
1F
100
AcDbEntity
  8
1
100
AcDbBlockReference
  2
HL_606_1_Körper__3
 10
0.0
 20
0.0
 30
0.0
  0
INSERT
  5
62
330
1F
100
AcDbEntity
  8
1
100
AcDbBlockReference
  2
HL_606_1_Körper__4
 10
0.0
 20
414.6654088139858
 30
0.0
  0
DIMENSION
  5
C9
330
1F
100
AcDbEntity
  8
1
100
AcDbDimension
  2
*D9
 10
-55.0
 20
419.811529660617
 30
0.0
 11
-0.37456189683467
 21
426.811529660617
 31
0.0
 70
    32
  1
<>
 71
     5
 42
-1.0
 53
0.00013888888889
  3
ME10_DIM_10
100
AcDbAlignedDimension
 13
55.0
 23
404.8304088139858
 33
0.0
 14
-55.0
 24
404.8304088139858
 34
0.0
100
AcDbRotatedDimension
  0
DIMENSION
  5
D4
330
1F
100
AcDbEntity
  8
1
100
AcDbDimension
  2
*D10
 10
-55.0
 20
-14.4980037790073
 30
0.0
 11
0.37456189683469
 21
-7.4980037790073
 31
0.0
 70
    32
  1
<>
 71
     5
 42
-1.0
 53
0.00013888888889
  3
ME10_DIM_11
100
AcDbAlignedDimension
 13
55.0
 23
9.835
 33
0.0
 14
-55.0
 24
9.835
 34
0.0
100
AcDbRotatedDimension
  0
DIMENSION
  5
DF
330
1F
100
AcDbEntity
  8
1
100
AcDbDimension
  2
*D11
 10
111.502769216881
 20
409.3304088139857
 30
0.0
 11
104.502769216881
 21
377.369359278436
 31
0.0
 70
    32
  1
<>
 71
     5
 42
-1.0
 53
-90.0
  3
ME10_DIM_12
100
AcDbAlignedDimension
 13
78.0
 23
347.3304088139858
 33
0.0
 14
51.0
 24
409.3304088139858
 34
0.0
 50
-90.0
100
AcDbRotatedDimension
  0
DIMENSION
  5
EA
330
1F
100
AcDbEntity
  8
1
100
AcDbDimension
  2
*D12
 10
111.502769216881
 20
5.33499999999999
 30
0.0
 11
104.502769216881
 21
34.4529286664792
 31
0.0
 70
    32
  1
<>
 71
     5
 42
-1.0
 53
-90.0
  3
ME10_DIM_13
100
AcDbAlignedDimension
 13
78.0
 23
67.33500000000001
 33
0.0
 14
51.0
 24
5.335
 34
0.0
 50
-90.0
100
AcDbRotatedDimension
  0
DIMENSION
  5
F5
330
1F
100
AcDbEntity
  8
1
100
AcDbDimension
  2
*D13
 10
126.502769216881
 20
5.33500000000009
 30
0.0
 11
119.502769216881
 21
207.332704406993
 31
0.0
 70
    32
  1
395
 71
     5
 42
-1.0
 53
-90.0
  3
ME10_DIM_14
100
AcDbAlignedDimension
 13
51.0
 23
409.3304088139858
 33
0.0
 14
51.0
 24
5.335
 34
0.0
 50
-90.0
100
AcDbRotatedDimension
  0
ENDSEC
  0
SECTION
  2
OBJECTS
  0
DICTIONARY
  5
C
330
0
100
AcDbDictionary
281
     1
  3
ACAD_GROUP
350
D
  3
ACAD_LAYOUT
350
1A
  3
ACAD_MLINESTYLE
350
17
  3
ACAD_PLOTSETTINGS
350
19
  3
ACAD_PLOTSTYLENAME
350
E
  3
ACAD_TABLESTYLE
350
F6
  3
ACAD_VISUALSTYLE
350
2A
  0
DICTIONARY
  5
D
102
{ACAD_REACTORS
330
C
102
}
330
C
100
AcDbDictionary
281
     1
  0
DICTIONARY
  5
1A
102
{ACAD_REACTORS
330
C
102
}
330
C
100
AcDbDictionary
281
     1
  3
Layout1
350
1E
  3
Layout2
350
26
  3
Model
350
22
  0
DICTIONARY
  5
17
102
{ACAD_REACTORS
330
C
102
}
330
C
100
AcDbDictionary
281
     1
  3
Standard
350
18
  0
DICTIONARY
  5
19
102
{ACAD_REACTORS
330
C
102
}
330
C
100
AcDbDictionary
281
     1
  0
ACDBDICTIONARYWDFLT
  5
E
102
{ACAD_REACTORS
330
C
102
}
330
C
100
AcDbDictionary
281
     1
  3
Normal
350
F
100
AcDbDictionaryWithDefault
340
F
  0
DICTIONARY
  5
F6
102
{ACAD_REACTORS
330
C
102
}
330
C
100
AcDbDictionary
281
     1
  0
DICTIONARY
  5
2A
102
{ACAD_REACTORS
330
C
102
}
330
C
100
AcDbDictionary
281
     1
  3
2dWireframe
350
2F
  3
3D Hidden
350
31
  3
3dWireframe
350
30
  3
Basic
350
32
  3
Brighten
350
36
  3
ColorChange
350
3A
  3
Conceptual
350
34
  3
Dim
350
35
  3
Facepattern
350
39
  3
Flat
350
2B
  3
FlatWithEdges
350
2C
  3
Gouraud
350
2D
  3
GouraudWithEdges
350
2E
  3
Linepattern
350
38
  3
Realistic
350
33
  3
Thicken
350
37
  0
LAYOUT
  5
1E
102
{ACAD_REACTORS
330
1A
102
}
330
1A
100
AcDbPlotSettings
  1

  2
none_device
  4

  6

 40
0.0
 41
0.0
 42
0.0
 43
0.0
 44
0.0
 45
0.0
 46
0.0
 47
0.0
 48
0.0
 49
0.0
140
0.0
141
0.0
142
1.0
143
1.0
 70
   688
 72
     0
 73
     0
 74
     5
  7

 75
    16
147
1.0
148
0.0
149
0.0
100
AcDbLayout
  1
Layout1
 70
     1
 71
     1
 10
0.0
 20
0.0
 11
12.0
 21
9.0
 12
0.0
 22
0.0
 32
0.0
 14
1.00000000000000E+20
 24
1.00000000000000E+20
 34
1.00000000000000E+20
 15
-1.00000000000000E+20
 25
-1.00000000000000E+20
 35
-1.00000000000000E+20
146
0.0
 13
0.0
 23
0.0
 33
0.0
 16
1.0
 26
0.0
 36
0.0
 17
0.0
 27
1.0
 37
0.0
 76
     0
330
1B
  0
LAYOUT
  5
26
102
{ACAD_REACTORS
330
1A
102
}
330
1A
100
AcDbPlotSettings
  1

  2
none_device
  4

  6

 40
0.0
 41
0.0
 42
0.0
 43
0.0
 44
0.0
 45
0.0
 46
0.0
 47
0.0
 48
0.0
 49
0.0
140
0.0
141
0.0
142
1.0
143
1.0
 70
   688
 72
     0
 73
     0
 74
     5
  7

 75
    16
147
1.0
148
0.0
149
0.0
100
AcDbLayout
  1
Layout2
 70
     1
 71
     2
 10
0.0
 20
0.0
 11
0.0
 21
0.0
 12
0.0
 22
0.0
 32
0.0
 14
0.0
 24
0.0
 34
0.0
 15
0.0
 25
0.0
 35
0.0
146
0.0
 13
0.0
 23
0.0
 33
0.0
 16
1.0
 26
0.0
 36
0.0
 17
0.0
 27
1.0
 37
0.0
 76
     0
330
23
  0
LAYOUT
  5
22
102
{ACAD_REACTORS
330
1A
102
}
330
1A
100
AcDbPlotSettings
  1

  2
none_device
  4

  6

 40
0.0
 41
0.0
 42
0.0
 43
0.0
 44
0.0
 45
0.0
 46
0.0
 47
0.0
 48
0.0
 49
0.0
140
0.0
141
0.0
142
1.0
143
1.0
 70
  1712
 72
     0
 73
     0
 74
     0
  7

 75
     0
147
1.0
148
0.0
149
0.0
100
AcDbLayout
  1
Model
 70
     1
 71
     0
 10
0.0
 20
0.0
 11
12.0
 21
9.0
 12
0.0
 22
0.0
 32
0.0
 14
-102.3
 24
-246.3052864401071
 34
0.0
 15
128.502769216881
 25
431.811529660617
 35
0.0
146
0.0
 13
0.0
 23
0.0
 33
0.0
 16
1.0
 26
0.0
 36
0.0
 17
0.0
 27
1.0
 37
0.0
 76
     0
330
1F
331
29
  0
MLINESTYLE
  5
18
102
{ACAD_REACTORS
330
17
102
}
330
17
100
AcDbMlineStyle
  2
Standard
 70
     0
  3

 62
   256
 51
90.0
 52
90.0
 71
     2
 49
0.5
 62
   256
  6
BYLAYER
 49
-0.5
 62
   256
  6
BYLAYER
  0
ACDBPLACEHOLDER
  5
F
102
{ACAD_REACTORS
330
E
102
}
330
E
  0
VISUALSTYLE
  5
2F
102
{ACAD_REACTORS
330
2A
102
}
330
2A
100
AcDbVisualStyle
  2
2dWireframe
 70
     4
 71
     0
 72
     2
 73
     0
 90
        0
 40
-0.6
 41
-30.0
 62
     5
 63
     7
 74
     1
 91
        4
 64
     7
 65
   257
 75
     1
175
     1
 42
1.0
 92
        0
 66
   257
 43
1.0
 76
     1
 77
     6
 78
     2
 67
     7
 79
     5
170
     0
171
     0
290
     0
174
     0
 93
        1
 44
0.0
173
     0
291
     0
 45
0.0
1001
ACAD
1000
AcDbSavedByObjectVersion
1070
     0
  0
VISUALSTYLE
  5
31
102
{ACAD_REACTORS
330
2A
102
}
330
2A
100
AcDbVisualStyle
  2
3D Hidden
 70
     6
 71
     1
 72
     2
 73
     2
 90
        0
 40
-0.6
 41
-30.0
 62
     5
 63
     7
 74
     2
 91
        2
 64
     7
 65
   257
 75
     2
175
     1
 42
40.0
 92
        0
 66
   257
 43
1.0
 76
     1
 77
     6
 78
     2
 67
     7
 79
     3
170
     0
171
     0
290
     0
174
     0
 93
        1
 44
0.0
173
     0
291
     0
 45
0.0
1001
ACAD
1000
AcDbSavedByObjectVersion
1070
     0
  0
VISUALSTYLE
  5
30
102
{ACAD_REACTORS
330
2A
102
}
330
2A
100
AcDbVisualStyle
  2
3dWireframe
 70
     5
 71
     0
 72
     2
 73
     0
 90
        0
 40
-0.6
 41
-30.0
 62
     5
 63
     7
 74
     1
 91
        4
 64
     7
 65
   257
 75
     1
175
     1
 42
1.0
 92
        0
 66
   257
 43
1.0
 76
     1
 77
     6
 78
     2
 67
     7
 79
     5
170
     0
171
     0
290
     0
174
     0
 93
        1
 44
0.0
173
     0
291
     0
 45
0.0
1001
ACAD
1000
AcDbSavedByObjectVersion
1070
     0
  0
VISUALSTYLE
  5
32
102
{ACAD_REACTORS
330
2A
102
}
330
2A
100
AcDbVisualStyle
  2
Basic
 70
     7
 71
     1
 72
     0
 73
     1
 90
        0
 40
-0.6
 41
-30.0
 62
     5
 63
     7
 74
     0
 91
        4
 64
     7
 65
   257
 75
     1
175
     1
 42
1.0
 92
        8
 66
     7
 43
1.0
 76
     1
 77
     6
 78
     2
 67
     7
 79
     5
170
     0
171
     0
290
     0
174
     0
 93
        1
 44
0.0
173
     0
291
     1
 45
0.0
1001
ACAD
1000
AcDbSavedByObjectVersion
1070
     0
  0
VISUALSTYLE
  5
36
102
{ACAD_REACTORS
330
2A
102
}
330
2A
100
AcDbVisualStyle
  2
Brighten
 70
    12
 71
     2
 72
     2
 73
     0
 90
        0
 40
-0.6
 41
-30.0
 62
     5
 63
     7
 74
     1
 91
        4
 64
     7
 65
   257
 75
     1
175
     1
 42
1.0
 92
        8
 66
     7
 43
1.0
 76
     1
 77
     6
 78
     2
 67
     7
 79
     5
170
     0
171
     0
290
     0
174
     0
 93
        1
 44
50.0
173
     0
291
     1
 45
0.0
1001
ACAD
1000
AcDbSavedByObjectVersion
1070
     0
  0
VISUALSTYLE
  5
3A
102
{ACAD_REACTORS
330
2A
102
}
330
2A
100
AcDbVisualStyle
  2
ColorChange
 70
    16
 71
     2
 72
     2
 73
     3
 90
        0
 40
-0.6
 41
-30.0
 62
     5
 63
     8
 74
     1
 91
        4
 64
     7
 65
   257
 75
     1
175
     1
 42
1.0
 92
        8
 66
     8
 43
1.0
 76
     1
 77
     6
 78
     2
 67
     7
 79
     5
170
     0
171
     0
290
     0
174
     0
 93
        1
 44
0.0
173
     0
291
     1
 45
0.0
1001
ACAD
1000
AcDbSavedByObjectVersion
1070
     0
  0
VISUALSTYLE
  5
34
102
{ACAD_REACTORS
330
2A
102
}
330
2A
100
AcDbVisualStyle
  2
Conceptual
 70
     9
 71
     3
 72
     2
 73
     0
 90
        0
 40
-0.6
 41
-30.0
 62
     5
 63
     7
 74
     2
 91
        2
 64
     7
 65
   257
 75
     1
175
     1
 42
40.0
 92
        8
 66
     7
 43
1.0
 76
     1
 77
     6
 78
     2
 67
     7
 79
     3
170
     0
171
     0
290
     0
174
     0
 93
        1
 44
0.0
173
     0
291
     0
 45
0.0
1001
ACAD
1000
AcDbSavedByObjectVersion
1070
     0
  0
VISUALSTYLE
  5
35
102
{ACAD_REACTORS
330
2A
102
}
330
2A
100
AcDbVisualStyle
  2
Dim
 70
    11
 71
     2
 72
     2
 73
     0
 90
        0
 40
-0.6
 41
-30.0
 62
     5
 63
     7
 74
     1
 91
        4
 64
     7
 65
   257
 75
     1
175
     1
 42
1.0
 92
        8
 66
     7
 43
1.0
 76
     1
 77
     6
 78
     2
 67
     7
 79
     5
170
     0
171
     0
290
     0
174
     0
 93
        1
 44
-50.0
173
     0
291
     1
 45
0.0
1001
ACAD
1000
AcDbSavedByObjectVersion
1070
     0
  0
VISUALSTYLE
  5
39
102
{ACAD_REACTORS
330
2A
102
}
330
2A
100
AcDbVisualStyle
  2
Facepattern
 70
    15
 71
     2
 72
     2
 73
     0
 90
        0
 40
-0.6
 41
-30.0
 62
     5
 63
     7
 74
     1
 91
        4
 64
     7
 65
   257
 75
     1
175
     1
 42
1.0
 92
        8
 66
     7
 43
1.0
 76
     1
 77
     6
 78
     2
 67
     7
 79
     5
170
     0
171
     0
290
     0
174
     0
 93
        1
 44
0.0
173
     0
291
     1
 45
0.0
1001
ACAD
1000
AcDbSavedByObjectVersion
1070
     0
  0
VISUALSTYLE
  5
2B
102
{ACAD_REACTORS
330
2A
102
}
330
2A
100
AcDbVisualStyle
  2
Flat
 70
     0
 71
     2
 72
     1
 73
     1
 90
        2
 40
-0.6
 41
30.0
 62
     5
 63
     7
 74
     0
 91
        4
 64
     7
 65
   257
 75
     1
175
     1
 42
1.0
 92
        8
 66
     7
 43
1.0
 76
     1
 77
     6
 78
     2
 67
     7
 79
     5
170
     0
171
     0
290
     0
174
     0
 93
       13
 44
0.0
173
     0
291
     1
 45
0.0
1001
ACAD
1000
AcDbSavedByObjectVersion
1070
     0
  0
VISUALSTYLE
  5
2C
102
{ACAD_REACTORS
330
2A
102
}
330
2A
100
AcDbVisualStyle
  2
FlatWithEdges
 70
     1
 71
     2
 72
     1
 73
     1
 90
        2
 40
-0.6
 41
30.0
 62
     5
 63
     7
 74
     1
 91
        4
 64
     7
 65
   257
 75
     1
175
     1
 42
1.0
 92
        0
 66
   257
 43
1.0
 76
     1
 77
     6
 78
     2
 67
     7
 79
     5
170
     0
171
     0
290
     0
174
     0
 93
       13
 44
0.0
173
     0
291
     1
 45
0.0
1001
ACAD
1000
AcDbSavedByObjectVersion
1070
     0
  0
VISUALSTYLE
  5
2D
102
{ACAD_REACTORS
330
2A
102
}
330
2A
100
AcDbVisualStyle
  2
Gouraud
 70
     2
 71
     2
 72
     2
 73
     1
 90
        2
 40
-0.6
 41
30.0
 62
     5
 63
     7
 74
     0
 91
        4
 64
     7
 65
   257
 75
     1
175
     1
 42
1.0
 92
        0
 66
     7
 43
1.0
 76
     1
 77
     6
 78
     2
 67
     7
 79
     5
170
     0
171
     0
290
     0
174
     0
 93
       13
 44
0.0
173
     0
291
     1
 45
0.0
1001
ACAD
1000
AcDbSavedByObjectVersion
1070
     0
  0
VISUALSTYLE
  5
2E
102
{ACAD_REACTORS
330
2A
102
}
330
2A
100
AcDbVisualStyle
  2
GouraudWithEdges
 70
     3
 71
     2
 72
     2
 73
     1
 90
        2
 40
-0.6
 41
30.0
 62
     5
 63
     7
 74
     1
 91
        4
 64
     7
 65
   257
 75
     1
175
     1
 42
1.0
 92
        0
 66
   257
 43
1.0
 76
     1
 77
     6
 78
     2
 67
     7
 79
     5
170
     0
171
     0
290
     0
174
     0
 93
       13
 44
0.0
173
     0
291
     1
 45
0.0
1001
ACAD
1000
AcDbSavedByObjectVersion
1070
     0
  0
VISUALSTYLE
  5
38
102
{ACAD_REACTORS
330
2A
102
}
330
2A
100
AcDbVisualStyle
  2
Linepattern
 70
    14
 71
     2
 72
     2
 73
     0
 90
        0
 40
-0.6
 41
-30.0
 62
     5
 63
     7
 74
     1
 91
        4
 64
     7
 65
   257
 75
     7
175
     7
 42
1.0
 92
        8
 66
     7
 43
1.0
 76
     1
 77
     6
 78
     2
 67
     7
 79
     5
170
     0
171
     0
290
     0
174
     0
 93
        1
 44
0.0
173
     0
291
     1
 45
0.0
1001
ACAD
1000
AcDbSavedByObjectVersion
1070
     0
  0
VISUALSTYLE
  5
33
102
{ACAD_REACTORS
330
2A
102
}
330
2A
100
AcDbVisualStyle
  2
Realistic
 70
     8
 71
     2
 72
     2
 73
     0
 90
        0
 40
-0.6
 41
-30.0
 62
     5
 63
     7
 74
     1
 91
        0
 64
     7
 65
   257
 75
     1
175
     1
 42
1.0
 92
        8
 66
     8
 43
1.0
 76
     1
 77
     6
 78
     2
 67
     7
 79
     5
170
     0
171
     0
290
     0
174
     0
 93
       13
 44
0.0
173
     0
291
     0
 45
0.0
1001
ACAD
1000
AcDbSavedByObjectVersion
1070
     0
  0
VISUALSTYLE
  5
37
102
{ACAD_REACTORS
330
2A
102
}
330
2A
100
AcDbVisualStyle
  2
Thicken
 70
    13
 71
     2
 72
     2
 73
     0
 90
        0
 40
-0.6
 41
-30.0
 62
     5
 63
     7
 74
     1
 91
        4
 64
     7
 65
   257
 75
     1
175
     1
 42
1.0
 92
       12
 66
     7
 43
1.0
 76
     1
 77
     6
 78
     2
 67
     7
 79
     5
170
     0
171
     0
290
     0
174
     0
 93
        1
 44
0.0
173
     0
291
     1
 45
0.0
1001
ACAD
1000
AcDbSavedByObjectVersion
1070
     0
  0
ENDSEC
  0
EOF
