  0
SECTION
  2
HEADER
  9
$ACADVER
  1
AC1032
  9
$ACADMAINTVER
 90
       55
  9
$DWGCODEPAGE
  3
ANSI_1252
  9
$LASTSAVEDBY
  1
SYSTEM
  9
$REQUIREDVERSIONS
160
                 0
  9
$INSBASE
 10
0.0
 20
0.0
 30
0.0
  9
$EXTMIN
 10
-272.0001845521407
 20
-240.8066270725313
 30
0.0
  9
$EXTMAX
 10
250.0000283411146
 20
135.8609944256872
 30
0.0
  9
$LIMMIN
 10
0.0
 20
0.0
  9
$LIMMAX
 10
12.0
 20
9.0
  9
$ORTHOMODE
 70
     0
  9
$REGENMODE
 70
     1
  9
$FILLMODE
 70
     1
  9
$QTEXTMODE
 70
     0
  9
$MIRRTEXT
 70
     1
  9
$LTSCALE
 40
1.0
  9
$ATTMODE
 70
     1
  9
$TEXTSIZE
 40
0.2
  9
$TRACEWID
 40
0.05
  9
$TEXTSTYLE
  7
Standard
  9
$CLAYER
  8
0
  9
$CELTYPE
  6
ByLayer
  9
$CECOLOR
 62
   256
  9
$CELTSCALE
 40
1.0
  9
$DISPSILH
 70
     0
  9
$DIMSCALE
 40
1.0
  9
$DIMASZ
 40
0.18
  9
$DIMEXO
 40
0.0625
  9
$DIMDLI
 40
0.38
  9
$DIMRND
 40
0.0
  9
$DIMDLE
 40
0.0
  9
$DIMEXE
 40
0.18
  9
$DIMTP
 40
0.0
  9
$DIMTM
 40
0.0
  9
$DIMTXT
 40
0.18
  9
$DIMCEN
 40
0.09
  9
$DIMTSZ
 40
0.0
  9
$DIMTOL
 70
     0
  9
$DIMLIM
 70
     0
  9
$DIMTIH
 70
     1
  9
$DIMTOH
 70
     1
  9
$DIMSE1
 70
     0
  9
$DIMSE2
 70
     0
  9
$DIMTAD
 70
     0
  9
$DIMZIN
 70
     0
  9
$DIMBLK
  1

  9
$DIMASO
 70
     1
  9
$DIMSHO
 70
     1
  9
$DIMPOST
  1

  9
$DIMAPOST
  1

  9
$DIMALT
 70
     0
  9
$DIMALTD
 70
     2
  9
$DIMALTF
 40
25.4
  9
$DIMLFAC
 40
1.0
  9
$DIMTOFL
 70
     0
  9
$DIMTVP
 40
0.0
  9
$DIMTIX
 70
     0
  9
$DIMSOXD
 70
     0
  9
$DIMSAH
 70
     0
  9
$DIMBLK1
  1

  9
$DIMBLK2
  1

  9
$DIMSTYLE
  2
Standard
  9
$DIMCLRD
 70
     0
  9
$DIMCLRE
 70
     0
  9
$DIMCLRT
 70
     0
  9
$DIMTFAC
 40
1.0
  9
$DIMGAP
 40
0.09
  9
$DIMJUST
 70
     0
  9
$DIMSD1
 70
     0
  9
$DIMSD2
 70
     0
  9
$DIMTOLJ
 70
     1
  9
$DIMTZIN
 70
     0
  9
$DIMALTZ
 70
     0
  9
$DIMALTTZ
 70
     0
  9
$DIMUPT
 70
     0
  9
$DIMDEC
 70
     4
  9
$DIMTDEC
 70
     4
  9
$DIMALTU
 70
     2
  9
$DIMALTTD
 70
     2
  9
$DIMTXSTY
  7
Standard
  9
$DIMAUNIT
 70
     0
  9
$DIMADEC
 70
     0
  9
$DIMALTRND
 40
0.0
  9
$DIMAZIN
 70
     0
  9
$DIMDSEP
 70
    46
  9
$DIMATFIT
 70
     3
  9
$DIMFRAC
 70
     0
  9
$DIMLDRBLK
  1

  9
$DIMLUNIT
 70
     2
  9
$DIMLWD
 70
    -2
  9
$DIMLWE
 70
    -2
  9
$DIMTMOVE
 70
     0
  9
$DIMFXL
 40
1.0
  9
$DIMFXLON
 70
     0
  9
$DIMJOGANG
 40
0.78539816339745
  9
$DIMTFILL
 70
     0
  9
$DIMTFILLCLR
 70
     0
  9
$DIMARCSYM
 70
     0
  9
$DIMLTYPE
  6

  9
$DIMLTEX1
  6

  9
$DIMLTEX2
  6

  9
$DIMTXTDIRECTION
 70
     0
  9
$LUNITS
 70
     2
  9
$LUPREC
 70
     4
  9
$SKETCHINC
 40
0.1
  9
$FILLETRAD
 40
0.0
  9
$AUNITS
 70
     0
  9
$AUPREC
 70
     0
  9
$MENU
  1
.
  9
$ELEVATION
 40
0.0
  9
$PELEVATION
 40
0.0
  9
$THICKNESS
 40
0.0
  9
$LIMCHECK
 70
     0
  9
$CHAMFERA
 40
0.0
  9
$CHAMFERB
 40
0.0
  9
$CHAMFERC
 40
0.0
  9
$CHAMFERD
 40
0.0
  9
$SKPOLY
 70
     0
  9
$TDCREATE
 40
2460480.336154236
  9
$TDUCREATE
 40
2460480.252820903
  9
$TDUPDATE
 40
2460480.336154317
  9
$TDUUPDATE
 40
2460480.252820984
  9
$TDINDWG
 40
0.0000000116
  9
$TDUSRTIMER
 40
0.0000000116
  9
$USRTIMER
 70
     1
  9
$ANGBASE
 50
0.0
  9
$ANGDIR
 70
     0
  9
$PDMODE
 70
     0
  9
$PDSIZE
 40
0.0
  9
$PLINEWID
 40
0.0
  9
$SPLFRAME
 70
     0
  9
$SPLINETYPE
 70
     6
  9
$SPLINESEGS
 70
     8
  9
$HANDSEED
  5
210
  9
$SURFTAB1
 70
     6
  9
$SURFTAB2
 70
     6
  9
$SURFTYPE
 70
     6
  9
$SURFU
 70
     6
  9
$SURFV
 70
     6
  9
$UCSBASE
  2

  9
$UCSNAME
  2

  9
$UCSORG
 10
0.0
 20
0.0
 30
0.0
  9
$UCSXDIR
 10
1.0
 20
0.0
 30
0.0
  9
$UCSYDIR
 10
0.0
 20
1.0
 30
0.0
  9
$UCSORTHOREF
  2

  9
$UCSORTHOVIEW
 70
     0
  9
$UCSORGTOP
 10
0.0
 20
0.0
 30
0.0
  9
$UCSORGBOTTOM
 10
0.0
 20
0.0
 30
0.0
  9
$UCSORGLEFT
 10
0.0
 20
0.0
 30
0.0
  9
$UCSORGRIGHT
 10
0.0
 20
0.0
 30
0.0
  9
$UCSORGFRONT
 10
0.0
 20
0.0
 30
0.0
  9
$UCSORGBACK
 10
0.0
 20
0.0
 30
0.0
  9
$PUCSBASE
  2

  9
$PUCSNAME
  2

  9
$PUCSORG
 10
0.0
 20
0.0
 30
0.0
  9
$PUCSXDIR
 10
1.0
 20
0.0
 30
0.0
  9
$PUCSYDIR
 10
0.0
 20
1.0
 30
0.0
  9
$PUCSORTHOREF
  2

  9
$PUCSORTHOVIEW
 70
     0
  9
$PUCSORGTOP
 10
0.0
 20
0.0
 30
0.0
  9
$PUCSORGBOTTOM
 10
0.0
 20
0.0
 30
0.0
  9
$PUCSORGLEFT
 10
0.0
 20
0.0
 30
0.0
  9
$PUCSORGRIGHT
 10
0.0
 20
0.0
 30
0.0
  9
$PUCSORGFRONT
 10
0.0
 20
0.0
 30
0.0
  9
$PUCSORGBACK
 10
0.0
 20
0.0
 30
0.0
  9
$USERI1
 70
     0
  9
$USERI2
 70
     0
  9
$USERI3
 70
     0
  9
$USERI4
 70
     0
  9
$USERI5
 70
     0
  9
$USERR1
 40
20.7
  9
$USERR2
 40
0.0
  9
$USERR3
 40
0.0
  9
$USERR4
 40
0.0
  9
$USERR5
 40
0.0
  9
$WORLDVIEW
 70
     1
  9
$SHADEDGE
 70
     3
  9
$SHADEDIF
 70
    70
  9
$TILEMODE
 70
     1
  9
$MAXACTVP
 70
    64
  9
$PINSBASE
 10
0.0
 20
0.0
 30
0.0
  9
$PLIMCHECK
 70
     0
  9
$PEXTMIN
 10
1.00000000000000E+20
 20
1.00000000000000E+20
 30
1.00000000000000E+20
  9
$PEXTMAX
 10
-1.00000000000000E+20
 20
-1.00000000000000E+20
 30
-1.00000000000000E+20
  9
$PLIMMIN
 10
0.0
 20
0.0
  9
$PLIMMAX
 10
12.0
 20
9.0
  9
$UNITMODE
 70
     0
  9
$VISRETAIN
 70
     1
  9
$PLINEGEN
 70
     0
  9
$PSLTSCALE
 70
     1
  9
$TREEDEPTH
 70
  3020
  9
$CMLSTYLE
  2
Standard
  9
$CMLJUST
 70
     0
  9
$CMLSCALE
 40
1.0
  9
$PROXYGRAPHICS
 70
     1
  9
$MEASUREMENT
 70
     1
  9
$CELWEIGHT
370
    -1
  9
$ENDCAPS
280
     0
  9
$JOINSTYLE
280
     0
  9
$LWDISPLAY
290
     0
  9
$INSUNITS
 70
     4
  9
$HYPERLINKBASE
  1

  9
$STYLESHEET
  1

  9
$XEDIT
290
     1
  9
$CEPSNTYPE
380
     0
  9
$PSTYLEMODE
290
     1
  9
$FINGERPRINTGUID
  2
{6c545313-108d-433f-aee3-f23f7d0466a9}
  9
$VERSIONGUID
  2
{FAEB1C32-E019-11D5-929B-00C0DF256EC4}
  9
$EXTNAMES
290
     1
  9
$PSVPSCALE
 40
0.0
  9
$OLESTARTUP
290
     0
  9
$SORTENTS
280
   127
  9
$INDEXCTL
280
     0
  9
$HIDETEXT
280
     1
  9
$XCLIPFRAME
280
     2
  9
$HALOGAP
280
     0
  9
$OBSCOLOR
 70
   257
  9
$OBSLTYPE
280
     0
  9
$INTERSECTIONDISPLAY
280
     0
  9
$INTERSECTIONCOLOR
 70
   257
  9
$DIMASSOC
280
     2
  9
$PROJECTNAME
  1

  9
$CAMERADISPLAY
290
     0
  9
$LENSLENGTH
 40
50.0
  9
$CAMERAHEIGHT
 40
0.0
  9
$STEPSPERSEC
 40
2.0
  9
$STEPSIZE
 40
6.0
  9
$3DDWFPREC
 40
2.0
  9
$PSOLWIDTH
 40
0.25
  9
$PSOLHEIGHT
 40
4.0
  9
$LOFTANG1
 40
1.5707963267949
  9
$LOFTANG2
 40
1.5707963267949
  9
$LOFTMAG1
 40
0.0
  9
$LOFTMAG2
 40
0.0
  9
$LOFTPARAM
 70
     7
  9
$LOFTNORMALS
280
     1
  9
$LATITUDE
 40
37.795
  9
$LONGITUDE
 40
-122.394
  9
$NORTHDIRECTION
 40
0.0
  9
$TIMEZONE
 70
 -8000
  9
$LIGHTGLYPHDISPLAY
280
     1
  9
$TILEMODELIGHTSYNCH
280
     1
  9
$CMATERIAL
347
44
  9
$SOLIDHIST
280
     0
  9
$SHOWHIST
280
     1
  9
$DWFFRAME
280
     2
  9
$DGNFRAME
280
     2
  9
$REALWORLDSCALE
290
     1
  9
$INTERFERECOLOR
 62
   256
  9
$CSHADOW
280
     0
  9
$SHADOWPLANELOCATION
 40
0.0
  0
ENDSEC
  0
SECTION
  2
CLASSES
  0
CLASS
  1
ACDBDICTIONARYWDFLT
  2
AcDbDictionaryWithDefault
  3
ObjectDBX Classes
 90
        0
 91
        3
280
     0
281
     0
  0
CLASS
  1
VISUALSTYLE
  2
AcDbVisualStyle
  3
ObjectDBX Classes
 90
     4095
 91
        3
280
     0
281
     0
  0
CLASS
  1
MATERIAL
  2
AcDbMaterial
  3
ObjectDBX Classes
 90
     1153
 91
        3
280
     0
281
     0
  0
CLASS
  1
SCALE
  2
AcDbScale
  3
ObjectDBX Classes
 90
     1153
 91
        3
280
     0
281
     0
  0
CLASS
  1
TABLESTYLE
  2
AcDbTableStyle
  3
ObjectDBX Classes
 90
     4095
 91
        3
280
     0
281
     0
  0
CLASS
  1
MLEADERSTYLE
  2
AcDbMLeaderStyle
  3
ACDB_MLEADERSTYLE_CLASS
 90
     4095
 91
        3
280
     0
281
     0
  0
CLASS
  1
SUN
  2
AcDbSun
  3
SCENEOE
 90
     1153
 91
        3
280
     0
281
     0
  0
CLASS
  1
DICTIONARYVAR
  2
AcDbDictionaryVar
  3
ObjectDBX Classes
 90
        0
 91
        3
280
     0
281
     0
  0
CLASS
  1
CELLSTYLEMAP
  2
AcDbCellStyleMap
  3
ObjectDBX Classes
 90
     1152
 91
        3
280
     0
281
     0
  0
ENDSEC
  0
SECTION
  2
TABLES
  0
TABLE
  2
VPORT
  5
8
330
0
100
AcDbSymbolTable
 70
     1
  0
VPORT
  5
29
330
8
100
AcDbSymbolTableRecord
100
AcDbViewportTableRecord
  2
*Active
 70
     0
 10
0.0
 20
0.0
 11
1.0
 21
1.0
 12
-11.00007810551305
 22
-52.47281632342205
 13
0.0
 23
0.0
 14
0.5
 24
0.5
 15
0.5
 25
0.5
 16
0.0
 26
0.0
 36
1.0
 17
0.0
 27
0.0
 37
0.0
 40
414.3343836480404
 41
1.60267857142857
 42
50.0
 43
0.0
 44
0.0
 50
0.0
 51
0.0
 71
     0
 72
   100
 73
     1
 74
     3
 75
     0
 76
     0
 77
     0
 78
     0
281
     0
 65
     1
110
0.0
120
0.0
130
0.0
111
1.0
121
0.0
131
0.0
112
0.0
122
1.0
132
0.0
 79
     0
146
0.0
348
2F
 60
     3
 61
     5
292
     1
282
     1
141
0.0
142
0.0
 63
   250
361
5D
  0
ENDTAB
  0
TABLE
  2
LTYPE
  5
5
330
0
100
AcDbSymbolTable
 70
     9
  0
LTYPE
  5
14
330
5
100
AcDbSymbolTableRecord
100
AcDbLinetypeTableRecord
  2
ByBlock
 70
     0
  3

 72
    65
 73
     0
 40
0.0
  0
LTYPE
  5
15
330
5
100
AcDbSymbolTableRecord
100
AcDbLinetypeTableRecord
  2
ByLayer
 70
     0
  3

 72
    65
 73
     0
 40
0.0
  0
LTYPE
  5
16
330
5
100
AcDbSymbolTableRecord
100
AcDbLinetypeTableRecord
  2
Continuous
 70
     0
  3
Solid line
 72
    65
 73
     0
 40
0.0
  0
LTYPE
  5
5E
330
5
100
AcDbSymbolTableRecord
100
AcDbLinetypeTableRecord
  2
DASHED
 70
     0
  3
Dashed
 72
    65
 73
     2
 40
15.0
 49
7.0
 74
     0
 49
-8.0
 74
     0
  0
LTYPE
  5
5F
330
5
100
AcDbSymbolTableRecord
100
AcDbLinetypeTableRecord
  2
DOTTED
 70
     0
  3
Dotted
 72
    65
 73
     2
 40
1.0
 49
0.0
 74
     0
 49
-1.0
 74
     0
  0
LTYPE
  5
60
330
5
100
AcDbSymbolTableRecord
100
AcDbLinetypeTableRecord
  2
DOT_CENTER
 70
     0
  3
Dot_Center
 72
    65
 73
     4
 40
14.0
 49
12.0
 74
     0
 49
-1.0
 74
     0
 49
0.0
 74
     0
 49
-1.0
 74
     0
  0
LTYPE
  5
61
330
5
100
AcDbSymbolTableRecord
100
AcDbLinetypeTableRecord
  2
LONG_DASHED
 70
     0
  3
Long_Dashed
 72
    65
 73
     2
 40
15.0
 49
10.0
 74
     0
 49
-5.0
 74
     0
  0
LTYPE
  5
62
330
5
100
AcDbSymbolTableRecord
100
AcDbLinetypeTableRecord
  2
DASH_CENTER
 70
     0
  3
Dash_Center
 72
    65
 73
     4
 40
14.0
 49
11.0
 74
     0
 49
-1.0
 74
     0
 49
1.0
 74
     0
 49
-1.0
 74
     0
  0
LTYPE
  5
63
330
5
100
AcDbSymbolTableRecord
100
AcDbLinetypeTableRecord
  2
PHANTOM
 70
     0
  3
Phantom
 72
    65
 73
     6
 40
13.0
 49
10.0
 74
     0
 49
-1.0
 74
     0
 49
0.0
 74
     0
 49
-1.0
 74
     0
 49
0.0
 74
     0
 49
-1.0
 74
     0
  0
LTYPE
  5
64
330
5
100
AcDbSymbolTableRecord
100
AcDbLinetypeTableRecord
  2
CENTER_DASH_DASH
 70
     0
  3
Center_Dash_Dash
 72
    65
 73
     6
 40
14.0
 49
9.0
 74
     0
 49
-1.0
 74
     0
 49
1.0
 74
     0
 49
-1.0
 74
     0
 49
1.0
 74
     0
 49
-1.0
 74
     0
  0
LTYPE
  5
65
330
5
100
AcDbSymbolTableRecord
100
AcDbLinetypeTableRecord
  2
DASHDOT
 70
     0
  3
DASHDOT
 72
    65
 73
     4
 40
16.0
 49
10.0
 74
     0
 49
-3.0
 74
     0
 49
0.0
 74
     0
 49
-3.0
 74
     0
  0
ENDTAB
  0
TABLE
  2
LAYER
  5
2
330
0
100
AcDbSymbolTable
 70
     8
  0
LAYER
  5
10
330
2
100
AcDbSymbolTableRecord
100
AcDbLayerTableRecord
  2
0
 70
     0
 62
     7
  6
Continuous
370
    -3
390
F
347
46
348
0
  0
LAYER
  5
66
330
2
100
AcDbSymbolTableRecord
100
AcDbLayerTableRecord
  2
1
 70
     0
 62
     7
  6
Continuous
370
    -3
390
F
347
46
348
0
  0
LAYER
  5
67
330
2
100
AcDbSymbolTableRecord
100
AcDbLayerTableRecord
  2
LC-001-002-----0
 70
     0
 62
     7
  6
Continuous
370
    -3
390
F
347
46
348
0
  0
LAYER
  5
68
330
2
100
AcDbSymbolTableRecord
100
AcDbLayerTableRecord
  2
LC-002-002-RND-0
 70
     0
 62
     7
  6
Continuous
370
    -3
390
F
347
46
348
0
  0
LAYER
  5
69
330
2
100
AcDbSymbolTableRecord
100
AcDbLayerTableRecord
  2
LC-003-001-----0
 70
     0
 62
     7
  6
Continuous
370
    -3
390
F
347
46
348
0
  0
LAYER
  5
6A
330
2
100
AcDbSymbolTableRecord
100
AcDbLayerTableRecord
  2
LC-003-002-----0
 70
     0
 62
     7
  6
Continuous
370
    -3
390
F
347
46
348
0
  0
LAYER
  5
6B
330
2
100
AcDbSymbolTableRecord
100
AcDbLayerTableRecord
  2
LC-004-001-RND-0
 70
     0
 62
     7
  6
Continuous
370
    -3
390
F
347
46
348
0
  0
LAYER
  5
6C
330
2
100
AcDbSymbolTableRecord
100
AcDbLayerTableRecord
  2
LC-009-002-RND-0
 70
     0
 62
     7
  6
Continuous
370
    -3
390
F
347
46
348
0
  0
ENDTAB
  0
TABLE
  2
STYLE
  5
3
330
0
100
AcDbSymbolTable
 70
     2
  0
STYLE
  5
11
330
3
100
AcDbSymbolTableRecord
100
AcDbTextStyleTableRecord
  2
Standard
 70
     0
 40
0.0
 41
1.0
 50
0.0
 71
     0
 42
0.2
  3
txt
  4

  0
STYLE
  5
1B1
330
3
100
AcDbSymbolTableRecord
100
AcDbTextStyleTableRecord
  2
CONVERTER_11
 70
     0
 40
0.0
 41
0.9
 50
0.0
 71
     0
 42
0.2
  3
txt.shx
  4

  0
ENDTAB
  0
TABLE
  2
VIEW
  5
6
330
0
100
AcDbSymbolTable
 70
     0
  0
ENDTAB
  0
TABLE
  2
UCS
  5
7
330
0
100
AcDbSymbolTable
 70
     0
  0
ENDTAB
  0
TABLE
  2
APPID
  5
9
330
0
100
AcDbSymbolTable
 70
     1
  0
APPID
  5
12
330
9
100
AcDbSymbolTableRecord
100
AcDbRegAppTableRecord
  2
ACAD
 70
     0
  0
ENDTAB
  0
TABLE
  2
DIMSTYLE
  5
A
330
0
100
AcDbSymbolTable
 70
     9
100
AcDbDimStyleTable
  0
DIMSTYLE
105
27
330
A
100
AcDbSymbolTableRecord
100
AcDbDimStyleTableRecord
  2
Standard
 70
     0
178
     0
340
11
  0
DIMSTYLE
105
1B5
102
{ACAD_REACTORS
330
1B6
102
}
330
A
100
AcDbSymbolTableRecord
100
AcDbDimStyleTableRecord
  2
ME10_DIM_10
 70
     0
 41
10.0
 42
0.0
 44
2.0
 73
     0
 74
     0
 77
     1
 78
     8
140
10.0
147
2.0
172
     1
173
     1
174
     1
175
     1
176
     4
177
     4
271
     2
178
     1
271
     2
340
1B1
  0
DIMSTYLE
105
1C0
102
{ACAD_REACTORS
330
1C1
102
}
330
A
100
AcDbSymbolTableRecord
100
AcDbDimStyleTableRecord
  2
ME10_DIM_11
 70
     0
  3
<>x500
 41
10.0
 42
0.0
 44
2.0
 73
     0
 74
     0
 77
     1
 78
     8
140
10.0
147
2.0
172
     1
173
     1
174
     1
175
     1
176
     4
177
     4
271
     2
178
     1
271
     2
340
1B1
  0
DIMSTYLE
105
1CB
102
{ACAD_REACTORS
330
1CC
102
}
330
A
100
AcDbSymbolTableRecord
100
AcDbDimStyleTableRecord
  2
ME10_DIM_12
 70
     0
  3
Ø<>
 41
10.0
 42
0.0
 44
2.0
 73
     0
 74
     0
 77
     1
 78
     8
140
10.0
147
2.0
172
     1
173
     1
174
     1
175
     1
176
     4
177
     4
271
     2
178
     1
271
     2
340
1B1
  0
DIMSTYLE
105
1D6
102
{ACAD_REACTORS
330
1D7
102
}
330
A
100
AcDbSymbolTableRecord
100
AcDbDimStyleTableRecord
  2
ME10_DIM_13
 70
     0
  3
x150
 41
10.0
 42
0.0
 44
2.0
 73
     0
 74
     0
 77
     1
 78
     8
140
10.0
147
2.0
172
     1
173
     1
174
     1
175
     1
176
     4
177
     4
271
     2
178
     1
271
     2
340
1B1
  0
DIMSTYLE
105
1E2
102
{ACAD_REACTORS
330
1E3
102
}
330
A
100
AcDbSymbolTableRecord
100
AcDbDimStyleTableRecord
  2
ME10_DIM_14
 70
     0
  3
Ø<>
 41
10.0
 42
0.0
 44
2.0
 73
     0
 74
     0
 77
     1
 78
     8
140
10.0
147
2.0
172
     1
173
     1
174
     1
175
     1
176
     4
177
     4
271
     2
178
     1
271
     2
340
1B1
  0
DIMSTYLE
105
1EE
102
{ACAD_REACTORS
330
1EF
102
}
330
A
100
AcDbSymbolTableRecord
100
AcDbDimStyleTableRecord
  2
ME10_DIM_15
 70
     0
  3
Ø<>
 41
10.0
 42
0.0
 44
2.0
 73
     0
 74
     0
 77
     1
 78
     8
140
10.0
147
2.0
172
     1
173
     1
174
     1
175
     1
176
     4
177
     4
271
     2
178
     1
271
     2
340
1B1
  0
DIMSTYLE
105
1FA
102
{ACAD_REACTORS
330
1FB
102
}
330
A
100
AcDbSymbolTableRecord
100
AcDbDimStyleTableRecord
  2
ME10_DIM_16
 70
     0
  3
DN<>
 41
10.0
 42
0.0
 44
2.0
 73
     0
 74
     0
 77
     1
 78
     8
140
10.0
147
2.0
172
     1
173
     1
174
     1
175
     1
176
     4
177
     4
271
     2
178
     1
271
     2
340
1B1
  0
DIMSTYLE
105
205
102
{ACAD_REACTORS
330
206
102
}
330
A
100
AcDbSymbolTableRecord
100
AcDbDimStyleTableRecord
  2
ME10_DIM_17
 70
     0
 41
10.0
 42
0.0
 44
2.0
 73
     0
 74
     0
 77
     1
 78
     8
140
10.0
147
2.0
172
     1
173
     1
174
     1
175
     1
176
     4
177
     4
271
     2
178
     1
271
     2
340
1B1
  0
ENDTAB
  0
TABLE
  2
BLOCK_RECORD
  5
1
330
0
100
AcDbSymbolTable
 70
    14
  0
BLOCK_RECORD
  5
1F
330
1
100
AcDbSymbolTableRecord
100
AcDbBlockTableRecord
  2
*Model_Space
340
22
 70
     0
280
     1
281
     0
  0
BLOCK_RECORD
  5
1B
330
1
100
AcDbSymbolTableRecord
100
AcDbBlockTableRecord
  2
*Paper_Space
340
1E
 70
     0
280
     1
281
     0
  0
BLOCK_RECORD
  5
23
330
1
100
AcDbSymbolTableRecord
100
AcDbBlockTableRecord
  2
*Paper_Space0
340
26
 70
     0
280
     1
281
     0
  0
BLOCK_RECORD
  5
6D
330
1
100
AcDbSymbolTableRecord
100
AcDbBlockTableRecord
  2
062B_2E_Aufsatzrahmen
340
0
102
{BLKREFS
331
71
102
}
 70
     0
280
     1
281
     0
  0
BLOCK_RECORD
  5
70
330
1
100
AcDbSymbolTableRecord
100
AcDbBlockTableRecord
  2
HL_66_0_Aufsatzrahmen
340
0
102
{BLKREFS
331
7C
102
}
 70
     0
280
     1
281
     0
  0
BLOCK_RECORD
  5
74
330
1
100
AcDbSymbolTableRecord
100
AcDbBlockTableRecord
  2
TOP
340
0
102
{BLKREFS
331
78
102
}
 70
     0
280
     1
281
     0
  0
BLOCK_RECORD
  5
77
330
1
100
AcDbSymbolTableRecord
100
AcDbBlockTableRecord
  2
HL_60H_7_Flachdachablauf
340
0
102
{BLKREFS
331
7D
102
}
 70
     0
280
     1
281
     0
  0
BLOCK_RECORD
  5
7B
330
1
100
AcDbSymbolTableRecord
100
AcDbBlockTableRecord
  2
HL_62_1BH_7_DN75_Dachablauf
340
0
102
{BLKREFS
331
80
102
}
 70
     0
280
     1
281
     0
  0
BLOCK_RECORD
  5
1AB
330
1
100
AcDbSymbolTableRecord
100
AcDbBlockTableRecord
  2
*D6
340
0
 70
     0
280
     1
281
     0
  0
BLOCK_RECORD
  5
1B7
330
1
100
AcDbSymbolTableRecord
100
AcDbBlockTableRecord
  2
*D7
340
0
 70
     0
280
     1
281
     0
  0
BLOCK_RECORD
  5
1C2
330
1
100
AcDbSymbolTableRecord
100
AcDbBlockTableRecord
  2
*D8
340
0
 70
     0
280
     1
281
     0
  0
BLOCK_RECORD
  5
1CD
330
1
100
AcDbSymbolTableRecord
100
AcDbBlockTableRecord
  2
*D9
340
0
 70
     0
280
     1
281
     0
  0
BLOCK_RECORD
  5
1D8
330
1
100
AcDbSymbolTableRecord
100
AcDbBlockTableRecord
  2
*D10
340
0
 70
     0
280
     1
281
     0
  0
BLOCK_RECORD
  5
1E4
330
1
100
AcDbSymbolTableRecord
100
AcDbBlockTableRecord
  2
*D11
340
0
 70
     0
280
     1
281
     0
  0
BLOCK_RECORD
  5
1F0
330
1
100
AcDbSymbolTableRecord
100
AcDbBlockTableRecord
  2
*D12
340
0
 70
     0
280
     1
281
     0
  0
BLOCK_RECORD
  5
1FC
330
1
100
AcDbSymbolTableRecord
100
AcDbBlockTableRecord
  2
*D13
340
0
 70
     0
280
     1
281
     0
  0
ENDTAB
  0
ENDSEC
  0
SECTION
  2
BLOCKS
  0
BLOCK
  5
20
330
1F
100
AcDbEntity
  8
0
100
AcDbBlockBegin
  2
*Model_Space
 70
     0
 10
0.0
 20
0.0
 30
0.0
  3
*Model_Space
  1

  0
ENDBLK
  5
21
330
1F
100
AcDbEntity
  8
0
100
AcDbBlockEnd
  0
BLOCK
  5
1C
330
1B
100
AcDbEntity
 67
     1
  8
0
100
AcDbBlockBegin
  2
*Paper_Space
 70
     0
 10
0.0
 20
0.0
 30
0.0
  3
*Paper_Space
  1

  0
ENDBLK
  5
1D
330
1B
100
AcDbEntity
 67
     1
  8
0
100
AcDbBlockEnd
  0
BLOCK
  5
24
330
23
100
AcDbEntity
  8
0
100
AcDbBlockBegin
  2
*Paper_Space0
 70
     0
 10
0.0
 20
0.0
 30
0.0
  3
*Paper_Space0
  1

  0
ENDBLK
  5
25
330
23
100
AcDbEntity
  8
0
100
AcDbBlockEnd
  0
BLOCK
  5
6E
330
6D
100
AcDbEntity
  8
0
100
AcDbBlockBegin
  2
062B_2E_Aufsatzrahmen
 70
     0
 10
0.00000000000002
 20
19.71190123812218
 30
0.0
  3
062B_2E_Aufsatzrahmen
  1

  0
POINT
  5
81
330
6D
100
AcDbEntity
  8
0
 62
     7
100
AcDbPoint
 10
-73.49999999999997
 20
65.0
 30
0.0
  0
POINT
  5
82
330
6D
100
AcDbEntity
  8
0
 62
     7
100
AcDbPoint
 10
73.50000000000001
 20
65.0
 30
0.0
  0
POINT
  5
83
330
6D
100
AcDbEntity
  8
0
 62
     7
100
AcDbPoint
 10
73.50000000000001
 20
65.0
 30
0.0
  0
LINE
  5
84
330
6D
100
AcDbEntity
  8
1
  6
PHANTOM
 62
     2
100
AcDbLine
 10
0.00000000000001
 20
67.65862692968415
 30
0.0
 11
0.00000000000001
 21
-28.23482445343979
 31
0.0
  0
LINE
  5
85
330
6D
100
AcDbEntity
  8
1
  6
Continuous
 62
     7
100
AcDbLine
 10
-71.99999999999997
 20
0.5
 30
0.0
 11
72.00000000000001
 21
0.5
 31
0.0
  0
LINE
  5
86
330
6D
100
AcDbEntity
  8
LC-003-002-----0
  6
Continuous
 62
     7
100
AcDbLine
 10
72.00000000000001
 20
0.5
 30
0.0
 11
72.00000000000001
 21
0.5
 31
0.0
  0
LINE
  5
87
330
6D
100
AcDbEntity
  8
LC-003-002-----0
  6
Continuous
 62
     7
100
AcDbLine
 10
-71.99999999999997
 20
0.5
 30
0.0
 11
-71.99999999999997
 21
0.5
 31
0.0
  0
LINE
  5
88
330
6D
100
AcDbEntity
  8
1
  6
Continuous
 62
     7
100
AcDbLine
 10
-71.99999999999997
 20
3.0
 30
0.0
 11
72.00000000000001
 21
3.0
 31
0.0
  0
LINE
  5
89
330
6D
100
AcDbEntity
  8
1
  6
Continuous
 62
     7
100
AcDbLine
 10
-71.99999999999997
 20
5.0
 30
0.0
 11
72.00000000000001
 21
5.0
 31
0.0
  0
LINE
  5
8A
330
6D
100
AcDbEntity
  8
1
  6
Continuous
 62
     7
100
AcDbLine
 10
-71.99999999999997
 20
7.5
 30
0.0
 11
72.00000000000001
 21
7.5
 31
0.0
  0
LINE
  5
8B
330
6D
100
AcDbEntity
  8
1
  6
Continuous
 62
     7
100
AcDbLine
 10
-71.99999999999997
 20
9.5
 30
0.0
 11
72.00000000000001
 21
9.5
 31
0.0
  0
LINE
  5
8C
330
6D
100
AcDbEntity
  8
1
  6
Continuous
 62
     7
100
AcDbLine
 10
-71.99999999999997
 20
12.0
 30
0.0
 11
72.00000000000001
 21
12.0
 31
0.0
  0
LINE
  5
8D
330
6D
100
AcDbEntity
  8
1
  6
Continuous
 62
     7
100
AcDbLine
 10
-71.99999999999997
 20
14.0
 30
0.0
 11
72.00000000000001
 21
14.0
 31
0.0
  0
LINE
  5
8E
330
6D
100
AcDbEntity
  8
1
  6
Continuous
 62
     7
100
AcDbLine
 10
-71.99999999999997
 20
16.5
 30
0.0
 11
72.00000000000001
 21
16.5
 31
0.0
  0
LINE
  5
8F
330
6D
100
AcDbEntity
  8
1
  6
Continuous
 62
     7
100
AcDbLine
 10
-71.99999999999997
 20
18.5
 30
0.0
 11
72.00000000000001
 21
18.5
 31
0.0
  0
LINE
  5
90
330
6D
100
AcDbEntity
  8
1
  6
Continuous
 62
     7
100
AcDbLine
 10
-71.99999999999997
 20
21.0
 30
0.0
 11
72.00000000000001
 21
21.0
 31
0.0
  0
LINE
  5
91
330
6D
100
AcDbEntity
  8
1
  6
Continuous
 62
     7
100
AcDbLine
 10
-71.99999999999997
 20
23.0
 30
0.0
 11
72.00000000000001
 21
23.0
 31
0.0
  0
LINE
  5
92
330
6D
100
AcDbEntity
  8
1
  6
Continuous
 62
     7
100
AcDbLine
 10
-71.99999999999997
 20
25.5
 30
0.0
 11
72.00000000000001
 21
25.5
 31
0.0
  0
LINE
  5
93
330
6D
100
AcDbEntity
  8
1
  6
Continuous
 62
     7
100
AcDbLine
 10
-71.99999999999997
 20
27.5
 30
0.0
 11
72.00000000000001
 21
27.5
 31
0.0
  0
LINE
  5
94
330
6D
100
AcDbEntity
  8
1
  6
Continuous
 62
     7
100
AcDbLine
 10
-71.99999999999997
 20
30.0
 30
0.0
 11
72.00000000000001
 21
30.0
 31
0.0
  0
LINE
  5
95
330
6D
100
AcDbEntity
  8
1
  6
Continuous
 62
     7
100
AcDbLine
 10
-71.99999999999997
 20
32.0
 30
0.0
 11
72.00000000000001
 21
32.0
 31
0.0
  0
LINE
  5
96
330
6D
100
AcDbEntity
  8
1
  6
Continuous
 62
     7
100
AcDbLine
 10
-71.99999999999997
 20
34.5
 30
0.0
 11
72.00000000000001
 21
34.5
 31
0.0
  0
LINE
  5
97
330
6D
100
AcDbEntity
  8
1
  6
Continuous
 62
     7
100
AcDbLine
 10
-71.99999999999997
 20
36.5
 30
0.0
 11
72.00000000000001
 21
36.5
 31
0.0
  0
LINE
  5
98
330
6D
100
AcDbEntity
  8
1
  6
Continuous
 62
     7
100
AcDbLine
 10
-71.99999999999997
 20
39.0
 30
0.0
 11
72.00000000000001
 21
39.0
 31
0.0
  0
LINE
  5
99
330
6D
100
AcDbEntity
  8
1
  6
Continuous
 62
     7
100
AcDbLine
 10
-71.99999999999997
 20
41.0
 30
0.0
 11
72.00000000000001
 21
41.0
 31
0.0
  0
LINE
  5
9A
330
6D
100
AcDbEntity
  8
1
  6
Continuous
 62
     7
100
AcDbLine
 10
72.00000000000001
 20
43.5
 30
0.0
 11
-71.99999999999997
 21
43.5
 31
0.0
  0
LINE
  5
9B
330
6D
100
AcDbEntity
  8
1
  6
Continuous
 62
     7
100
AcDbLine
 10
-72.49999999999997
 20
46.5
 30
0.0
 11
-34.99999999999998
 21
46.5
 31
0.0
  0
LINE
  5
9C
330
6D
100
AcDbEntity
  8
1
  6
Continuous
 62
     7
100
AcDbLine
 10
-72.49999999999997
 20
48.5
 30
0.0
 11
-63.49999999999997
 21
48.5
 31
0.0
  0
LINE
  5
9D
330
6D
100
AcDbEntity
  8
1
  6
Continuous
 62
     7
100
AcDbLine
 10
-72.49999999999997
 20
51.0
 30
0.0
 11
63.50000000000002
 21
51.0
 31
0.0
  0
LINE
  5
9E
330
6D
100
AcDbEntity
  8
LC-003-002-----0
  6
Continuous
 62
     7
100
AcDbLine
 10
-73.49999999999997
 20
65.0
 30
0.0
 11
-73.49999999999997
 21
51.0
 31
0.0
  0
LINE
  5
9F
330
6D
100
AcDbEntity
  8
LC-003-002-----0
  6
Continuous
 62
     7
100
AcDbLine
 10
-72.99999999999997
 20
48.5
 30
0.0
 11
-72.49999999999997
 21
48.5
 31
0.0
  0
LINE
  5
A0
330
6D
100
AcDbEntity
  8
LC-003-002-----0
  6
Continuous
 62
     7
100
AcDbLine
 10
-72.49999999999997
 20
51.0
 30
0.0
 11
-73.49999999999997
 21
51.0
 31
0.0
  0
LINE
  5
A1
330
6D
100
AcDbEntity
  8
LC-003-002-----0
  6
Continuous
 62
     7
100
AcDbLine
 10
-72.99999999999997
 20
46.5
 30
0.0
 11
-72.49999999999997
 21
46.5
 31
0.0
  0
LINE
  5
A2
330
6D
100
AcDbEntity
  8
LC-003-002-----0
  6
Continuous
 62
     7
100
AcDbLine
 10
-72.99999999999997
 20
48.5
 30
0.0
 11
-72.99999999999997
 21
46.5
 31
0.0
  0
LINE
  5
A3
330
6D
100
AcDbEntity
  8
LC-003-002-----0
  6
Continuous
 62
     7
100
AcDbLine
 10
-72.49999999999997
 20
46.5
 30
0.0
 11
-72.49999999999997
 21
44.0
 31
0.0
  0
LINE
  5
A4
330
6D
100
AcDbEntity
  8
LC-003-002-----0
  6
Continuous
 62
     7
100
AcDbLine
 10
-71.99999999999997
 20
3.0
 30
0.0
 11
-71.99999999999997
 21
3.0
 31
0.0
  0
LINE
  5
A5
330
6D
100
AcDbEntity
  8
LC-003-002-----0
  6
Continuous
 62
     7
100
AcDbLine
 10
-71.99999999999997
 20
7.5
 30
0.0
 11
-71.99999999999997
 21
7.5
 31
0.0
  0
LINE
  5
A6
330
6D
100
AcDbEntity
  8
LC-003-002-----0
  6
Continuous
 62
     7
100
AcDbLine
 10
-71.99999999999997
 20
12.0
 30
0.0
 11
-71.99999999999997
 21
12.0
 31
0.0
  0
LINE
  5
A7
330
6D
100
AcDbEntity
  8
LC-003-002-----0
  6
Continuous
 62
     7
100
AcDbLine
 10
-71.99999999999997
 20
16.5
 30
0.0
 11
-71.99999999999997
 21
16.5
 31
0.0
  0
LINE
  5
A8
330
6D
100
AcDbEntity
  8
LC-003-002-----0
  6
Continuous
 62
     7
100
AcDbLine
 10
-71.99999999999997
 20
21.0
 30
0.0
 11
-71.99999999999997
 21
21.0
 31
0.0
  0
LINE
  5
A9
330
6D
100
AcDbEntity
  8
LC-003-002-----0
  6
Continuous
 62
     7
100
AcDbLine
 10
-71.99999999999997
 20
25.5
 30
0.0
 11
-71.99999999999997
 21
25.5
 31
0.0
  0
LINE
  5
AA
330
6D
100
AcDbEntity
  8
LC-003-002-----0
  6
Continuous
 62
     7
100
AcDbLine
 10
-71.99999999999997
 20
30.0
 30
0.0
 11
-71.99999999999997
 21
30.0
 31
0.0
  0
LINE
  5
AB
330
6D
100
AcDbEntity
  8
LC-003-002-----0
  6
Continuous
 62
     7
100
AcDbLine
 10
-71.99999999999997
 20
34.5
 30
0.0
 11
-71.99999999999997
 21
34.5
 31
0.0
  0
LINE
  5
AC
330
6D
100
AcDbEntity
  8
LC-003-002-----0
  6
Continuous
 62
     7
100
AcDbLine
 10
-71.99999999999997
 20
39.0
 30
0.0
 11
-71.99999999999997
 21
39.0
 31
0.0
  0
LINE
  5
AD
330
6D
100
AcDbEntity
  8
LC-003-002-----0
  6
Continuous
 62
     7
100
AcDbLine
 10
-71.99999999999997
 20
43.5
 30
0.0
 11
-71.99999999999997
 21
43.5
 31
0.0
  0
LINE
  5
AE
330
6D
100
AcDbEntity
  8
LC-003-002-----0
  6
Continuous
 62
     7
100
AcDbLine
 10
-71.99999999999997
 20
5.0
 30
0.0
 11
-71.99999999999997
 21
5.0
 31
0.0
  0
LINE
  5
AF
330
6D
100
AcDbEntity
  8
LC-003-002-----0
  6
Continuous
 62
     7
100
AcDbLine
 10
-71.99999999999997
 20
9.5
 30
0.0
 11
-71.99999999999997
 21
9.5
 31
0.0
  0
LINE
  5
B0
330
6D
100
AcDbEntity
  8
LC-003-002-----0
  6
Continuous
 62
     7
100
AcDbLine
 10
-71.99999999999997
 20
14.0
 30
0.0
 11
-71.99999999999997
 21
14.0
 31
0.0
  0
LINE
  5
B1
330
6D
100
AcDbEntity
  8
LC-003-002-----0
  6
Continuous
 62
     7
100
AcDbLine
 10
-71.99999999999997
 20
18.5
 30
0.0
 11
-71.99999999999997
 21
18.5
 31
0.0
  0
LINE
  5
B2
330
6D
100
AcDbEntity
  8
LC-003-002-----0
  6
Continuous
 62
     7
100
AcDbLine
 10
-71.99999999999997
 20
23.0
 30
0.0
 11
-71.99999999999997
 21
23.0
 31
0.0
  0
LINE
  5
B3
330
6D
100
AcDbEntity
  8
LC-003-002-----0
  6
Continuous
 62
     7
100
AcDbLine
 10
-71.99999999999997
 20
27.5
 30
0.0
 11
-71.99999999999997
 21
27.5
 31
0.0
  0
LINE
  5
B4
330
6D
100
AcDbEntity
  8
LC-003-002-----0
  6
Continuous
 62
     7
100
AcDbLine
 10
-71.99999999999997
 20
32.0
 30
0.0
 11
-71.99999999999997
 21
32.0
 31
0.0
  0
LINE
  5
B5
330
6D
100
AcDbEntity
  8
LC-003-002-----0
  6
Continuous
 62
     7
100
AcDbLine
 10
-71.99999999999997
 20
36.5
 30
0.0
 11
-71.99999999999997
 21
36.5
 31
0.0
  0
LINE
  5
B6
330
6D
100
AcDbEntity
  8
LC-003-002-----0
  6
Continuous
 62
     7
100
AcDbLine
 10
-71.99999999999997
 20
41.0
 30
0.0
 11
-71.99999999999997
 21
41.0
 31
0.0
  0
LINE
  5
B7
330
6D
100
AcDbEntity
  8
LC-003-002-----0
  6
Continuous
 62
     7
100
AcDbLine
 10
-72.49999999999997
 20
4.5
 30
0.0
 11
-72.49999999999997
 21
3.5
 31
0.0
  0
LINE
  5
B8
330
6D
100
AcDbEntity
  8
LC-003-002-----0
  6
Continuous
 62
     7
100
AcDbLine
 10
-72.49999999999997
 20
9.0
 30
0.0
 11
-72.49999999999997
 21
8.0
 31
0.0
  0
LINE
  5
B9
330
6D
100
AcDbEntity
  8
LC-003-002-----0
  6
Continuous
 62
     7
100
AcDbLine
 10
-72.49999999999997
 20
13.5
 30
0.0
 11
-72.49999999999997
 21
12.5
 31
0.0
  0
LINE
  5
BA
330
6D
100
AcDbEntity
  8
LC-003-002-----0
  6
Continuous
 62
     7
100
AcDbLine
 10
-72.49999999999997
 20
18.0
 30
0.0
 11
-72.49999999999997
 21
17.0
 31
0.0
  0
LINE
  5
BB
330
6D
100
AcDbEntity
  8
LC-003-002-----0
  6
Continuous
 62
     7
100
AcDbLine
 10
-72.49999999999997
 20
22.5
 30
0.0
 11
-72.49999999999997
 21
21.5
 31
0.0
  0
LINE
  5
BC
330
6D
100
AcDbEntity
  8
LC-003-002-----0
  6
Continuous
 62
     7
100
AcDbLine
 10
-72.49999999999997
 20
27.0
 30
0.0
 11
-72.49999999999997
 21
26.0
 31
0.0
  0
LINE
  5
BD
330
6D
100
AcDbEntity
  8
LC-003-002-----0
  6
Continuous
 62
     7
100
AcDbLine
 10
-72.49999999999997
 20
31.5
 30
0.0
 11
-72.49999999999997
 21
30.5
 31
0.0
  0
LINE
  5
BE
330
6D
100
AcDbEntity
  8
LC-003-002-----0
  6
Continuous
 62
     7
100
AcDbLine
 10
-72.49999999999997
 20
36.0
 30
0.0
 11
-72.49999999999997
 21
35.0
 31
0.0
  0
LINE
  5
BF
330
6D
100
AcDbEntity
  8
LC-003-002-----0
  6
Continuous
 62
     7
100
AcDbLine
 10
-72.49999999999997
 20
40.5
 30
0.0
 11
-72.49999999999997
 21
39.5
 31
0.0
  0
LINE
  5
C0
330
6D
100
AcDbEntity
  8
LC-003-002-----0
  6
Continuous
 62
     7
100
AcDbLine
 10
-72.49999999999997
 20
51.0
 30
0.0
 11
-72.49999999999997
 21
48.5
 31
0.0
  0
LINE
  5
C1
330
6D
100
AcDbEntity
  8
LC-003-002-----0
  6
Continuous
 62
     7
100
AcDbLine
 10
73.50000000000001
 20
65.0
 30
0.0
 11
-73.49999999999997
 21
65.0
 31
0.0
  0
LINE
  5
C2
330
6D
100
AcDbEntity
  8
LC-003-002-----0
  6
Continuous
 62
     7
100
AcDbLine
 10
73.50000000000001
 20
65.0
 30
0.0
 11
73.50000000000001
 21
51.0
 31
0.0
  0
LINE
  5
C3
330
6D
100
AcDbEntity
  8
LC-003-002-----0
  6
Continuous
 62
     7
100
AcDbLine
 10
73.00000000000001
 20
48.5
 30
0.0
 11
72.50000000000001
 21
48.5
 31
0.0
  0
LINE
  5
C4
330
6D
100
AcDbEntity
  8
LC-003-002-----0
  6
Continuous
 62
     7
100
AcDbLine
 10
72.50000000000001
 20
51.0
 30
0.0
 11
73.50000000000001
 21
51.0
 31
0.0
  0
LINE
  5
C5
330
6D
100
AcDbEntity
  8
LC-003-002-----0
  6
Continuous
 62
     7
100
AcDbLine
 10
73.00000000000001
 20
46.5
 30
0.0
 11
72.50000000000001
 21
46.5
 31
0.0
  0
LINE
  5
C6
330
6D
100
AcDbEntity
  8
LC-003-002-----0
  6
Continuous
 62
     7
100
AcDbLine
 10
73.00000000000001
 20
48.5
 30
0.0
 11
73.00000000000001
 21
46.5
 31
0.0
  0
LINE
  5
C7
330
6D
100
AcDbEntity
  8
LC-003-002-----0
  6
Continuous
 62
     7
100
AcDbLine
 10
72.50000000000001
 20
46.5
 30
0.0
 11
72.50000000000001
 21
44.0
 31
0.0
  0
LINE
  5
C8
330
6D
100
AcDbEntity
  8
LC-003-002-----0
  6
Continuous
 62
     7
100
AcDbLine
 10
72.00000000000001
 20
3.0
 30
0.0
 11
72.00000000000001
 21
3.0
 31
0.0
  0
LINE
  5
C9
330
6D
100
AcDbEntity
  8
LC-003-002-----0
  6
Continuous
 62
     7
100
AcDbLine
 10
72.00000000000001
 20
7.5
 30
0.0
 11
72.00000000000001
 21
7.5
 31
0.0
  0
LINE
  5
CA
330
6D
100
AcDbEntity
  8
LC-003-002-----0
  6
Continuous
 62
     7
100
AcDbLine
 10
72.00000000000001
 20
12.0
 30
0.0
 11
72.00000000000001
 21
12.0
 31
0.0
  0
LINE
  5
CB
330
6D
100
AcDbEntity
  8
LC-003-002-----0
  6
Continuous
 62
     7
100
AcDbLine
 10
72.00000000000001
 20
16.5
 30
0.0
 11
72.00000000000001
 21
16.5
 31
0.0
  0
LINE
  5
CC
330
6D
100
AcDbEntity
  8
LC-003-002-----0
  6
Continuous
 62
     7
100
AcDbLine
 10
72.00000000000001
 20
21.0
 30
0.0
 11
72.00000000000001
 21
21.0
 31
0.0
  0
LINE
  5
CD
330
6D
100
AcDbEntity
  8
LC-003-002-----0
  6
Continuous
 62
     7
100
AcDbLine
 10
72.00000000000001
 20
25.5
 30
0.0
 11
72.00000000000001
 21
25.5
 31
0.0
  0
LINE
  5
CE
330
6D
100
AcDbEntity
  8
LC-003-002-----0
  6
Continuous
 62
     7
100
AcDbLine
 10
72.00000000000001
 20
30.0
 30
0.0
 11
72.00000000000001
 21
30.0
 31
0.0
  0
LINE
  5
CF
330
6D
100
AcDbEntity
  8
LC-003-002-----0
  6
Continuous
 62
     7
100
AcDbLine
 10
72.00000000000001
 20
34.5
 30
0.0
 11
72.00000000000001
 21
34.5
 31
0.0
  0
LINE
  5
D0
330
6D
100
AcDbEntity
  8
LC-003-002-----0
  6
Continuous
 62
     7
100
AcDbLine
 10
72.00000000000001
 20
39.0
 30
0.0
 11
72.00000000000001
 21
39.0
 31
0.0
  0
LINE
  5
D1
330
6D
100
AcDbEntity
  8
LC-003-002-----0
  6
Continuous
 62
     7
100
AcDbLine
 10
72.00000000000001
 20
43.5
 30
0.0
 11
72.00000000000001
 21
43.5
 31
0.0
  0
LINE
  5
D2
330
6D
100
AcDbEntity
  8
LC-003-002-----0
  6
Continuous
 62
     7
100
AcDbLine
 10
72.00000000000001
 20
5.0
 30
0.0
 11
72.00000000000001
 21
5.0
 31
0.0
  0
LINE
  5
D3
330
6D
100
AcDbEntity
  8
LC-003-002-----0
  6
Continuous
 62
     7
100
AcDbLine
 10
72.00000000000001
 20
9.5
 30
0.0
 11
72.00000000000001
 21
9.5
 31
0.0
  0
LINE
  5
D4
330
6D
100
AcDbEntity
  8
LC-003-002-----0
  6
Continuous
 62
     7
100
AcDbLine
 10
72.00000000000001
 20
14.0
 30
0.0
 11
72.00000000000001
 21
14.0
 31
0.0
  0
LINE
  5
D5
330
6D
100
AcDbEntity
  8
LC-003-002-----0
  6
Continuous
 62
     7
100
AcDbLine
 10
72.00000000000001
 20
18.5
 30
0.0
 11
72.00000000000001
 21
18.5
 31
0.0
  0
LINE
  5
D6
330
6D
100
AcDbEntity
  8
LC-003-002-----0
  6
Continuous
 62
     7
100
AcDbLine
 10
72.00000000000001
 20
23.0
 30
0.0
 11
72.00000000000001
 21
23.0
 31
0.0
  0
LINE
  5
D7
330
6D
100
AcDbEntity
  8
LC-003-002-----0
  6
Continuous
 62
     7
100
AcDbLine
 10
72.00000000000001
 20
27.5
 30
0.0
 11
72.00000000000001
 21
27.5
 31
0.0
  0
LINE
  5
D8
330
6D
100
AcDbEntity
  8
LC-003-002-----0
  6
Continuous
 62
     7
100
AcDbLine
 10
72.00000000000001
 20
32.0
 30
0.0
 11
72.00000000000001
 21
32.0
 31
0.0
  0
LINE
  5
D9
330
6D
100
AcDbEntity
  8
LC-003-002-----0
  6
Continuous
 62
     7
100
AcDbLine
 10
72.00000000000001
 20
36.5
 30
0.0
 11
72.00000000000001
 21
36.5
 31
0.0
  0
LINE
  5
DA
330
6D
100
AcDbEntity
  8
LC-003-002-----0
  6
Continuous
 62
     7
100
AcDbLine
 10
72.00000000000001
 20
41.0
 30
0.0
 11
72.00000000000001
 21
41.0
 31
0.0
  0
LINE
  5
DB
330
6D
100
AcDbEntity
  8
LC-003-002-----0
  6
Continuous
 62
     7
100
AcDbLine
 10
72.50000000000001
 20
4.5
 30
0.0
 11
72.50000000000001
 21
3.5
 31
0.0
  0
LINE
  5
DC
330
6D
100
AcDbEntity
  8
LC-003-002-----0
  6
Continuous
 62
     7
100
AcDbLine
 10
72.50000000000001
 20
9.0
 30
0.0
 11
72.50000000000001
 21
8.0
 31
0.0
  0
LINE
  5
DD
330
6D
100
AcDbEntity
  8
LC-003-002-----0
  6
Continuous
 62
     7
100
AcDbLine
 10
72.50000000000001
 20
13.5
 30
0.0
 11
72.50000000000001
 21
12.5
 31
0.0
  0
LINE
  5
DE
330
6D
100
AcDbEntity
  8
LC-003-002-----0
  6
Continuous
 62
     7
100
AcDbLine
 10
72.50000000000001
 20
18.0
 30
0.0
 11
72.50000000000001
 21
17.0
 31
0.0
  0
LINE
  5
DF
330
6D
100
AcDbEntity
  8
LC-003-002-----0
  6
Continuous
 62
     7
100
AcDbLine
 10
72.50000000000001
 20
22.5
 30
0.0
 11
72.50000000000001
 21
21.5
 31
0.0
  0
LINE
  5
E0
330
6D
100
AcDbEntity
  8
LC-003-002-----0
  6
Continuous
 62
     7
100
AcDbLine
 10
72.50000000000001
 20
27.0
 30
0.0
 11
72.50000000000001
 21
26.0
 31
0.0
  0
LINE
  5
E1
330
6D
100
AcDbEntity
  8
LC-003-002-----0
  6
Continuous
 62
     7
100
AcDbLine
 10
72.50000000000001
 20
31.5
 30
0.0
 11
72.50000000000001
 21
30.5
 31
0.0
  0
LINE
  5
E2
330
6D
100
AcDbEntity
  8
LC-003-002-----0
  6
Continuous
 62
     7
100
AcDbLine
 10
72.50000000000001
 20
36.0
 30
0.0
 11
72.50000000000001
 21
35.0
 31
0.0
  0
LINE
  5
E3
330
6D
100
AcDbEntity
  8
LC-003-002-----0
  6
Continuous
 62
     7
100
AcDbLine
 10
72.50000000000001
 20
40.5
 30
0.0
 11
72.50000000000001
 21
39.5
 31
0.0
  0
LINE
  5
E4
330
6D
100
AcDbEntity
  8
LC-003-002-----0
  6
Continuous
 62
     7
100
AcDbLine
 10
72.50000000000001
 20
51.0
 30
0.0
 11
72.50000000000001
 21
48.5
 31
0.0
  0
LINE
  5
E5
330
6D
100
AcDbEntity
  8
1
  6
Continuous
 62
     7
100
AcDbLine
 10
-34.99999999999998
 20
48.5
 30
0.0
 11
-34.99999999999998
 21
46.5
 31
0.0
  0
LINE
  5
E6
330
6D
100
AcDbEntity
  8
1
  6
Continuous
 62
     7
100
AcDbLine
 10
-34.99999999999998
 20
46.5
 30
0.0
 11
35.00000000000002
 21
46.5
 31
0.0
  0
LINE
  5
E7
330
6D
100
AcDbEntity
  8
1
  6
Continuous
 62
     7
100
AcDbLine
 10
-34.99999999999998
 20
48.5
 30
0.0
 11
35.00000000000002
 21
48.5
 31
0.0
  0
LINE
  5
E8
330
6D
100
AcDbEntity
  8
1
  6
Continuous
 62
     7
100
AcDbLine
 10
35.00000000000002
 20
46.5
 30
0.0
 11
35.00000000000002
 21
48.5
 31
0.0
  0
LINE
  5
E9
330
6D
100
AcDbEntity
  8
1
  6
Continuous
 62
     7
100
AcDbLine
 10
35.00000000000002
 20
46.5
 30
0.0
 11
63.50000000000002
 21
46.5
 31
0.0
  0
LINE
  5
EA
330
6D
100
AcDbEntity
  8
1
  6
Continuous
 62
     7
100
AcDbLine
 10
35.00000000000002
 20
46.5
 30
0.0
 11
63.50000000000002
 21
51.0
 31
0.0
  0
LINE
  5
EB
330
6D
100
AcDbEntity
  8
1
  6
Continuous
 62
     7
100
AcDbLine
 10
63.50000000000002
 20
51.0
 30
0.0
 11
72.50000000000001
 21
51.0
 31
0.0
  0
LINE
  5
EC
330
6D
100
AcDbEntity
  8
1
  6
Continuous
 62
     7
100
AcDbLine
 10
63.50000000000002
 20
51.0
 30
0.0
 11
63.50000000000002
 21
48.5
 31
0.0
  0
LINE
  5
ED
330
6D
100
AcDbEntity
  8
1
  6
Continuous
 62
     7
100
AcDbLine
 10
63.50000000000002
 20
46.5
 30
0.0
 11
72.50000000000001
 21
46.5
 31
0.0
  0
LINE
  5
EE
330
6D
100
AcDbEntity
  8
1
  6
Continuous
 62
     7
100
AcDbLine
 10
72.50000000000001
 20
48.5
 30
0.0
 11
63.50000000000002
 21
48.5
 31
0.0
  0
LINE
  5
EF
330
6D
100
AcDbEntity
  8
1
  6
Continuous
 62
     7
100
AcDbLine
 10
63.50000000000002
 20
48.5
 30
0.0
 11
63.50000000000002
 21
46.5
 31
0.0
  0
LINE
  5
F0
330
6D
100
AcDbEntity
  8
1
  6
Continuous
 62
     7
100
AcDbLine
 10
-63.49999999999997
 20
51.0
 30
0.0
 11
-34.99999999999998
 21
46.5
 31
0.0
  0
LINE
  5
F1
330
6D
100
AcDbEntity
  8
1
  6
Continuous
 62
     7
100
AcDbLine
 10
-63.49999999999997
 20
46.5
 30
0.0
 11
-63.49999999999997
 21
48.5
 31
0.0
  0
LINE
  5
F2
330
6D
100
AcDbEntity
  8
1
  6
Continuous
 62
     7
100
AcDbLine
 10
-63.49999999999997
 20
48.5
 30
0.0
 11
-63.49999999999997
 21
51.0
 31
0.0
  0
ARC
  5
F3
330
6D
100
AcDbEntity
  8
LC-003-002-----0
  6
Continuous
 62
     7
100
AcDbCircle
 10
72.00000000000001
 20
1.75
 30
0.0
 40
1.25
100
AcDbArc
 50
90.0
 51
270.0
  0
ARC
  5
F4
330
6D
100
AcDbEntity
  8
LC-009-002-RND-0
  6
Continuous
 62
     7
100
AcDbCircle
 10
72.00000000000001
 20
0.0
 30
0.0
 40
0.5
100
AcDbArc
 50
0.0
 51
90.0
  0
ARC
  5
F5
330
6D
100
AcDbEntity
  8
LC-003-002-----0
  6
Continuous
 62
     7
100
AcDbCircle
 10
-71.99999999999997
 20
1.75
 30
0.0
 40
1.25
100
AcDbArc
 50
270.0
 51
90.0
  0
ARC
  5
F6
330
6D
100
AcDbEntity
  8
LC-009-002-RND-0
  6
Continuous
 62
     7
100
AcDbCircle
 10
-71.99999999999997
 20
0.0
 30
0.0
 40
0.5
100
AcDbArc
 50
90.0
 51
180.0
  0
ARC
  5
F7
330
6D
100
AcDbEntity
  8
LC-003-002-----0
  6
Continuous
 62
     7
100
AcDbCircle
 10
-71.99999999999997
 20
6.25
 30
0.0
 40
1.25
100
AcDbArc
 50
270.0
 51
90.0
  0
ARC
  5
F8
330
6D
100
AcDbEntity
  8
LC-003-002-----0
  6
Continuous
 62
     7
100
AcDbCircle
 10
-71.99999999999997
 20
10.75
 30
0.0
 40
1.25
100
AcDbArc
 50
270.0
 51
90.0
  0
ARC
  5
F9
330
6D
100
AcDbEntity
  8
LC-003-002-----0
  6
Continuous
 62
     7
100
AcDbCircle
 10
-71.99999999999997
 20
15.25
 30
0.0
 40
1.25
100
AcDbArc
 50
270.0
 51
90.0
  0
ARC
  5
FA
330
6D
100
AcDbEntity
  8
LC-003-002-----0
  6
Continuous
 62
     7
100
AcDbCircle
 10
-71.99999999999997
 20
19.75
 30
0.0
 40
1.25
100
AcDbArc
 50
270.0
 51
90.0
  0
ARC
  5
FB
330
6D
100
AcDbEntity
  8
LC-003-002-----0
  6
Continuous
 62
     7
100
AcDbCircle
 10
-71.99999999999997
 20
24.25
 30
0.0
 40
1.25
100
AcDbArc
 50
270.0
 51
90.0
  0
ARC
  5
FC
330
6D
100
AcDbEntity
  8
LC-003-002-----0
  6
Continuous
 62
     7
100
AcDbCircle
 10
-71.99999999999997
 20
28.75
 30
0.0
 40
1.25
100
AcDbArc
 50
270.0
 51
90.0
  0
ARC
  5
FD
330
6D
100
AcDbEntity
  8
LC-003-002-----0
  6
Continuous
 62
     7
100
AcDbCircle
 10
-71.99999999999997
 20
33.25
 30
0.0
 40
1.25
100
AcDbArc
 50
270.0
 51
90.0
  0
ARC
  5
FE
330
6D
100
AcDbEntity
  8
LC-003-002-----0
  6
Continuous
 62
     7
100
AcDbCircle
 10
-71.99999999999997
 20
37.75
 30
0.0
 40
1.25
100
AcDbArc
 50
270.0
 51
90.0
  0
ARC
  5
FF
330
6D
100
AcDbEntity
  8
LC-003-002-----0
  6
Continuous
 62
     7
100
AcDbCircle
 10
-71.99999999999997
 20
42.25
 30
0.0
 40
1.25
100
AcDbArc
 50
270.0
 51
90.0
  0
ARC
  5
100
330
6D
100
AcDbEntity
  8
LC-009-002-RND-0
  6
Continuous
 62
     7
100
AcDbCircle
 10
-71.99999999999997
 20
4.5
 30
0.0
 40
0.5
100
AcDbArc
 50
90.0
 51
180.0
  0
ARC
  5
101
330
6D
100
AcDbEntity
  8
LC-009-002-RND-0
  6
Continuous
 62
     7
100
AcDbCircle
 10
-71.99999999999997
 20
9.0
 30
0.0
 40
0.5
100
AcDbArc
 50
90.0
 51
180.0
  0
ARC
  5
102
330
6D
100
AcDbEntity
  8
LC-009-002-RND-0
  6
Continuous
 62
     7
100
AcDbCircle
 10
-71.99999999999997
 20
13.5
 30
0.0
 40
0.5
100
AcDbArc
 50
90.0
 51
180.0
  0
ARC
  5
103
330
6D
100
AcDbEntity
  8
LC-009-002-RND-0
  6
Continuous
 62
     7
100
AcDbCircle
 10
-71.99999999999997
 20
18.0
 30
0.0
 40
0.5
100
AcDbArc
 50
90.0
 51
180.0
  0
ARC
  5
104
330
6D
100
AcDbEntity
  8
LC-009-002-RND-0
  6
Continuous
 62
     7
100
AcDbCircle
 10
-71.99999999999997
 20
22.5
 30
0.0
 40
0.5
100
AcDbArc
 50
90.0
 51
180.0
  0
ARC
  5
105
330
6D
100
AcDbEntity
  8
LC-009-002-RND-0
  6
Continuous
 62
     7
100
AcDbCircle
 10
-71.99999999999997
 20
27.0
 30
0.0
 40
0.5
100
AcDbArc
 50
90.0
 51
180.0
  0
ARC
  5
106
330
6D
100
AcDbEntity
  8
LC-009-002-RND-0
  6
Continuous
 62
     7
100
AcDbCircle
 10
-71.99999999999997
 20
31.5
 30
0.0
 40
0.5
100
AcDbArc
 50
90.0
 51
180.0
  0
ARC
  5
107
330
6D
100
AcDbEntity
  8
LC-009-002-RND-0
  6
Continuous
 62
     7
100
AcDbCircle
 10
-71.99999999999997
 20
36.0
 30
0.0
 40
0.5
100
AcDbArc
 50
90.0
 51
180.0
  0
ARC
  5
108
330
6D
100
AcDbEntity
  8
LC-009-002-RND-0
  6
Continuous
 62
     7
100
AcDbCircle
 10
-71.99999999999997
 20
40.5
 30
0.0
 40
0.5
100
AcDbArc
 50
90.0
 51
180.0
  0
ARC
  5
109
330
6D
100
AcDbEntity
  8
LC-009-002-RND-0
  6
Continuous
 62
     7
100
AcDbCircle
 10
-71.99999999999997
 20
44.0
 30
0.0
 40
0.5
100
AcDbArc
 50
180.0
 51
270.0
  0
ARC
  5
10A
330
6D
100
AcDbEntity
  8
LC-009-002-RND-0
  6
Continuous
 62
     7
100
AcDbCircle
 10
-71.99999999999997
 20
39.5
 30
0.0
 40
0.5
100
AcDbArc
 50
180.0
 51
270.0
  0
ARC
  5
10B
330
6D
100
AcDbEntity
  8
LC-009-002-RND-0
  6
Continuous
 62
     7
100
AcDbCircle
 10
-71.99999999999997
 20
35.0
 30
0.0
 40
0.5
100
AcDbArc
 50
180.0
 51
270.0
  0
ARC
  5
10C
330
6D
100
AcDbEntity
  8
LC-009-002-RND-0
  6
Continuous
 62
     7
100
AcDbCircle
 10
-71.99999999999997
 20
30.5
 30
0.0
 40
0.5
100
AcDbArc
 50
180.0
 51
270.0
  0
ARC
  5
10D
330
6D
100
AcDbEntity
  8
LC-009-002-RND-0
  6
Continuous
 62
     7
100
AcDbCircle
 10
-71.99999999999997
 20
26.0
 30
0.0
 40
0.5
100
AcDbArc
 50
180.0
 51
270.0
  0
ARC
  5
10E
330
6D
100
AcDbEntity
  8
LC-009-002-RND-0
  6
Continuous
 62
     7
100
AcDbCircle
 10
-71.99999999999997
 20
21.5
 30
0.0
 40
0.5
100
AcDbArc
 50
180.0
 51
270.0
  0
ARC
  5
10F
330
6D
100
AcDbEntity
  8
LC-009-002-RND-0
  6
Continuous
 62
     7
100
AcDbCircle
 10
-71.99999999999997
 20
17.0
 30
0.0
 40
0.5
100
AcDbArc
 50
180.0
 51
270.0
  0
ARC
  5
110
330
6D
100
AcDbEntity
  8
LC-009-002-RND-0
  6
Continuous
 62
     7
100
AcDbCircle
 10
-71.99999999999997
 20
8.0
 30
0.0
 40
0.5
100
AcDbArc
 50
180.0
 51
270.0
  0
ARC
  5
111
330
6D
100
AcDbEntity
  8
LC-009-002-RND-0
  6
Continuous
 62
     7
100
AcDbCircle
 10
-71.99999999999997
 20
12.5
 30
0.0
 40
0.5
100
AcDbArc
 50
180.0
 51
270.0
  0
ARC
  5
112
330
6D
100
AcDbEntity
  8
LC-009-002-RND-0
  6
Continuous
 62
     7
100
AcDbCircle
 10
-71.99999999999997
 20
3.5
 30
0.0
 40
0.5
100
AcDbArc
 50
180.0
 51
270.0
  0
ARC
  5
113
330
6D
100
AcDbEntity
  8
LC-003-002-----0
  6
Continuous
 62
     7
100
AcDbCircle
 10
72.00000000000001
 20
6.25
 30
0.0
 40
1.25
100
AcDbArc
 50
90.0
 51
270.0
  0
ARC
  5
114
330
6D
100
AcDbEntity
  8
LC-003-002-----0
  6
Continuous
 62
     7
100
AcDbCircle
 10
72.00000000000001
 20
10.75
 30
0.0
 40
1.25
100
AcDbArc
 50
90.0
 51
270.0
  0
ARC
  5
115
330
6D
100
AcDbEntity
  8
LC-003-002-----0
  6
Continuous
 62
     7
100
AcDbCircle
 10
72.00000000000001
 20
15.25
 30
0.0
 40
1.25
100
AcDbArc
 50
90.0
 51
270.0
  0
ARC
  5
116
330
6D
100
AcDbEntity
  8
LC-003-002-----0
  6
Continuous
 62
     7
100
AcDbCircle
 10
72.00000000000001
 20
19.75
 30
0.0
 40
1.25
100
AcDbArc
 50
90.0
 51
270.0
  0
ARC
  5
117
330
6D
100
AcDbEntity
  8
LC-003-002-----0
  6
Continuous
 62
     7
100
AcDbCircle
 10
72.00000000000001
 20
24.25
 30
0.0
 40
1.25
100
AcDbArc
 50
90.0
 51
270.0
  0
ARC
  5
118
330
6D
100
AcDbEntity
  8
LC-003-002-----0
  6
Continuous
 62
     7
100
AcDbCircle
 10
72.00000000000001
 20
28.75
 30
0.0
 40
1.25
100
AcDbArc
 50
90.0
 51
270.0
  0
ARC
  5
119
330
6D
100
AcDbEntity
  8
LC-003-002-----0
  6
Continuous
 62
     7
100
AcDbCircle
 10
72.00000000000001
 20
33.25
 30
0.0
 40
1.25
100
AcDbArc
 50
90.0
 51
270.0
  0
ARC
  5
11A
330
6D
100
AcDbEntity
  8
LC-003-002-----0
  6
Continuous
 62
     7
100
AcDbCircle
 10
72.00000000000001
 20
37.75
 30
0.0
 40
1.25
100
AcDbArc
 50
90.0
 51
270.0
  0
ARC
  5
11B
330
6D
100
AcDbEntity
  8
LC-003-002-----0
  6
Continuous
 62
     7
100
AcDbCircle
 10
72.00000000000001
 20
42.25
 30
0.0
 40
1.25
100
AcDbArc
 50
90.0
 51
270.0
  0
ARC
  5
11C
330
6D
100
AcDbEntity
  8
LC-009-002-RND-0
  6
Continuous
 62
     7
100
AcDbCircle
 10
72.00000000000001
 20
4.5
 30
0.0
 40
0.5
100
AcDbArc
 50
0.0
 51
90.0
  0
ARC
  5
11D
330
6D
100
AcDbEntity
  8
LC-009-002-RND-0
  6
Continuous
 62
     7
100
AcDbCircle
 10
72.00000000000001
 20
9.0
 30
0.0
 40
0.5
100
AcDbArc
 50
0.0
 51
90.0
  0
ARC
  5
11E
330
6D
100
AcDbEntity
  8
LC-009-002-RND-0
  6
Continuous
 62
     7
100
AcDbCircle
 10
72.00000000000001
 20
13.5
 30
0.0
 40
0.5
100
AcDbArc
 50
0.0
 51
90.0
  0
ARC
  5
11F
330
6D
100
AcDbEntity
  8
LC-009-002-RND-0
  6
Continuous
 62
     7
100
AcDbCircle
 10
72.00000000000001
 20
18.0
 30
0.0
 40
0.5
100
AcDbArc
 50
0.0
 51
90.0
  0
ARC
  5
120
330
6D
100
AcDbEntity
  8
LC-009-002-RND-0
  6
Continuous
 62
     7
100
AcDbCircle
 10
72.00000000000001
 20
22.5
 30
0.0
 40
0.5
100
AcDbArc
 50
0.0
 51
90.0
  0
ARC
  5
121
330
6D
100
AcDbEntity
  8
LC-009-002-RND-0
  6
Continuous
 62
     7
100
AcDbCircle
 10
72.00000000000001
 20
27.0
 30
0.0
 40
0.5
100
AcDbArc
 50
0.0
 51
90.0
  0
ARC
  5
122
330
6D
100
AcDbEntity
  8
LC-009-002-RND-0
  6
Continuous
 62
     7
100
AcDbCircle
 10
72.00000000000001
 20
31.5
 30
0.0
 40
0.5
100
AcDbArc
 50
0.0
 51
90.0
  0
ARC
  5
123
330
6D
100
AcDbEntity
  8
LC-009-002-RND-0
  6
Continuous
 62
     7
100
AcDbCircle
 10
72.00000000000001
 20
36.0
 30
0.0
 40
0.5
100
AcDbArc
 50
0.0
 51
90.0
  0
ARC
  5
124
330
6D
100
AcDbEntity
  8
LC-009-002-RND-0
  6
Continuous
 62
     7
100
AcDbCircle
 10
72.00000000000001
 20
40.5
 30
0.0
 40
0.5
100
AcDbArc
 50
0.0
 51
90.0
  0
ARC
  5
125
330
6D
100
AcDbEntity
  8
LC-009-002-RND-0
  6
Continuous
 62
     7
100
AcDbCircle
 10
72.00000000000001
 20
44.0
 30
0.0
 40
0.5
100
AcDbArc
 50
270.0
 51
0.0
  0
ARC
  5
126
330
6D
100
AcDbEntity
  8
LC-009-002-RND-0
  6
Continuous
 62
     7
100
AcDbCircle
 10
72.00000000000001
 20
39.5
 30
0.0
 40
0.5
100
AcDbArc
 50
270.0
 51
0.0
  0
ARC
  5
127
330
6D
100
AcDbEntity
  8
LC-009-002-RND-0
  6
Continuous
 62
     7
100
AcDbCircle
 10
72.00000000000001
 20
35.0
 30
0.0
 40
0.5
100
AcDbArc
 50
270.0
 51
0.0
  0
ARC
  5
128
330
6D
100
AcDbEntity
  8
LC-009-002-RND-0
  6
Continuous
 62
     7
100
AcDbCircle
 10
72.00000000000001
 20
30.5
 30
0.0
 40
0.5
100
AcDbArc
 50
270.0
 51
0.0
  0
ARC
  5
129
330
6D
100
AcDbEntity
  8
LC-009-002-RND-0
  6
Continuous
 62
     7
100
AcDbCircle
 10
72.00000000000001
 20
26.0
 30
0.0
 40
0.5
100
AcDbArc
 50
270.0
 51
0.0
  0
ARC
  5
12A
330
6D
100
AcDbEntity
  8
LC-009-002-RND-0
  6
Continuous
 62
     7
100
AcDbCircle
 10
72.00000000000001
 20
21.5
 30
0.0
 40
0.5
100
AcDbArc
 50
270.0
 51
0.0
  0
ARC
  5
12B
330
6D
100
AcDbEntity
  8
LC-009-002-RND-0
  6
Continuous
 62
     7
100
AcDbCircle
 10
72.00000000000001
 20
17.0
 30
0.0
 40
0.5
100
AcDbArc
 50
270.0
 51
0.0
  0
ARC
  5
12C
330
6D
100
AcDbEntity
  8
LC-009-002-RND-0
  6
Continuous
 62
     7
100
AcDbCircle
 10
72.00000000000001
 20
8.0
 30
0.0
 40
0.5
100
AcDbArc
 50
270.0
 51
0.0
  0
ARC
  5
12D
330
6D
100
AcDbEntity
  8
LC-009-002-RND-0
  6
Continuous
 62
     7
100
AcDbCircle
 10
72.00000000000001
 20
12.5
 30
0.0
 40
0.5
100
AcDbArc
 50
270.0
 51
0.0
  0
ARC
  5
12E
330
6D
100
AcDbEntity
  8
LC-009-002-RND-0
  6
Continuous
 62
     7
100
AcDbCircle
 10
72.00000000000001
 20
3.5
 30
0.0
 40
0.5
100
AcDbArc
 50
270.0
 51
0.0
  0
ENDBLK
  5
6F
330
6D
100
AcDbEntity
  8
0
100
AcDbBlockEnd
  0
BLOCK
  5
72
330
70
100
AcDbEntity
  8
0
100
AcDbBlockBegin
  2
HL_66_0_Aufsatzrahmen
 70
     0
 10
0.00000000000002
 20
19.71190123812218
 30
0.0
  3
HL_66_0_Aufsatzrahmen
  1

  0
INSERT
  5
71
330
70
100
AcDbEntity
  8
1
100
AcDbBlockReference
  2
062B_2E_Aufsatzrahmen
 10
0.00000000000002
 20
19.71190123812218
 30
0.0
  0
ENDBLK
  5
73
330
70
100
AcDbEntity
  8
0
100
AcDbBlockEnd
  0
BLOCK
  5
75
330
74
100
AcDbEntity
  8
0
100
AcDbBlockBegin
  2
TOP
 70
     0
 10
-0.00021545669439
 20
-120.1047595
 30
0.0
  3
TOP
  1

  0
POINT
  5
12F
330
74
100
AcDbEntity
  8
0
 62
     7
100
AcDbPoint
 10
37.49978454330568
 20
-162.100684
 30
0.0
  0
POINT
  5
130
330
74
100
AcDbEntity
  8
0
 62
     7
100
AcDbPoint
 10
-37.50021545669432
 20
-162.100684
 30
0.0
  0
POINT
  5
131
330
74
100
AcDbEntity
  8
0
 62
     7
100
AcDbPoint
 10
-177.0019584566943
 20
-7.00045699999998
 30
0.0
  0
POINT
  5
132
330
74
100
AcDbEntity
  8
0
 62
     7
100
AcDbPoint
 10
-72.50021545669432
 20
-109.600684
 30
0.0
  0
POINT
  5
133
330
74
100
AcDbEntity
  8
0
 62
     7
100
AcDbPoint
 10
94.77116954330569
 20
-16.35769199999999
 30
0.0
  0
POINT
  5
134
330
74
100
AcDbEntity
  8
0
 62
     7
100
AcDbPoint
 10
-94.77160145669433
 20
-16.35769199999999
 30
0.0
  0
POINT
  5
135
330
74
100
AcDbEntity
  8
0
 62
     7
100
AcDbPoint
 10
80.24978454330568
 20
-99.600684
 30
0.0
  0
POINT
  5
136
330
74
100
AcDbEntity
  8
0
 62
     7
100
AcDbPoint
 10
-80.25021545669432
 20
-99.600684
 30
0.0
  0
POINT
  5
137
330
74
100
AcDbEntity
  8
0
 62
     7
100
AcDbPoint
 10
177.0015265433057
 20
-7.00732599999998
 30
0.0
  0
POINT
  5
138
330
74
100
AcDbEntity
  8
0
 62
     7
100
AcDbPoint
 10
-177.0019584566943
 20
-7.00045699999998
 30
0.0
  0
POINT
  5
139
330
74
100
AcDbEntity
  8
0
 62
     7
100
AcDbPoint
 10
249.9997845433055
 20
0.0
 30
0.0
  0
POINT
  5
13A
330
74
100
AcDbEntity
  8
0
 62
     7
100
AcDbPoint
 10
-250.0002154566943
 20
0.0
 30
0.0
  0
LINE
  5
13B
330
74
100
AcDbEntity
  8
LC-001-002-----0
  6
Continuous
 62
     7
100
AcDbLine
 10
-75.9994594142118
 20
-108.7947990759338
 30
0.0
 11
-75.9994594142118
 21
-139.016704
 31
0.0
  0
LINE
  5
13C
330
74
100
AcDbEntity
  8
1
  6
Continuous
 62
     7
100
AcDbLine
 10
80.49978454330568
 20
-99.600684
 30
0.0
 11
-80.50021545669432
 21
-99.600684
 31
0.0
  0
LINE
  5
13D
330
74
100
AcDbEntity
  8
LC-001-002-----0
  6
DASHDOT
 62
     2
100
AcDbLine
 10
-69.4994594142118
 20
-139.016704
 30
0.0
 11
-66.88681341421176
 21
-139.016704
 31
0.0
  0
LINE
  5
13E
330
74
100
AcDbEntity
  8
LC-001-002-----0
  6
Continuous
 62
     7
100
AcDbLine
 10
-69.4994594142118
 20
-109.600684
 30
0.0
 11
-67.49280845669438
 21
-109.600684
 31
0.0
  0
LINE
  5
13F
330
74
100
AcDbEntity
  8
1
  6
Continuous
 62
     7
100
AcDbLine
 10
-69.4994594142118
 20
-139.016704
 30
0.0
 11
-69.4994594142118
 21
-109.600684
 31
0.0
  0
LINE
  5
140
330
74
100
AcDbEntity
  8
LC-001-002-----0
  6
DASHDOT
 62
     2
100
AcDbLine
 10
-78.6712464142118
 20
-140.516704
 30
0.0
 11
-66.88681341421176
 21
-140.516704
 31
0.0
  0
LINE
  5
141
330
74
100
AcDbEntity
  8
LC-001-002-----0
  6
DASHDOT
 62
     2
100
AcDbLine
 10
-78.6712464142118
 20
-139.016704
 30
0.0
 11
-69.4994594142118
 21
-139.016704
 31
0.0
  0
LINE
  5
142
330
74
100
AcDbEntity
  8
LC-001-002-----0
  6
Continuous
 62
     7
100
AcDbLine
 10
-69.4994594142118
 20
-140.516704
 30
0.0
 11
-69.4994594142118
 21
-182.0897239999999
 31
0.0
  0
LINE
  5
143
330
74
100
AcDbEntity
  8
LC-001-002-----0
  6
Continuous
 62
     7
100
AcDbLine
 10
-75.9994594142118
 20
-140.516704
 30
0.0
 11
-75.9994594142118
 21
-182.0897239999999
 31
0.0
  0
LINE
  5
144
330
74
100
AcDbEntity
  8
LC-001-002-----0
  6
Continuous
 62
     7
100
AcDbLine
 10
-202.1573844142118
 20
-221.672012
 30
0.0
 11
-202.2565564142117
 21
-222.668187
 31
0.0
  0
LINE
  5
145
330
74
100
AcDbEntity
  8
LC-001-002-----0
  6
Continuous
 62
     7
100
AcDbLine
 10
-202.3682694142117
 20
-224.8397239999999
 30
0.0
 11
-202.3682694142117
 21
-225.8397239999999
 31
0.0
  0
LINE
  5
146
330
74
100
AcDbEntity
  8
LC-001-002-----0
  6
Continuous
 62
     7
100
AcDbLine
 10
-202.1573844142118
 20
-229.007437
 30
0.0
 11
-202.2565564142117
 21
-228.011262
 31
0.0
  0
LINE
  5
147
330
74
100
AcDbEntity
  8
LC-001-002-----0
  6
Continuous
 62
     7
100
AcDbLine
 10
-195.1150814142117
 20
-228.888708
 30
0.0
 11
-195.2836024142118
 21
-227.395482
 31
0.0
  0
LINE
  5
148
330
74
100
AcDbEntity
  8
LC-001-002-----0
  6
Continuous
 62
     7
100
AcDbLine
 10
-195.3682694142117
 20
-224.5897239999999
 30
0.0
 11
-195.3682694142117
 21
-226.0897239999999
 31
0.0
  0
LINE
  5
149
330
74
100
AcDbEntity
  8
LC-001-002-----0
  6
Continuous
 62
     7
100
AcDbLine
 10
-195.1150814142117
 20
-221.7907399999999
 30
0.0
 11
-195.2836024142118
 21
-223.283967
 31
0.0
  0
LINE
  5
14A
330
74
100
AcDbEntity
  8
LC-001-002-----0
  6
Continuous
 62
     7
100
AcDbLine
 10
-195.1431684142117
 20
-222.0396109999999
 30
0.0
 11
-202.1573844142118
 21
-221.672012
 31
0.0
  0
LINE
  5
14B
330
74
100
AcDbEntity
  8
LC-001-002-----0
  6
Continuous
 62
     7
100
AcDbLine
 10
-195.2555154142117
 20
-223.035096
 30
0.0
 11
-202.2565564142117
 21
-222.668187
 31
0.0
  0
LINE
  5
14C
330
74
100
AcDbEntity
  8
LC-001-002-----0
  6
Continuous
 62
     7
100
AcDbLine
 10
-195.3682694142117
 20
-224.8397239999999
 30
0.0
 11
-202.3682694142117
 21
-224.8397239999999
 31
0.0
  0
LINE
  5
14D
330
74
100
AcDbEntity
  8
LC-001-002-----0
  6
Continuous
 62
     7
100
AcDbLine
 10
-195.3682694142117
 20
-225.8397239999999
 30
0.0
 11
-202.3682694142117
 21
-225.8397239999999
 31
0.0
  0
LINE
  5
14E
330
74
100
AcDbEntity
  8
LC-001-002-----0
  6
Continuous
 62
     7
100
AcDbLine
 10
-195.2555154142117
 20
-227.6443529999999
 30
0.0
 11
-202.2565564142117
 21
-228.011262
 31
0.0
  0
LINE
  5
14F
330
74
100
AcDbEntity
  8
LC-001-002-----0
  6
Continuous
 62
     7
100
AcDbLine
 10
-195.1431684142117
 20
-228.6398369999999
 30
0.0
 11
-202.1573844142118
 21
-229.007437
 31
0.0
  0
LINE
  5
150
330
74
100
AcDbEntity
  8
LC-001-002-----0
  6
Continuous
 62
     7
100
AcDbLine
 10
-170.3682694142117
 20
-227.591783
 30
0.0
 11
-195.1150814142117
 21
-228.888708
 31
0.0
  0
LINE
  5
151
330
74
100
AcDbEntity
  8
LC-001-002-----0
  6
Continuous
 62
     7
100
AcDbLine
 10
-170.3682694142117
 20
-226.0897239999999
 30
0.0
 11
-195.2836024142118
 21
-227.395482
 31
0.0
  0
LINE
  5
152
330
74
100
AcDbEntity
  8
LC-001-002-----0
  6
Continuous
 62
     7
100
AcDbLine
 10
-170.3682694142117
 20
-226.0897239999999
 30
0.0
 11
-195.3682694142117
 21
-226.0897239999999
 31
0.0
  0
LINE
  5
153
330
74
100
AcDbEntity
  8
LC-001-002-----0
  6
Continuous
 62
     7
100
AcDbLine
 10
-170.3682694142117
 20
-224.5897239999999
 30
0.0
 11
-195.3682694142117
 21
-224.5897239999999
 31
0.0
  0
LINE
  5
154
330
74
100
AcDbEntity
  8
LC-001-002-----0
  6
Continuous
 62
     7
100
AcDbLine
 10
-170.3682694142117
 20
-224.5897239999999
 30
0.0
 11
-195.2836024142118
 21
-223.283967
 31
0.0
  0
LINE
  5
155
330
74
100
AcDbEntity
  8
LC-001-002-----0
  6
Continuous
 62
     7
100
AcDbLine
 10
-170.3682694142117
 20
-223.087666
 30
0.0
 11
-195.1150814142117
 21
-221.7907399999999
 31
0.0
  0
LINE
  5
156
330
74
100
AcDbEntity
  8
LC-001-002-----0
  6
Continuous
 62
     7
100
AcDbLine
 10
-170.3682694142117
 20
-222.0897239999999
 30
0.0
 11
-170.3682694142117
 21
-228.5897239999999
 31
0.0
  0
LINE
  5
157
330
74
100
AcDbEntity
  8
LC-001-002-----0
  6
Continuous
 62
     7
100
AcDbLine
 10
-117.9994594142118
 20
-222.0897239999999
 30
0.0
 11
-170.3682694142117
 21
-222.0897239999999
 31
0.0
  0
LINE
  5
158
330
74
100
AcDbEntity
  8
LC-001-002-----0
  6
Continuous
 62
     7
100
AcDbLine
 10
-117.9994594142118
 20
-228.5897239999999
 30
0.0
 11
-170.3682694142117
 21
-228.5897239999999
 31
0.0
  0
LINE
  5
159
330
74
100
AcDbEntity
  8
LC-001-002-----0
  6
DASHDOT
 62
     2
100
AcDbLine
 10
-115.9994594142118
 20
-212.55013
 30
0.0
 11
-115.9994594142118
 21
-240.209519
 31
0.0
  0
LINE
  5
15A
330
74
100
AcDbEntity
  8
LC-001-002-----0
  6
DASHDOT
 62
     2
100
AcDbLine
 10
-117.9994594142118
 20
-212.55013
 30
0.0
 11
-117.9994594142118
 21
-240.209519
 31
0.0
  0
LINE
  5
15B
330
74
100
AcDbEntity
  8
LC-001-002-----0
  6
Continuous
 62
     7
100
AcDbLine
 10
-189.1180054142117
 20
-228.9561209999999
 30
0.0
 11
-189.1180054142117
 21
-228.9561209999999
 31
0.0
  0
LINE
  5
15C
330
74
100
AcDbEntity
  8
1
  6
Continuous
 62
     7
100
AcDbLine
 10
-37.50021545669432
 20
-162.100684
 30
0.0
 11
37.49978454330568
 21
-162.100684
 31
0.0
  0
LINE
  5
15D
330
74
100
AcDbEntity
  8
1
  6
PHANTOM
 62
     2
100
AcDbLine
 10
0.00001853315745
 20
-41.30330789096723
 30
0.0
 11
-0.00023139928424
 21
-170.3308033187821
 31
0.0
  0
LINE
  5
15E
330
74
100
AcDbEntity
  8
1
  6
Continuous
 62
     7
100
AcDbLine
 10
-88.99347868819035
 20
-31.300073733945
 30
0.0
 11
88.99304777480171
 21
-31.300073733945
 31
0.0
  0
LINE
  5
15F
330
74
100
AcDbEntity
  8
1
  6
Continuous
 62
     7
100
AcDbLine
 10
89.49907754330565
 20
-29.10821799999997
 30
0.0
 11
-89.49950845669429
 21
-29.10821799999997
 31
0.0
  0
LINE
  5
160
330
74
100
AcDbEntity
  8
1
  6
Continuous
 62
     7
100
AcDbLine
 10
-94.77160145669433
 20
-16.35769199999999
 30
0.0
 11
94.77117014756965
 21
-16.35769199999999
 31
0.0
  0
LINE
  5
161
330
74
100
AcDbEntity
  8
1
  6
Continuous
 62
     7
100
AcDbLine
 10
109.4895885433057
 20
-9.39752299999998
 30
0.0
 11
-109.4900204566943
 21
-9.39752299999998
 31
0.0
  0
LINE
  5
162
330
74
100
AcDbEntity
  8
1
  6
Continuous
 62
     7
100
AcDbLine
 10
-96.38112845669428
 20
-10.31418500000001
 30
0.0
 11
96.38069654330565
 21
-10.31418500000001
 31
0.0
  0
LINE
  5
163
330
74
100
AcDbEntity
  8
1
  6
Continuous
 62
     7
100
AcDbLine
 10
-94.98781815456238
 20
-11.73202706563598
 30
0.0
 11
95.01351854330568
 21
-11.73202706563598
 31
0.0
  0
LINE
  5
164
330
74
100
AcDbEntity
  8
1
  6
Continuous
 62
     7
100
AcDbLine
 10
-111.1966454566942
 20
-7.69089799999995
 30
0.0
 11
111.1962135433056
 21
-7.69089799999995
 31
0.0
  0
LINE
  5
165
330
74
100
AcDbEntity
  8
1
  6
Continuous
 62
     7
100
AcDbLine
 10
-177.0019584566943
 20
-4.0
 30
0.0
 11
177.0015265433057
 21
-4.0
 31
0.0
  0
LINE
  5
166
330
74
100
AcDbEntity
  8
1
  6
Continuous
 62
     7
100
AcDbLine
 10
57.4910875433057
 20
-109.600684
 30
0.0
 11
67.49237654330562
 21
-109.600684
 31
0.0
  0
LINE
  5
167
330
74
100
AcDbEntity
  8
1
  6
Continuous
 62
     7
100
AcDbLine
 10
-67.49280845669438
 20
-109.600684
 30
0.0
 11
-57.49151945669433
 21
-109.600684
 31
0.0
  0
LINE
  5
168
330
74
100
AcDbEntity
  8
1
  6
Continuous
 62
     7
100
AcDbLine
 10
91.49907754330565
 20
-19.20068399999997
 30
0.0
 11
-91.49950845669429
 21
-19.20068399999997
 31
0.0
  0
LINE
  5
169
330
74
100
AcDbEntity
  8
1
  6
Continuous
 62
     7
100
AcDbLine
 10
-89.49950845669429
 20
-21.20068399999997
 30
0.0
 11
89.49907754330565
 21
-21.20068399999997
 31
0.0
  0
LINE
  5
16A
330
74
100
AcDbEntity
  8
1
  6
Continuous
 62
     7
100
AcDbLine
 10
-81.28437659949935
 20
-41.30332195842198
 30
0.0
 11
81.28394568611071
 21
-41.30332195842198
 31
0.0
  0
LINE
  5
16B
330
74
100
AcDbEntity
  8
1
  6
Continuous
 62
     7
100
AcDbLine
 10
-250.0002154566943
 20
0.0
 30
0.0
 11
-250.0002154566943
 21
-4.0
 31
0.0
  0
LINE
  5
16C
330
74
100
AcDbEntity
  8
1
  6
Continuous
 62
     7
100
AcDbLine
 10
-37.50001206666267
 20
-109.600684
 30
0.0
 11
37.49978454330568
 21
-109.600684
 31
0.0
  0
LINE
  5
16D
330
74
100
AcDbEntity
  8
1
  6
Continuous
 62
     7
100
AcDbLine
 10
-80.25021545669432
 20
-42.72915299999994
 30
0.0
 11
80.24978454330568
 21
-42.72915299999994
 31
0.0
  0
LINE
  5
16E
330
74
100
AcDbEntity
  8
LC-001-002-----0
  6
Continuous
 62
     7
100
AcDbLine
 10
-37.50001206666267
 20
-109.600684
 30
0.0
 11
-37.50000245669429
 21
-109.600684
 31
0.0
  0
LINE
  5
16F
330
74
100
AcDbEntity
  8
LC-001-002-----0
  6
Continuous
 62
     7
100
AcDbLine
 10
37.49978454330568
 20
-109.600684
 30
0.0
 11
37.49978454330568
 21
-162.100684
 31
0.0
  0
LINE
  5
170
330
74
100
AcDbEntity
  8
LC-001-002-----0
  6
Continuous
 62
     7
100
AcDbLine
 10
37.49978454330568
 20
-162.100684
 30
0.0
 11
36.5619615433057
 21
-165.600684
 31
0.0
  0
LINE
  5
171
330
74
100
AcDbEntity
  8
LC-001-002-----0
  6
Continuous
 62
     7
100
AcDbLine
 10
-36.56239345669435
 20
-165.600684
 30
0.0
 11
36.5619615433057
 21
-165.600684
 31
0.0
  0
LINE
  5
172
330
74
100
AcDbEntity
  8
LC-001-002-----0
  6
Continuous
 62
     7
100
AcDbLine
 10
-37.50021545669432
 20
-162.100684
 30
0.0
 11
-36.56239345669435
 21
-165.600684
 31
0.0
  0
LINE
  5
173
330
74
100
AcDbEntity
  8
LC-001-002-----0
  6
Continuous
 62
     7
100
AcDbLine
 10
-37.50001206666267
 20
-109.600684
 30
0.0
 11
-37.50021545669432
 21
-162.100684
 31
0.0
  0
LINE
  5
174
330
74
100
AcDbEntity
  8
LC-001-002-----0
  6
Continuous
 62
     7
100
AcDbLine
 10
89.49907754330565
 20
-21.20068399999997
 30
0.0
 11
89.49907754330565
 21
-29.10821799999997
 31
0.0
  0
LINE
  5
175
330
74
100
AcDbEntity
  8
LC-001-002-----0
  6
Continuous
 62
     7
100
AcDbLine
 10
91.77528154330565
 20
-19.20068399999997
 30
0.0
 11
91.49907754330565
 21
-19.20068399999997
 31
0.0
  0
LINE
  5
176
330
74
100
AcDbEntity
  8
LC-001-002-----0
  6
Continuous
 62
     7
100
AcDbLine
 10
96.38069654330565
 20
-10.31418500000001
 30
0.0
 11
109.4895885433057
 21
-9.39752299999998
 31
0.0
  0
LINE
  5
177
330
74
100
AcDbEntity
  8
LC-001-002-----0
  6
Continuous
 62
     7
100
AcDbLine
 10
80.24978454330568
 20
-99.600684
 30
0.0
 11
77.74907754330565
 21
-99.600684
 31
0.0
  0
LINE
  5
178
330
74
100
AcDbEntity
  8
LC-001-002-----0
  6
Continuous
 62
     7
100
AcDbLine
 10
177.0015265433057
 20
-4.0
 30
0.0
 11
249.9997845433055
 21
-4.0
 31
0.0
  0
LINE
  5
179
330
74
100
AcDbEntity
  8
LC-001-002-----0
  6
Continuous
 62
     7
100
AcDbLine
 10
-150.7170514566943
 20
0.0
 30
0.0
 11
249.9997845433055
 21
0.0
 31
0.0
  0
LINE
  5
17A
330
74
100
AcDbEntity
  8
LC-001-002-----0
  6
Continuous
 62
     7
100
AcDbLine
 10
249.9997845433055
 20
0.0
 30
0.0
 11
249.9997845433055
 21
-4.0
 31
0.0
  0
LINE
  5
17B
330
74
100
AcDbEntity
  8
LC-001-002-----0
  6
Continuous
 62
     7
100
AcDbLine
 10
-150.7170514566943
 20
0.0
 30
0.0
 11
-250.0002154566943
 21
0.0
 31
0.0
  0
LINE
  5
17C
330
74
100
AcDbEntity
  8
LC-001-002-----0
  6
Continuous
 62
     7
100
AcDbLine
 10
-177.0019584566943
 20
-4.0
 30
0.0
 11
-250.0002154566943
 21
-4.0
 31
0.0
  0
LINE
  5
17D
330
74
100
AcDbEntity
  8
LC-001-002-----0
  6
Continuous
 62
     7
100
AcDbLine
 10
67.49237654330562
 20
-109.600684
 30
0.0
 11
72.49978454330568
 21
-109.600684
 31
0.0
  0
LINE
  5
17E
330
74
100
AcDbEntity
  8
LC-001-002-----0
  6
Continuous
 62
     7
100
AcDbLine
 10
37.49978454330568
 20
-109.600684
 30
0.0
 11
57.4910875433057
 21
-109.600684
 31
0.0
  0
LINE
  5
17F
330
74
100
AcDbEntity
  8
LC-001-002-----0
  6
Continuous
 62
     7
100
AcDbLine
 10
67.49237654330562
 20
-112.100684
 30
0.0
 11
67.49237654330562
 21
-109.600684
 31
0.0
  0
LINE
  5
180
330
74
100
AcDbEntity
  8
LC-001-002-----0
  6
Continuous
 62
     7
100
AcDbLine
 10
57.4910875433057
 20
-112.100684
 30
0.0
 11
67.49237654330562
 21
-112.100684
 31
0.0
  0
LINE
  5
181
330
74
100
AcDbEntity
  8
LC-001-002-----0
  6
Continuous
 62
     7
100
AcDbLine
 10
57.4910875433057
 20
-109.600684
 30
0.0
 11
57.4910875433057
 21
-112.100684
 31
0.0
  0
LINE
  5
182
330
74
100
AcDbEntity
  8
LC-001-002-----0
  6
Continuous
 62
     7
100
AcDbLine
 10
-57.49151945669433
 20
-109.600684
 30
0.0
 11
-37.50001206666267
 21
-109.600684
 31
0.0
  0
LINE
  5
183
330
74
100
AcDbEntity
  8
LC-001-002-----0
  6
Continuous
 62
     7
100
AcDbLine
 10
-57.49151945669433
 20
-112.100684
 30
0.0
 11
-57.49151945669433
 21
-109.600684
 31
0.0
  0
LINE
  5
184
330
74
100
AcDbEntity
  8
LC-001-002-----0
  6
Continuous
 62
     7
100
AcDbLine
 10
-67.49280845669438
 20
-112.100684
 30
0.0
 11
-57.49151945669433
 21
-112.100684
 31
0.0
  0
LINE
  5
185
330
74
100
AcDbEntity
  8
LC-001-002-----0
  6
Continuous
 62
     7
100
AcDbLine
 10
-67.49280845669438
 20
-109.600684
 30
0.0
 11
-67.49280845669438
 21
-112.100684
 31
0.0
  0
LINE
  5
186
330
74
100
AcDbEntity
  8
LC-001-002-----0
  6
Continuous
 62
     7
100
AcDbLine
 10
-72.50021545669432
 20
-109.600684
 30
0.0
 11
-69.4994594142118
 21
-109.600684
 31
0.0
  0
LINE
  5
187
330
74
100
AcDbEntity
  8
LC-001-002-----0
  6
Continuous
 62
     7
100
AcDbLine
 10
80.49978454330568
 20
-101.600684
 30
0.0
 11
80.49978454330568
 21
-99.600684
 31
0.0
  0
LINE
  5
188
330
74
100
AcDbEntity
  8
LC-001-002-----0
  6
Continuous
 62
     7
100
AcDbLine
 10
-80.50021545669432
 20
-101.600684
 30
0.0
 11
-80.50021545669432
 21
-99.600684
 31
0.0
  0
LINE
  5
189
330
74
100
AcDbEntity
  8
LC-001-002-----0
  6
Continuous
 62
     7
100
AcDbLine
 10
-80.50021545669432
 20
-99.600684
 30
0.0
 11
-77.50021545669432
 21
-99.600684
 31
0.0
  0
LINE
  5
18A
330
74
100
AcDbEntity
  8
LC-001-002-----0
  6
Continuous
 62
     7
100
AcDbLine
 10
111.1962135433056
 20
-7.69089799999995
 30
0.0
 11
177.0015265433057
 21
-7.00732599999998
 31
0.0
  0
LINE
  5
18B
330
74
100
AcDbEntity
  8
LC-001-002-----0
  6
Continuous
 62
     7
100
AcDbLine
 10
-80.25021545669432
 20
-42.72915299999994
 30
0.0
 11
-80.25021545669432
 21
-99.600684
 31
0.0
  0
LINE
  5
18C
330
74
100
AcDbEntity
  8
LC-001-002-----0
  6
Continuous
 62
     7
100
AcDbLine
 10
-86.74812745669436
 20
-19.71605199999999
 30
0.0
 11
-86.74812745669436
 21
-19.71605199999999
 31
0.0
  0
LINE
  5
18D
330
74
100
AcDbEntity
  8
LC-001-002-----0
  6
Continuous
 62
     7
100
AcDbLine
 10
80.24978454330568
 20
-42.72915299999994
 30
0.0
 11
80.24978454330568
 21
-99.600684
 31
0.0
  0
LINE
  5
18E
330
74
100
AcDbEntity
  8
LC-001-002-----0
  6
Continuous
 62
     7
100
AcDbLine
 10
177.0015265433057
 20
-4.0
 30
0.0
 11
177.0015265433057
 21
-7.00732599999998
 31
0.0
  0
LINE
  5
18F
330
74
100
AcDbEntity
  8
LC-001-002-----0
  6
Continuous
 62
     7
100
AcDbLine
 10
-177.0019584566943
 20
-4.0
 30
0.0
 11
-177.0019584566943
 21
-7.00045699999998
 31
0.0
  0
LINE
  5
190
330
74
100
AcDbEntity
  8
LC-001-002-----0
  6
Continuous
 62
     7
100
AcDbLine
 10
-82.63816045669438
 20
-40.86102199999993
 30
0.0
 11
-81.28437745669436
 21
-41.30332199999998
 31
0.0
  0
LINE
  5
191
330
74
100
AcDbEntity
  8
LC-001-002-----0
  6
Continuous
 62
     7
100
AcDbLine
 10
-88.99347945669427
 20
-31.30007399999994
 30
0.0
 11
-85.57933445669431
 21
-38.30010799999997
 31
0.0
  0
LINE
  5
192
330
74
100
AcDbEntity
  8
LC-001-002-----0
  6
Continuous
 62
     7
100
AcDbLine
 10
82.63772854330563
 20
-40.86102199999993
 30
0.0
 11
81.28394554330572
 21
-41.30332199999998
 31
0.0
  0
LINE
  5
193
330
74
100
AcDbEntity
  8
LC-001-002-----0
  6
Continuous
 62
     7
100
AcDbLine
 10
88.99304754330564
 20
-31.30007399999994
 30
0.0
 11
85.57890254330567
 21
-38.30010799999997
 31
0.0
  0
LINE
  5
194
330
74
100
AcDbEntity
  8
LC-001-002-----0
  6
Continuous
 62
     7
100
AcDbLine
 10
95.01351854330568
 20
-11.73339699999997
 30
0.0
 11
94.77116954330569
 21
-16.35769199999999
 31
0.0
  0
LINE
  5
195
330
74
100
AcDbEntity
  8
LC-001-002-----0
  6
Continuous
 62
     7
100
AcDbLine
 10
111.1962135433056
 20
-7.69089799999995
 30
0.0
 11
109.4895885433057
 21
-9.39752299999998
 31
0.0
  0
LINE
  5
196
330
74
100
AcDbEntity
  8
LC-001-002-----0
  6
Continuous
 62
     7
100
AcDbLine
 10
-89.49950845669429
 20
-29.10821799999997
 30
0.0
 11
-89.49950845669429
 21
-21.20068399999997
 31
0.0
  0
LINE
  5
197
330
74
100
AcDbEntity
  8
LC-001-002-----0
  6
Continuous
 62
     7
100
AcDbLine
 10
-95.01395045669432
 20
-11.73339699999997
 30
0.0
 11
-94.77160145669433
 21
-16.35769199999999
 31
0.0
  0
LINE
  5
198
330
74
100
AcDbEntity
  8
LC-003-001-----0
  6
Continuous
 62
     7
100
AcDbLine
 10
-109.4900204566943
 20
-9.39752299999998
 30
0.0
 11
-96.38112845669428
 21
-10.31418500000001
 31
0.0
  0
LINE
  5
199
330
74
100
AcDbEntity
  8
LC-001-002-----0
  6
Continuous
 62
     7
100
AcDbLine
 10
-111.1966454566942
 20
-7.69089799999995
 30
0.0
 11
-109.4900204566943
 21
-9.39752299999998
 31
0.0
  0
LINE
  5
19A
330
74
100
AcDbEntity
  8
LC-001-002-----0
  6
Continuous
 62
     7
100
AcDbLine
 10
-177.0019584566943
 20
-7.00045699999998
 30
0.0
 11
-111.1966454566942
 21
-7.69089799999995
 31
0.0
  0
ARC
  5
19B
330
74
100
AcDbEntity
  8
LC-002-002-RND-0
  6
Continuous
 62
     7
100
AcDbCircle
 10
-115.9994594142118
 20
-182.0897239999999
 30
0.0
 40
46.5
100
AcDbArc
 50
270.0
 51
0.0
  0
ARC
  5
19C
330
74
100
AcDbEntity
  8
LC-002-002-RND-0
  6
Continuous
 62
     7
100
AcDbCircle
 10
-115.9994594142118
 20
-182.0897239999999
 30
0.0
 40
40.0
100
AcDbArc
 50
270.0
 51
0.0
  0
ARC
  5
19D
330
74
100
AcDbEntity
  8
LC-002-002-RND-0
  6
Continuous
 62
     7
100
AcDbCircle
 10
81.74978454330568
 20
-42.72915299999994
 30
0.0
 40
1.499999999999999
100
AcDbArc
 50
108.0929360000111
 51
180.0
  0
ARC
  5
19E
330
74
100
AcDbEntity
  8
LC-002-002-RND-0
  6
Continuous
 62
     7
100
AcDbCircle
 10
-72.50021545669432
 20
-101.600684
 30
0.0
 40
8.0
100
AcDbArc
 50
180.0
 51
270.0
  0
ARC
  5
19F
330
74
100
AcDbEntity
  8
LC-002-002-RND-0
  6
Continuous
 62
     7
100
AcDbCircle
 10
72.49978454330568
 20
-101.600684
 30
0.0
 40
8.0
100
AcDbArc
 50
270.0
 51
0.0
  0
ARC
  5
1A0
330
74
100
AcDbEntity
  8
LC-002-002-RND-0
  6
Continuous
 62
     7
100
AcDbCircle
 10
-81.08536445669432
 20
-36.10825199999999
 30
0.0
 40
5.000000000000026
100
AcDbArc
 50
205.9999999999946
 51
251.9070639999975
  0
ARC
  5
1A1
330
74
100
AcDbEntity
  8
LC-002-002-RND-0
  6
Continuous
 62
     7
100
AcDbCircle
 10
81.08493254330568
 20
-36.10825199999999
 30
0.0
 40
4.999999999999496
100
AcDbArc
 50
288.0929360000025
 51
334.0000000000048
  0
ARC
  5
1A2
330
74
100
AcDbEntity
  8
LC-002-002-RND-0
  6
Continuous
 62
     7
100
AcDbCircle
 10
84.49907754330565
 20
-29.10821799999997
 30
0.0
 40
5.000000000000049
100
AcDbArc
 50
334.0000000000048
 51
0.0
  0
ARC
  5
1A3
330
74
100
AcDbEntity
  8
LC-002-002-RND-0
  6
Continuous
 62
     7
100
AcDbCircle
 10
91.49907754330565
 20
-21.20068399999997
 30
0.0
 40
2.0
100
AcDbArc
 50
90.0
 51
180.0
  0
ARC
  5
1A4
330
74
100
AcDbEntity
  8
LC-002-002-RND-0
  6
Continuous
 62
     7
100
AcDbCircle
 10
-81.75021545669432
 20
-42.72915299999994
 30
0.0
 40
1.5
100
AcDbArc
 50
0.0
 51
71.9070639999889
  0
ARC
  5
1A5
330
74
100
AcDbEntity
  8
LC-002-002-RND-0
  6
Continuous
 62
     7
100
AcDbCircle
 10
91.77528154330565
 20
-16.20068399999997
 30
0.0
 40
3.0
100
AcDbArc
 50
270.0
 51
356.9999999999969
  0
ARC
  5
1A6
330
74
100
AcDbEntity
  8
LC-004-001-RND-0
  6
Continuous
 62
     7
100
AcDbCircle
 10
96.48533054330568
 20
-11.81053099999997
 30
0.0
 40
1.499999999999649
100
AcDbArc
 50
93.99999700001342
 51
177.0000000000166
  0
ARC
  5
1A7
330
74
100
AcDbEntity
  8
LC-002-002-RND-0
  6
Continuous
 62
     7
100
AcDbCircle
 10
-84.49950845669429
 20
-29.10821799999997
 30
0.0
 40
5.0
100
AcDbArc
 50
180.0
 51
205.9999999999951
  0
ARC
  5
1A8
330
74
100
AcDbEntity
  8
LC-002-002-RND-0
  6
Continuous
 62
     7
100
AcDbCircle
 10
-91.49950845669429
 20
-21.20068399999997
 30
0.0
 40
2.0
100
AcDbArc
 50
0.0
 51
90.0
  0
ARC
  5
1A9
330
74
100
AcDbEntity
  8
LC-002-002-RND-0
  6
Continuous
 62
     7
100
AcDbCircle
 10
-91.7757124566943
 20
-16.20068399999997
 30
0.0
 40
3.000000000000284
100
AcDbArc
 50
183.0000000000032
 51
270.0
  0
ARC
  5
1AA
330
74
100
AcDbEntity
  8
LC-004-001-RND-0
  6
Continuous
 62
     7
100
AcDbCircle
 10
-96.48576245669432
 20
-11.81053099999997
 30
0.0
 40
1.500000000000058
100
AcDbArc
 50
2.99999999998361
 51
86.00000299998658
  0
ENDBLK
  5
76
330
74
100
AcDbEntity
  8
0
100
AcDbBlockEnd
  0
BLOCK
  5
79
330
77
100
AcDbEntity
  8
0
100
AcDbBlockBegin
  2
HL_60H_7_Flachdachablauf
 70
     0
 10
-0.00021545669439
 20
-120.1047595
 30
0.0
  3
HL_60H_7_Flachdachablauf
  1

  0
INSERT
  5
78
330
77
100
AcDbEntity
  8
0
100
AcDbBlockReference
  2
TOP
 10
-0.00021545669439
 20
-120.1047595
 30
0.0
  0
ENDBLK
  5
7A
330
77
100
AcDbEntity
  8
0
100
AcDbBlockEnd
  0
BLOCK
  5
7E
330
7B
100
AcDbEntity
  8
0
100
AcDbBlockBegin
  2
HL_62_1BH_7_DN75_Dachablauf
 70
     0
 10
-11.00007810551306
 20
-52.47282891423356
 30
0.0
  3
HL_62_1BH_7_DN75_Dachablauf
  1

  0
INSERT
  5
7C
330
7B
100
AcDbEntity
  8
0
100
AcDbBlockReference
  2
HL_66_0_Aufsatzrahmen
 10
0.00000000000002
 20
19.71190123812218
 30
0.0
  0
INSERT
  5
7D
330
7B
100
AcDbEntity
  8
0
100
AcDbBlockReference
  2
HL_60H_7_Flachdachablauf
 10
-0.00021545669439
 20
-120.1047595
 30
0.0
  0
DIMENSION
  5
1B6
330
7B
100
AcDbEntity
  8
1
100
AcDbDimension
280
     0
  2
*D6
 10
-260.0002154566756
 20
0.0000193704792
 30
0.0
 11
-267.0001477482396
 21
34.95447167189097
 31
0.0
 70
    32
  1
12-65
 71
     5
 42
-1.0
 73
     0
 74
     0
 75
     0
 53
89.99988901532947
  3
ME10_DIM_10
100
AcDbAlignedDimension
 13
-73.49999999999997
 23
65.0
 33
0.0
 14
-250.0002154566943
 24
0.0
 34
0.0
 50
89.99988901532947
100
AcDbRotatedDimension
  0
DIMENSION
  5
1C1
330
7B
100
AcDbEntity
  8
1
100
AcDbDimension
280
     0
  2
*D7
 10
-249.999975531105
 20
123.8614629774025
 30
0.0
 11
22.88961024397879
 21
130.860934377211
 31
0.0
 70
    32
  1
<>x500
 71
     5
 42
-1.0
 73
     0
 74
     0
 75
     0
 53
0.00013888888889
  3
ME10_DIM_11
100
AcDbAlignedDimension
 13
249.9997845433055
 23
0.0
 33
0.0
 14
-250.0002154566943
 24
0.0
 34
0.0
 50
-0.00011098467054
100
AcDbRotatedDimension
  0
DIMENSION
  5
1CC
330
7B
100
AcDbEntity
  8
1
100
AcDbDimension
280
     0
  2
*D8
 10
-177.0017541226699
 20
98.48687881100948
 30
0.0
 11
-19.25763365708398
 21
105.4865732531021
 31
0.0
 70
    32
  1
<>
 71
     5
 42
-1.0
 73
     0
 74
     0
 75
     0
 53
0.00013888888889
  3
ME10_DIM_12
100
AcDbAlignedDimension
 13
177.0015265433057
 23
-4.0
 33
0.0
 14
-177.0019584566943
 24
-7.00045699999998
 34
0.0
 50
-0.00011098467054
100
AcDbRotatedDimension
  0
DIMENSION
  5
1D7
330
7B
100
AcDbEntity
  8
1
100
AcDbDimension
280
     0
  2
*D9
 10
73.50000000000001
 20
75.61666882296458
 30
0.0
 11
3.87900336425208
 21
82.61666882296458
 31
0.0
 70
    32
  1
150x150
 71
     5
 42
-1.0
 73
     0
 74
     0
 75
     0
 53
0.00013888888889
  3
ME10_DIM_13
100
AcDbAlignedDimension
 13
-73.49999999999997
 23
65.0
 33
0.0
 14
73.50000000000001
 24
65.0
 34
0.0
100
AcDbRotatedDimension
  0
DIMENSION
  5
1E3
330
7B
100
AcDbEntity
  8
1
100
AcDbDimension
280
     0
  2
*D10
 10
-94.77203235023022
 20
-238.8062599191035
 30
0.0
 11
-1.04151480687848
 21
-231.8064414795944
 31
0.0
 70
    32
  1
Ø190
 71
     5
 42
-1.0
 73
     0
 74
     0
 75
     0
 53
0.00013888888889
  3
ME10_DIM_14
100
AcDbAlignedDimension
 13
94.77117014756965
 23
-16.35769199999999
 33
0.0
 14
-94.77160145669433
 24
-16.35769199999999
 34
0.0
 50
-0.00011098467054
100
AcDbRotatedDimension
  0
DIMENSION
  5
1EF
330
7B
100
AcDbEntity
  8
1
100
AcDbDimension
280
     0
  2
*D11
 10
-80.50043508602215
 20
-212.9842123649822
 30
0.0
 11
-0.20854469122106
 21
-205.9843678942083
 31
0.0
 70
    32
  1
Ø160
 71
     5
 42
-1.0
 73
     0
 74
     0
 75
     0
 53
0.00013888888889
  3
ME10_DIM_15
100
AcDbAlignedDimension
 13
80.49978454330568
 23
-101.600684
 33
0.0
 14
-80.50021545669432
 24
-99.600684
 34
0.0
 50
-0.00011098467054
100
AcDbRotatedDimension
  0
DIMENSION
  5
1FB
330
7B
100
AcDbEntity
  8
1
100
AcDbDimension
280
     0
  2
*D12
 10
-37.50026077486501
 20
-185.4961664762127
 30
0.0
 11
72.26650623090708
 21
-172.3578561645375
 31
0.0
 70
    32
  1
<>
 71
     5
 42
-1.0
 73
     0
 74
     0
 75
     0
 53
0.00013888888889
  3
ME10_DIM_16
100
AcDbAlignedDimension
 13
37.49978454330568
 23
-162.100684
 33
0.0
 14
-37.50021545669432
 24
-162.100684
 34
0.0
 50
-0.00011098467054
100
AcDbRotatedDimension
  0
DIMENSION
  5
206
330
7B
100
AcDbEntity
  8
1
100
AcDbDimension
280
     0
  2
*D13
 10
-187.0021571978398
 20
-109.6004622042519
 30
0.0
 11
-194.0020513540941
 21
-54.95867574061543
 31
0.0
 70
    32
  1
100
 71
     5
 42
-1.0
 73
     0
 74
     0
 75
     0
 53
89.99988901532947
  3
ME10_DIM_17
100
AcDbAlignedDimension
 13
-177.0019584566943
 23
-7.00045699999998
 33
0.0
 14
-72.50021545669432
 24
-109.600684
 34
0.0
 50
89.99988901532947
100
AcDbRotatedDimension
  0
ENDBLK
  5
7F
330
7B
100
AcDbEntity
  8
0
100
AcDbBlockEnd
  0
BLOCK
  5
1B3
330
1AB
100
AcDbEntity
  8
0
100
AcDbBlockBegin
  2
*D6
 70
     1
 10
0.0
 20
0.0
 30
0.0
  3
*D6
  1

  0
LINE
  5
1AC
330
1AB
100
AcDbEntity
  8
1
  6
Continuous
 62
     4
100
AcDbLine
 10
-260.0002154566756
 20
0.0000193704792
 30
0.0
 11
-260.0000895478985
 21
65.00036125961061
 31
0.0
  0
LINE
  5
1AD
330
1AB
100
AcDbEntity
  8
1
  6
Continuous
 62
     4
100
AcDbLine
 10
-73.5
 20
65.0
 30
0.0
 11
-262.0000895478948
 21
65.00036513370645
 31
0.0
  0
LINE
  5
1AE
330
1AB
100
AcDbEntity
  8
1
  6
Continuous
 62
     4
100
AcDbLine
 10
-250.0002154566944
 20
0.0
 30
0.0
 11
-262.0002154566719
 21
0.00002324457504
 31
0.0
  0
SOLID
  5
1AF
330
1AB
100
AcDbEntity
  8
1
 62
     4
100
AcDbTrace
 10
-261.3167210620682
 20
10.00002192063238
 30
0.0
 11
-258.6836711103251
 21
10.0000168202885
 31
0.0
 12
-260.0002154566756
 22
0.0000193704792
 32
0.0
 13
-260.0002154566756
 23
0.0000193704792
 33
0.0
  0
SOLID
  5
1B0
330
1AB
100
AcDbEntity
  8
1
 62
     4
100
AcDbTrace
 10
-258.6835839425061
 20
55.00035870945744
 30
0.0
 11
-261.316633894249
 21
55.00036380980131
 31
0.0
 12
-260.0000895478985
 22
65.00036125961061
 32
0.0
 13
-260.0000895478985
 23
65.00036125961061
 33
0.0
  0
MTEXT
  5
1B2
330
1AB
100
AcDbEntity
  8
1
 62
     1
100
AcDbMText
 10
-262.0001845521595
 20
15.95446198668701
 30
0.0
 40
10.0
 41
0.0
 46
0.0
 71
     7
 72
     1
  1
12-65
  7
CONVERTER_11
 11
1.937047920124238E-6
 21
0.9999999999981239
 31
0.0
 73
     1
 44
0.60024009603842
  0
ENDBLK
  5
1B4
330
1AB
100
AcDbEntity
  8
0
100
AcDbBlockEnd
  0
BLOCK
  5
1BE
330
1B7
100
AcDbEntity
  8
0
100
AcDbBlockBegin
  2
*D7
 70
     1
 10
0.0
 20
0.0
 30
0.0
  3
*D7
  1

  0
LINE
  5
1B8
330
1B7
100
AcDbEntity
  8
1
  6
Continuous
 62
     4
100
AcDbLine
 10
-249.999975531105
 20
123.8614629774025
 30
0.0
 11
250.0000244670188
 21
123.8604944534423
 31
0.0
  0
LINE
  5
1B9
330
1B7
100
AcDbEntity
  8
1
  6
Continuous
 62
     4
100
AcDbLine
 10
-250.0002154566943
 20
0.0
 30
0.0
 11
-249.9999716570092
 21
125.8614629773987
 31
0.0
  0
LINE
  5
1BA
330
1B7
100
AcDbEntity
  8
1
  6
Continuous
 62
     4
100
AcDbLine
 10
249.9997845433055
 20
0.0
 30
0.0
 11
250.0000283411146
 21
125.8604944534385
 31
0.0
  0
SOLID
  5
1BB
330
1B7
100
AcDbEntity
  8
1
 62
     4
100
AcDbTrace
 10
-239.9999729809518
 20
125.1779685827947
 30
0.0
 11
-239.9999780812958
 21
122.5449186310517
 31
0.0
 12
-249.999975531105
 22
123.8614629774025
 32
0.0
 13
-249.999975531105
 23
123.8614629774025
 33
0.0
  0
SOLID
  5
1BC
330
1B7
100
AcDbEntity
  8
1
 62
     4
100
AcDbTrace
 10
240.0000219168656
 20
122.5439888480501
 30
0.0
 11
240.0000270172095
 21
125.1770387997931
 31
0.0
 12
250.0000244670188
 22
123.8604944534423
 32
0.0
 13
250.0000244670188
 23
123.8604944534423
 33
0.0
  0
MTEXT
  5
1BD
330
1B7
100
AcDbEntity
  8
1
 62
     1
100
AcDbMText
 10
-8.11039944120265
 20
125.8609944257059
 30
0.0
 40
10.0
 41
0.0
 46
0.0
 71
     7
 72
     1
  1
\C1;\C1;500\C1;x500
  7
CONVERTER_11
 11
0.9999999999970621
 21
2.424068405545307E-6
 31
0.0
 73
     1
 44
0.60024009603842
  0
ENDBLK
  5
1BF
330
1B7
100
AcDbEntity
  8
0
100
AcDbBlockEnd
  0
BLOCK
  5
1C9
330
1C2
100
AcDbEntity
  8
0
100
AcDbBlockBegin
  2
*D8
 70
     1
 10
0.0
 20
0.0
 30
0.0
  3
*D8
  1

  0
LINE
  5
1C3
330
1C2
100
AcDbEntity
  8
1
  6
Continuous
 62
     4
100
AcDbLine
 10
-177.0017541226699
 20
98.48687881100948
 30
0.0
 11
177.0017250639729
 21
98.48619308930628
 31
0.0
  0
LINE
  5
1C4
330
1C2
100
AcDbEntity
  8
1
  6
Continuous
 62
     4
100
AcDbLine
 10
177.0015265433057
 20
-4.0
 30
0.0
 11
177.0017289380687
 21
100.4861930893025
 31
0.0
  0
LINE
  5
1C5
330
1C2
100
AcDbEntity
  8
1
  6
Continuous
 62
     4
100
AcDbLine
 10
-177.0019584566944
 20
-7.00045699999991
 30
0.0
 11
-177.001750248574
 21
100.4868788110057
 31
0.0
  0
SOLID
  5
1C6
330
1C2
100
AcDbEntity
  8
1
 62
     4
100
AcDbTrace
 10
-167.0017515725166
 20
99.8033844164017
 30
0.0
 11
-167.0017566728606
 21
97.17033446465872
 31
0.0
 12
-177.0017541226699
 22
98.48687881100948
 32
0.0
 13
-177.0017541226699
 23
98.48687881100948
 33
0.0
  0
SOLID
  5
1C7
330
1C2
100
AcDbEntity
  8
1
 62
     4
100
AcDbTrace
 10
167.0017225138197
 20
97.16968748391406
 30
0.0
 11
167.0017276141637
 21
99.80273743565704
 31
0.0
 12
177.0017250639729
 22
98.48619308930628
 32
0.0
 13
177.0017250639729
 23
98.48619308930628
 33
0.0
  0
MTEXT
  5
1C8
330
1C2
100
AcDbEntity
  8
1
 62
     1
100
AcDbMText
 10
-33.45764334228823
 20
100.4865649980381
 30
0.0
 40
10.0
 41
0.0
 46
0.0
 71
     7
 72
     1
  1
\C1;%%c\C1;354
  7
CONVERTER_11
 11
0.9999999999970621
 21
2.424068405545307E-6
 31
0.0
 73
     1
 44
0.60024009603842
  0
ENDBLK
  5
1CA
330
1C2
100
AcDbEntity
  8
0
100
AcDbBlockEnd
  0
BLOCK
  5
1D4
330
1CD
100
AcDbEntity
  8
0
100
AcDbBlockBegin
  2
*D9
 70
     1
 10
0.0
 20
0.0
 30
0.0
  3
*D9
  1

  0
LINE
  5
1CE
330
1CD
100
AcDbEntity
  8
1
  6
Continuous
 62
     4
100
AcDbLine
 10
73.50000000000001
 20
75.61666882296458
 30
0.0
 11
-73.49999999999997
 21
75.61666882296458
 31
0.0
  0
LINE
  5
1CF
330
1CD
100
AcDbEntity
  8
1
  6
Continuous
 62
     4
100
AcDbLine
 10
-73.49999999999997
 20
65.0
 30
0.0
 11
-73.49999999999997
 21
77.61666882296458
 31
0.0
  0
LINE
  5
1D0
330
1CD
100
AcDbEntity
  8
1
  6
Continuous
 62
     4
100
AcDbLine
 10
73.50000000000001
 20
65.0
 30
0.0
 11
73.50000000000001
 21
77.61666882296458
 31
0.0
  0
SOLID
  5
1D1
330
1CD
100
AcDbEntity
  8
1
 62
     4
100
AcDbTrace
 10
63.50000000000001
 20
74.30014384709062
 30
0.0
 11
63.50000000000001
 21
76.93319379883854
 31
0.0
 12
73.50000000000001
 22
75.61666882296458
 32
0.0
 13
73.50000000000001
 23
75.61666882296458
 33
0.0
  0
SOLID
  5
1D2
330
1CD
100
AcDbEntity
  8
1
 62
     4
100
AcDbTrace
 10
-63.49999999999997
 20
76.93319379883854
 30
0.0
 11
-63.49999999999997
 21
74.30014384709062
 31
0.0
 12
-73.49999999999997
 22
75.61666882296458
 32
0.0
 13
-73.49999999999997
 23
75.61666882296458
 33
0.0
  0
MTEXT
  5
1D3
330
1CD
100
AcDbEntity
  8
1
 62
     1
100
AcDbMText
 10
-24.12099663574791
 20
77.61666882296458
 30
0.0
 40
10.0
 41
0.0
 46
0.0
 71
     7
 72
     1
  1
\C1;150\C1;x150
  7
CONVERTER_11
 11
0.9999999999970621
 21
2.424068405545307E-6
 31
0.0
 73
     1
 44
0.60024009603842
  0
ENDBLK
  5
1D5
330
1CD
100
AcDbEntity
  8
0
100
AcDbBlockEnd
  0
BLOCK
  5
1E0
330
1D8
100
AcDbEntity
  8
0
100
AcDbBlockBegin
  2
*D10
 70
     1
 10
0.0
 20
0.0
 30
0.0
  3
*D10
  1

  0
LINE
  5
1D9
330
1D8
100
AcDbEntity
  8
1
  6
Continuous
 62
     4
100
AcDbLine
 10
-94.77203235023022
 20
-238.8062599191035
 30
0.0
 11
94.77073925332259
 21
-238.8066270725351
 31
0.0
  0
LINE
  5
1DA
330
1D8
100
AcDbEntity
  8
1
  6
Continuous
 62
     4
100
AcDbLine
 10
-94.77160145669433
 20
-16.35769200000001
 30
0.0
 11
-94.77203622432606
 21
-240.8062599190997
 31
0.0
  0
LINE
  5
1DB
330
1D8
100
AcDbEntity
  8
1
  6
Continuous
 62
     4
100
AcDbLine
 10
94.77082446480021
 20
-194.816245244784
 30
0.0
 11
94.77073537922674
 21
-240.8066270725313
 31
0.0
  0
LINE
  5
1DC
330
1D8
100
AcDbEntity
  8
1
  6
Continuous
 62
     4
100
AcDbLine
 10
94.77117014756965
 20
-16.35769200000001
 30
0.0
 11
94.77089520707939
 21
-158.2955797335045
 31
0.0
  0
SOLID
  5
1DD
330
1D8
100
AcDbEntity
  8
1
 62
     4
100
AcDbTrace
 10
-84.77202980007701
 20
-237.4897543137113
 30
0.0
 11
-84.77203490042095
 21
-240.1228042654543
 31
0.0
 12
-94.77203235023022
 22
-238.8062599191035
 32
0.0
 13
-94.77203235023022
 23
-238.8062599191035
 33
0.0
  0
SOLID
  5
1DE
330
1D8
100
AcDbEntity
  8
1
 62
     4
100
AcDbTrace
 10
84.77073670316938
 20
-240.1231326779273
 30
0.0
 11
84.77074180351332
 21
-237.4900827261843
 31
0.0
 12
94.77073925332259
 22
-238.8066270725351
 32
0.0
 13
94.77073925332259
 23
-238.8066270725351
 33
0.0
  0
MTEXT
  5
1DF
330
1D8
100
AcDbEntity
  8
1
 62
     1
100
AcDbMText
 10
-13.74152449208554
 20
-236.8064526402303
 30
0.0
 40
10.0
 41
0.0
 46
0.0
 71
     7
 72
     1
  1
\C1;%%c\C1;190
  7
CONVERTER_11
 11
0.9999999999970621
 21
2.424068405545307E-6
 31
0.0
 73
     1
 44
0.60024009603842
  0
ENDBLK
  5
1E1
330
1D8
100
AcDbEntity
  8
0
100
AcDbBlockEnd
  0
BLOCK
  5
1EC
330
1E4
100
AcDbEntity
  8
0
100
AcDbBlockBegin
  2
*D11
 70
     1
 10
0.0
 20
0.0
 30
0.0
  3
*D11
  1

  0
LINE
  5
1E5
330
1E4
100
AcDbEntity
  8
1
  6
Continuous
 62
     4
100
AcDbLine
 10
-80.50043508602215
 20
-212.9842123649822
 30
0.0
 11
80.49956878746963
 21
-212.9845242297048
 31
0.0
  0
LINE
  5
1E6
330
1E4
100
AcDbEntity
  8
1
  6
Continuous
 62
     4
100
AcDbLine
 10
-80.50021545669432
 20
-99.600684
 30
0.0
 11
-80.50043896011799
 21
-214.9842123649784
 31
0.0
  0
LINE
  5
1E7
330
1E4
100
AcDbEntity
  8
1
  6
Continuous
 62
     4
100
AcDbLine
 10
80.49960332475518
 20
-195.1546681768869
 30
0.0
 11
80.49956491337376
 21
-214.9845242297011
 31
0.0
  0
LINE
  5
1E8
330
1E4
100
AcDbEntity
  8
1
  6
Continuous
 62
     4
100
AcDbLine
 10
80.49978454330568
 20
-101.600684
 30
0.0
 11
80.49967431889009
 21
-158.503982281339
 31
0.0
  0
SOLID
  5
1E9
330
1E4
100
AcDbEntity
  8
1
 62
     4
100
AcDbTrace
 10
-70.50043253586894
 20
-211.6677067595899
 30
0.0
 11
-70.5004376362129
 21
-214.3007567113329
 31
0.0
 12
-80.50043508602215
 22
-212.9842123649822
 32
0.0
 13
-80.50043508602215
 23
-212.9842123649822
 33
0.0
  0
SOLID
  5
1EA
330
1E4
100
AcDbEntity
  8
1
 62
     4
100
AcDbTrace
 10
70.49956623731642
 20
-214.3010298350971
 30
0.0
 11
70.49957133766037
 21
-211.6679798833541
 31
0.0
 12
80.49956878746963
 22
-212.9845242297048
 32
0.0
 13
80.49956878746963
 23
-212.9845242297048
 33
0.0
  0
MTEXT
  5
1EB
330
1E4
100
AcDbEntity
  8
1
 62
     1
100
AcDbMText
 10
-12.90855437642813
 20
-210.9843790548442
 30
0.0
 40
10.0
 41
0.0
 46
0.0
 71
     7
 72
     1
  1
\C1;%%c\C1;160
  7
CONVERTER_11
 11
0.9999999999970621
 21
2.424068405545307E-6
 31
0.0
 73
     1
 44
0.60024009603842
  0
ENDBLK
  5
1ED
330
1E4
100
AcDbEntity
  8
0
100
AcDbBlockEnd
  0
BLOCK
  5
1F8
330
1F0
100
AcDbEntity
  8
0
100
AcDbBlockBegin
  2
*D12
 70
     1
 10
0.0
 20
0.0
 30
0.0
  3
*D12
  1

  0
LINE
  5
1F1
330
1F0
100
AcDbEntity
  8
1
  6
Continuous
 62
     4
100
AcDbLine
 10
-37.50026077486501
 20
-185.4961664762127
 30
0.0
 11
37.49973922485358
 21
-185.4963117548068
 31
0.0
  0
LINE
  5
1F2
330
1F0
100
AcDbEntity
  8
1
  6
Continuous
 62
     4
100
AcDbLine
 10
37.49973922485358
 20
-185.4963117548068
 30
0.0
 11
90.76648078092387
 21
-185.4964149350377
 31
0.0
  0
LINE
  5
1F3
330
1F0
100
AcDbEntity
  8
1
  6
Continuous
 62
     4
100
AcDbLine
 10
-37.50021545669432
 20
-162.1006840000001
 30
0.0
 11
-37.50026464896082
 21
-187.496166476209
 31
0.0
  0
LINE
  5
1F4
330
1F0
100
AcDbEntity
  8
1
  6
Continuous
 62
     4
100
AcDbLine
 10
37.49978454330569
 20
-162.1006840000001
 30
0.0
 11
37.49973535075775
 21
-187.496311754803
 31
0.0
  0
SOLID
  5
1F5
330
1F0
100
AcDbEntity
  8
1
 62
     4
100
AcDbTrace
 10
-27.5002582247118
 20
-184.1796608708205
 30
0.0
 11
-27.50026332505575
 21
-186.8127108225635
 31
0.0
 12
-37.50026077486501
 22
-185.4961664762127
 32
0.0
 13
-37.50026077486501
 23
-185.4961664762127
 33
0.0
  0
SOLID
  5
1F6
330
1F0
100
AcDbEntity
  8
1
 62
     4
100
AcDbTrace
 10
27.49973667470037
 20
-186.812817360199
 30
0.0
 11
27.49974177504432
 21
-184.179767408456
 31
0.0
 12
37.49973922485358
 22
-185.4963117548068
 32
0.0
 13
37.49973922485358
 23
-185.4963117548068
 33
0.0
  0
MTEXT
  5
1F7
330
1F0
100
AcDbEntity
  8
1
 62
     1
100
AcDbMText
 10
59.3664965457091
 20
-177.3579026989177
 30
0.0
 40
10.0
 41
0.0
 46
0.0
 71
     7
 72
     1
  1
\C1;DN\C1;75
  7
CONVERTER_11
 11
0.9999999999970621
 21
2.424068405545307E-6
 31
0.0
 73
     1
 44
0.60024009603842
  0
ENDBLK
  5
1F9
330
1F0
100
AcDbEntity
  8
0
100
AcDbBlockEnd
  0
BLOCK
  5
203
330
1FC
100
AcDbEntity
  8
0
100
AcDbBlockBegin
  2
*D13
 70
     1
 10
0.0
 20
0.0
 30
0.0
  3
*D13
  1

  0
LINE
  5
1FD
330
1FC
100
AcDbEntity
  8
1
  6
Continuous
 62
     4
100
AcDbLine
 10
-187.0021571978398
 20
-109.6004622042519
 30
0.0
 11
-187.0019584566756
 21
-7.00043762952077
 31
0.0
  0
LINE
  5
1FE
330
1FC
100
AcDbEntity
  8
1
  6
Continuous
 62
     4
100
AcDbLine
 10
-72.5002154566943
 20
-109.600684
 30
0.0
 11
-189.0021571978361
 21
-109.600458330156
 31
0.0
  0
LINE
  5
1FF
330
1FC
100
AcDbEntity
  8
1
  6
Continuous
 62
     4
100
AcDbLine
 10
-177.0019584566943
 20
-7.00045699999998
 30
0.0
 11
-189.0019584566718
 21
-7.00043375542494
 31
0.0
  0
SOLID
  5
200
330
1FC
100
AcDbEntity
  8
1
 62
     4
100
AcDbTrace
 10
-188.318662803232
 20
-99.60045965409866
 30
0.0
 11
-185.6856128514891
 21
-99.60046475444261
 31
0.0
 12
-187.0021571978398
 22
-109.6004622042519
 32
0.0
 13
-187.0021571978398
 23
-109.6004622042519
 33
0.0
  0
SOLID
  5
201
330
1FC
100
AcDbEntity
  8
1
 62
     4
100
AcDbTrace
 10
-185.6854528512833
 20
-17.00044017967399
 30
0.0
 11
-188.3185028030263
 21
-17.00043507933004
 31
0.0
 12
-187.0019584566756
 22
-7.00043762952077
 32
0.0
 13
-187.0019584566756
 23
-7.00043762952077
 33
0.0
  0
MTEXT
  5
202
330
1FC
100
AcDbEntity
  8
1
 62
     1
100
AcDbMText
 10
-189.0020716931066
 20
-65.45868542583534
 30
0.0
 40
10.0
 41
0.0
 46
0.0
 71
     7
 72
     1
  1
100
  7
CONVERTER_11
 11
1.937047920124238E-6
 21
0.9999999999981239
 31
0.0
 73
     1
 44
0.60024009603842
  0
ENDBLK
  5
204
330
1FC
100
AcDbEntity
  8
0
100
AcDbBlockEnd
  0
ENDSEC
  0
SECTION
  2
ENTITIES
  0
INSERT
  5
80
330
1F
100
AcDbEntity
  8
0
100
AcDbBlockReference
  2
HL_62_1BH_7_DN75_Dachablauf
 10
-11.00007810551306
 20
-52.47282891423356
 30
0.0
  0
ENDSEC
  0
SECTION
  2
OBJECTS
  0
DICTIONARY
  5
C
330
0
100
AcDbDictionary
281
     1
  3
ACAD_DETAILVIEWSTYLE
350
20E
  3
ACAD_GROUP
350
D
  3
ACAD_LAYOUT
350
1A
  3
ACAD_MATERIAL
350
43
  3
ACAD_MLEADERSTYLE
350
5B
  3
ACAD_MLINESTYLE
350
17
  3
ACAD_PLOTSETTINGS
350
19
  3
ACAD_PLOTSTYLENAME
350
E
  3
ACAD_SCALELIST
350
47
  3
ACAD_SECTIONVIEWSTYLE
350
20F
  3
ACAD_TABLESTYLE
350
59
  3
ACAD_VISUALSTYLE
350
2A
  3
ACDB_RECOMPOSE_DATA
350
20B
  3
AcDbVariableDictionary
350
207
  0
SUN
  5
5D
330
29
100
AcDbSun
 90
        1
290
     0
 63
     7
421
 16777215
 40
1.0
291
     1
 91
  2455826
 92
 54000000
292
     0
 70
     2
 71
   256
280
     1
  0
DICTIONARY
  5
20E
102
{ACAD_REACTORS
330
C
102
}
330
C
100
AcDbDictionary
281
     1
  0
DICTIONARY
  5
D
102
{ACAD_REACTORS
330
C
102
}
330
C
100
AcDbDictionary
281
     1
  0
DICTIONARY
  5
1A
102
{ACAD_REACTORS
330
C
102
}
330
C
100
AcDbDictionary
281
     1
  3
Layout1
350
1E
  3
Layout2
350
26
  3
Model
350
22
  0
DICTIONARY
  5
43
102
{ACAD_REACTORS
330
C
102
}
330
C
100
AcDbDictionary
281
     1
  3
ByBlock
350
45
  3
ByLayer
350
44
  3
Global
350
46
  0
DICTIONARY
  5
5B
102
{ACAD_REACTORS
330
C
102
}
330
C
100
AcDbDictionary
281
     1
  3
Standard
350
5C
  0
DICTIONARY
  5
17
102
{ACAD_REACTORS
330
C
102
}
330
C
100
AcDbDictionary
281
     1
  3
Standard
350
18
  0
DICTIONARY
  5
19
102
{ACAD_REACTORS
330
C
102
}
330
C
100
AcDbDictionary
281
     1
  0
ACDBDICTIONARYWDFLT
  5
E
102
{ACAD_REACTORS
330
C
102
}
330
C
100
AcDbDictionary
281
     1
  3
Normal
350
F
100
AcDbDictionaryWithDefault
340
F
  0
DICTIONARY
  5
47
102
{ACAD_REACTORS
330
C
102
}
330
C
100
AcDbDictionary
281
     1
  3
A0
350
48
  3
A1
350
49
  3
A2
350
4A
  3
A3
350
4B
  3
A4
350
4C
  3
A5
350
4D
  3
A6
350
4E
  3
A7
350
4F
  3
A8
350
50
  3
A9
350
51
  3
B1
350
52
  3
B2
350
53
  3
B3
350
54
  3
B4
350
55
  3
B5
350
56
  3
B6
350
57
  3
B7
350
58
  0
DICTIONARY
  5
20F
102
{ACAD_REACTORS
330
C
102
}
330
C
100
AcDbDictionary
281
     1
  0
DICTIONARY
  5
59
102
{ACAD_REACTORS
330
C
102
}
330
C
100
AcDbDictionary
281
     1
  3
Standard
350
5A
  0
DICTIONARY
  5
2A
102
{ACAD_REACTORS
330
C
102
}
330
C
100
AcDbDictionary
281
     1
  3
2dWireframe
350
2F
  3
Basic
350
32
  3
Brighten
350
36
  3
ColorChange
350
3A
  3
Conceptual
350
34
  3
Dim
350
35
  3
EdgeColorOff
350
3D
  3
Facepattern
350
39
  3
Flat
350
2B
  3
FlatWithEdges
350
2C
  3
Gouraud
350
2D
  3
GouraudWithEdges
350
2E
  3
Hidden
350
31
  3
JitterOff
350
3B
  3
Linepattern
350
38
  3
OverhangOff
350
3C
  3
Realistic
350
33
  3
Shaded
350
42
  3
Shaded with edges
350
41
  3
Shades of Gray
350
3E
  3
Sketchy
350
3F
  3
Thicken
350
37
  3
Wireframe
350
30
  3
X-Ray
350
40
  0
XRECORD
  5
20B
102
{ACAD_REACTORS
330
C
102
}
330
C
100
AcDbXrecord
280
     1
 90
        1
330
5A
  0
DICTIONARY
  5
207
102
{ACAD_REACTORS
330
C
102
}
330
C
100
AcDbDictionary
281
     1
  3
CANNOSCALE
350
208
  3
CMLEADERSTYLE
350
20D
  3
CTABLESTYLE
350
20C
  0
LAYOUT
  5
1E
102
{ACAD_REACTORS
330
1A
102
}
330
1A
100
AcDbPlotSettings
  1

  2
none_device
  4

  6

 40
0.0
 41
0.0
 42
0.0
 43
0.0
 44
0.0
 45
0.0
 46
0.0
 47
0.0
 48
0.0
 49
0.0
140
0.0
141
0.0
142
1.0
143
1.0
 70
   688
 72
     0
 73
     0
 74
     5
  7

 75
    16
 76
     0
 77
     2
 78
   300
147
1.0
148
0.0
149
0.0
100
AcDbLayout
  1
Layout1
 70
     1
 71
     1
 10
0.0
 20
0.0
 11
12.0
 21
9.0
 12
0.0
 22
0.0
 32
0.0
 14
1.00000000000000E+20
 24
1.00000000000000E+20
 34
1.00000000000000E+20
 15
-1.00000000000000E+20
 25
-1.00000000000000E+20
 35
-1.00000000000000E+20
146
0.0
 13
0.0
 23
0.0
 33
0.0
 16
1.0
 26
0.0
 36
0.0
 17
0.0
 27
1.0
 37
0.0
 76
     0
330
1B
  0
LAYOUT
  5
26
102
{ACAD_REACTORS
330
1A
102
}
330
1A
100
AcDbPlotSettings
  1

  2
none_device
  4

  6

 40
0.0
 41
0.0
 42
0.0
 43
0.0
 44
0.0
 45
0.0
 46
0.0
 47
0.0
 48
0.0
 49
0.0
140
0.0
141
0.0
142
1.0
143
1.0
 70
   688
 72
     0
 73
     0
 74
     5
  7

 75
    16
 76
     0
 77
     2
 78
   300
147
1.0
148
0.0
149
0.0
100
AcDbLayout
  1
Layout2
 70
     1
 71
     2
 10
0.0
 20
0.0
 11
0.0
 21
0.0
 12
0.0
 22
0.0
 32
0.0
 14
0.0
 24
0.0
 34
0.0
 15
0.0
 25
0.0
 35
0.0
146
0.0
 13
0.0
 23
0.0
 33
0.0
 16
1.0
 26
0.0
 36
0.0
 17
0.0
 27
1.0
 37
0.0
 76
     0
330
23
  0
LAYOUT
  5
22
102
{ACAD_REACTORS
330
1A
102
}
330
1A
100
AcDbPlotSettings
  1

  2
none_device
  4
Letter_(8.50_x_11.00_Inches)
  6

 40
6.35
 41
6.35
 42
6.35000508
 43
6.35000508
 44
215.9
 45
279.4
 46
0.0
 47
0.0
 48
0.0
 49
0.0
140
0.0
141
0.0
142
1.0
143
1.0
 70
  1712
 72
     0
 73
     0
 74
     0
  7

 75
     0
 76
     0
 77
     2
 78
   300
147
1.0
148
0.0
149
0.0
100
AcDbLayout
  1
Model
 70
     1
 71
     0
 10
0.0
 20
0.0
 11
12.0
 21
9.0
 12
0.0
 22
0.0
 32
0.0
 14
-272.0001845521407
 24
-240.8066270725313
 34
0.0
 15
250.0000283411146
 25
135.8609944256872
 35
0.0
146
0.0
 13
0.0
 23
0.0
 33
0.0
 16
1.0
 26
0.0
 36
0.0
 17
0.0
 27
1.0
 37
0.0
 76
     0
330
1F
331
29
  0
MATERIAL
  5
45
102
{ACAD_REACTORS
330
43
102
}
330
43
100
AcDbMaterial
  1
ByBlock
 72
     1
 94
      127
  0
MATERIAL
  5
44
102
{ACAD_REACTORS
330
43
102
}
330
43
100
AcDbMaterial
  1
ByLayer
 72
     1
 94
      127
  0
MATERIAL
  5
46
102
{ACAD_REACTORS
330
43
102
}
330
43
100
AcDbMaterial
  1
Global
 72
     1
 94
      127
  0
MLEADERSTYLE
  5
5C
102
{ACAD_REACTORS
330
5B
102
}
330
5B
100
AcDbMLeaderStyle
179
     2
170
     2
171
     1
172
     0
 90
        2
 40
0.0
 41
0.0
173
     1
 91
-1056964608
340
14
 92
       -2
290
     1
 42
0.09
291
     1
 43
0.36
  3
Standard
341
0
 44
0.18
300

342
11
174
     1
178
     6
175
     1
176
     0
 93
-1056964608
 45
0.18
292
     0
297
     0
 46
0.18
343
0
 94
-1056964608
 47
1.0
 49
1.0
140
1.0
293
     1
141
0.0
294
     1
177
     0
142
1.0
295
     0
296
     0
143
0.125
271
     0
272
     9
273
     9
298
     0
  0
MLINESTYLE
  5
18
102
{ACAD_REACTORS
330
17
102
}
330
17
100
AcDbMlineStyle
  2
Standard
 70
     0
  3

 62
   256
 51
90.0
 52
90.0
 71
     2
 49
0.5
 62
   256
  6
BYLAYER
 49
-0.5
 62
   256
  6
BYLAYER
  0
ACDBPLACEHOLDER
  5
F
102
{ACAD_REACTORS
330
E
102
}
330
E
  0
SCALE
  5
48
102
{ACAD_REACTORS
330
47
102
}
330
47
100
AcDbScale
 70
     0
300
1:1
140
1.0
141
1.0
290
     1
  0
SCALE
  5
49
102
{ACAD_REACTORS
330
47
102
}
330
47
100
AcDbScale
 70
     0
300
1/128" = 1'-0"
140
0.0078125
141
12.0
290
     0
  0
SCALE
  5
4A
102
{ACAD_REACTORS
330
47
102
}
330
47
100
AcDbScale
 70
     0
300
1/64" = 1'-0"
140
0.015625
141
12.0
290
     0
  0
SCALE
  5
4B
102
{ACAD_REACTORS
330
47
102
}
330
47
100
AcDbScale
 70
     0
300
1/32" = 1'-0"
140
0.03125
141
12.0
290
     0
  0
SCALE
  5
4C
102
{ACAD_REACTORS
330
47
102
}
330
47
100
AcDbScale
 70
     0
300
1/16" = 1'-0"
140
0.0625
141
12.0
290
     0
  0
SCALE
  5
4D
102
{ACAD_REACTORS
330
47
102
}
330
47
100
AcDbScale
 70
     0
300
3/32" = 1'-0"
140
0.09375
141
12.0
290
     0
  0
SCALE
  5
4E
102
{ACAD_REACTORS
330
47
102
}
330
47
100
AcDbScale
 70
     0
300
1/8" = 1'-0"
140
0.125
141
12.0
290
     0
  0
SCALE
  5
4F
102
{ACAD_REACTORS
330
47
102
}
330
47
100
AcDbScale
 70
     0
300
3/16" = 1'-0"
140
0.1875
141
12.0
290
     0
  0
SCALE
  5
50
102
{ACAD_REACTORS
330
47
102
}
330
47
100
AcDbScale
 70
     0
300
1/4" = 1'-0"
140
0.25
141
12.0
290
     0
  0
SCALE
  5
51
102
{ACAD_REACTORS
330
47
102
}
330
47
100
AcDbScale
 70
     0
300
3/8" = 1'-0"
140
0.375
141
12.0
290
     0
  0
SCALE
  5
52
102
{ACAD_REACTORS
330
47
102
}
330
47
100
AcDbScale
 70
     0
300
1/2" = 1'-0"
140
0.5
141
12.0
290
     0
  0
SCALE
  5
53
102
{ACAD_REACTORS
330
47
102
}
330
47
100
AcDbScale
 70
     0
300
3/4" = 1'-0"
140
0.75
141
12.0
290
     0
  0
SCALE
  5
54
102
{ACAD_REACTORS
330
47
102
}
330
47
100
AcDbScale
 70
     0
300
1" = 1'-0"
140
1.0
141
12.0
290
     0
  0
SCALE
  5
55
102
{ACAD_REACTORS
330
47
102
}
330
47
100
AcDbScale
 70
     0
300
1-1/2" = 1'-0"
140
1.5
141
12.0
290
     0
  0
SCALE
  5
56
102
{ACAD_REACTORS
330
47
102
}
330
47
100
AcDbScale
 70
     0
300
3" = 1'-0"
140
3.0
141
12.0
290
     0
  0
SCALE
  5
57
102
{ACAD_REACTORS
330
47
102
}
330
47
100
AcDbScale
 70
     0
300
6" = 1'-0"
140
6.0
141
12.0
290
     0
  0
SCALE
  5
58
102
{ACAD_REACTORS
330
47
102
}
330
47
100
AcDbScale
 70
     0
300
1'-0" = 1'-0"
140
12.0
141
12.0
290
     0
  0
TABLESTYLE
  5
5A
102
{ACAD_REACTORS
330
59
102
}
102
{ACAD_XDICTIONARY
360
209
102
}
330
59
100
AcDbTableStyle
  3
Standard
 70
     0
 71
     0
 40
0.06
 41
0.06
280
     0
281
     0
  7
Standard
140
0.18
170
     2
 62
     0
 63
   257
283
     0
 90
        4
 91
        0
  1

274
    -2
284
     1
 64
     0
275
    -2
285
     1
 65
     0
276
    -2
286
     1
 66
     0
277
    -2
287
     1
 67
     0
278
    -2
288
     1
 68
     0
279
    -2
289
     1
 69
     0
  7
Standard
140
0.25
170
     5
 62
     0
 63
   257
283
     0
 90
        4
 91
        0
  1

274
    -2
284
     1
 64
     0
275
    -2
285
     1
 65
     0
276
    -2
286
     1
 66
     0
277
    -2
287
     1
 67
     0
278
    -2
288
     1
 68
     0
279
    -2
289
     1
 69
     0
  7
Standard
140
0.18
170
     5
 62
     0
 63
   257
283
     0
 90
        4
 91
        0
  1

274
    -2
284
     1
 64
     0
275
    -2
285
     1
 65
     0
276
    -2
286
     1
 66
     0
277
    -2
287
     1
 67
     0
278
    -2
288
     1
 68
     0
279
    -2
289
     1
 69
     0
  0
VISUALSTYLE
  5
2F
102
{ACAD_REACTORS
330
2A
102
}
330
2A
100
AcDbVisualStyle
  2
2dWireframe
 70
     4
177
     3
291
     0
 70
    58
 90
        0
176
     1
 90
        2
176
     1
 90
        0
176
     1
 90
        0
176
     1
 40
0.6
176
     1
 40
30.0
176
     1
 62
     7
420
 16777215
176
     1
 90
        1
176
     1
 90
        4
176
     1
 62
     7
176
     1
 62
   257
176
     1
 90
        1
176
     1
 90
        1
176
     1
 40
1.0
176
     1
 90
        0
176
     1
 62
   257
176
     1
 40
1.0
176
     1
 90
        1
176
     1
 90
        6
176
     1
 90
        2
176
     1
 62
     7
176
     1
 90
        5
176
     1
 90
        0
176
     1
 90
        0
176
     1
290
     0
176
     1
 90
        1
176
     1
 40
0.0
176
     1
 90
        0
176
     1
290
     1
176
     1
290
     1
176
     1
290
     0
176
     1
290
     0
176
     1
290
     0
176
     1
290
     0
176
     1
290
     0
176
     1
290
     0
176
     1
290
     0
176
     1
 90
       50
176
     1
 40
0.0
176
     1
 40
1.0
176
     1
 90
        0
176
     1
 62
    18
420
        0
176
     1
 90
       50
176
     1
 90
        3
176
     1
 62
     5
420
      255
176
     1
290
     0
176
     1
 90
       50
176
     1
 90
       50
176
     1
 90
       50
176
     1
290
     0
176
     1
 90
       50
176
     1
 62
   256
176
     0
 40
1.0
176
     0
 90
        2
176
     1
  1
strokes_ogs.tif
176
     1
290
     0
176
     1
 40
1.0
176
     1
 40
1.0
176
     1
  0
VISUALSTYLE
  5
32
102
{ACAD_REACTORS
330
2A
102
}
330
2A
100
AcDbVisualStyle
  2
Basic
 70
     7
177
     3
291
     1
 70
    58
 90
        1
176
     1
 90
        0
176
     1
 90
        1
176
     1
 90
        0
176
     1
 40
0.6
176
     1
 40
30.0
176
     1
 62
     7
420
 16777215
176
     1
 90
        0
176
     1
 90
        4
176
     1
 62
     7
176
     1
 62
   257
176
     1
 90
        1
176
     1
 90
        1
176
     1
 40
1.0
176
     1
 90
        8
176
     1
 62
     7
176
     1
 40
1.0
176
     1
 90
        1
176
     1
 90
        6
176
     1
 90
        2
176
     1
 62
     7
176
     1
 90
        5
176
     1
 90
        0
176
     1
 90
        0
176
     1
290
     0
176
     1
 90
        1
176
     1
 40
0.0
176
     1
 90
        0
176
     1
290
     0
176
     1
290
     1
176
     1
290
     1
176
     1
290
     0
176
     1
290
     0
176
     1
290
     0
176
     1
290
     0
176
     1
290
     0
176
     1
290
     0
176
     1
 90
       50
176
     1
 40
0.0
176
     1
 40
1.0
176
     1
 90
        0
176
     1
 62
    18
420
        0
176
     1
 90
       50
176
     1
 90
        3
176
     1
 62
     5
420
      255
176
     1
290
     0
176
     1
 90
       50
176
     1
 90
       50
176
     1
 90
       50
176
     1
290
     0
176
     1
 90
       50
176
     1
 62
   256
176
     0
 40
1.0
176
     0
 90
        2
176
     1
  1
strokes_ogs.tif
176
     1
290
     0
176
     1
 40
1.0
176
     1
 40
1.0
176
     1
  0
VISUALSTYLE
  5
36
102
{ACAD_REACTORS
330
2A
102
}
330
2A
100
AcDbVisualStyle
  2
Brighten
 70
    12
177
     3
291
     1
 70
    58
 90
        2
176
     1
 90
        2
176
     1
 90
        0
176
     1
 90
        0
176
     1
 40
0.6
176
     1
 40
30.0
176
     1
 62
     7
420
 16777215
176
     1
 90
        1
176
     1
 90
        4
176
     1
 62
     7
176
     1
 62
   257
176
     1
 90
        1
176
     1
 90
        1
176
     1
 40
1.0
176
     1
 90
        8
176
     1
 62
     7
176
     1
 40
1.0
176
     1
 90
        1
176
     1
 90
        6
176
     1
 90
        2
176
     1
 62
     7
176
     1
 90
        5
176
     1
 90
        0
176
     1
 90
        0
176
     1
290
     0
176
     1
 90
        1
176
     1
 40
50.0
176
     1
 90
        0
176
     1
290
     0
176
     1
290
     1
176
     1
290
     1
176
     1
290
     0
176
     1
290
     0
176
     1
290
     0
176
     1
290
     0
176
     1
290
     0
176
     1
290
     0
176
     1
 90
       50
176
     1
 40
0.0
176
     1
 40
1.0
176
     1
 90
        0
176
     1
 62
    18
420
        0
176
     1
 90
       50
176
     1
 90
        3
176
     1
 62
     5
420
      255
176
     1
290
     0
176
     1
 90
       50
176
     1
 90
       50
176
     1
 90
       50
176
     1
290
     0
176
     1
 90
       50
176
     1
 62
   256
176
     0
 40
1.0
176
     0
 90
        2
176
     1
  1
strokes_ogs.tif
176
     1
290
     0
176
     1
 40
1.0
176
     1
 40
1.0
176
     1
  0
VISUALSTYLE
  5
3A
102
{ACAD_REACTORS
330
2A
102
}
330
2A
100
AcDbVisualStyle
  2
ColorChange
 70
    16
177
     3
291
     1
 70
    58
 90
        2
176
     1
 90
        2
176
     1
 90
        3
176
     1
 90
        0
176
     1
 40
0.6
176
     1
 40
30.0
176
     1
 62
     8
420
  8421504
176
     1
 90
        1
176
     1
 90
        4
176
     1
 62
     7
176
     1
 62
   257
176
     1
 90
        1
176
     1
 90
        1
176
     1
 40
1.0
176
     1
 90
        8
176
     1
 62
     8
420
  8421504
176
     1
 40
1.0
176
     1
 90
        1
176
     1
 90
        6
176
     1
 90
        2
176
     1
 62
     7
176
     1
 90
        5
176
     1
 90
        0
176
     1
 90
        0
176
     1
290
     0
176
     1
 90
        1
176
     1
 40
0.0
176
     1
 90
        0
176
     1
290
     0
176
     1
290
     1
176
     1
290
     1
176
     1
290
     0
176
     1
290
     0
176
     1
290
     0
176
     1
290
     0
176
     1
290
     0
176
     1
290
     0
176
     1
 90
       50
176
     1
 40
0.0
176
     1
 40
1.0
176
     1
 90
        0
176
     1
 62
    18
420
        0
176
     1
 90
       50
176
     1
 90
        3
176
     1
 62
     5
420
      255
176
     1
290
     0
176
     1
 90
       50
176
     1
 90
       50
176
     1
 90
       50
176
     1
290
     0
176
     1
 90
       50
176
     1
 62
   256
176
     0
 40
1.0
176
     0
 90
        2
176
     1
  1
strokes_ogs.tif
176
     1
290
     0
176
     1
 40
1.0
176
     1
 40
1.0
176
     1
  0
VISUALSTYLE
  5
34
102
{ACAD_REACTORS
330
2A
102
}
330
2A
100
AcDbVisualStyle
  2
Conceptual
 70
     9
177
     3
291
     0
 70
    58
 90
        3
176
     1
 90
        2
176
     1
 90
        0
176
     1
 90
        0
176
     1
 40
0.6
176
     1
 40
30.0
176
     1
 62
     7
420
 16777215
176
     1
 90
        2
176
     1
 90
        2
176
     1
 62
     7
176
     1
 62
   257
176
     1
 90
        1
176
     1
 90
        1
176
     1
 40
179.0
176
     1
 90
        8
176
     1
 62
     7
176
     1
 40
1.0
176
     1
 90
        1
176
     1
 90
        6
176
     1
 90
        2
176
     1
 62
     7
176
     1
 90
        3
176
     1
 90
        0
176
     1
 90
        0
176
     1
290
     0
176
     1
 90
        1
176
     1
 40
0.0
176
     1
 90
        0
176
     1
290
     0
176
     1
290
     1
176
     1
290
     1
176
     1
290
     0
176
     1
290
     0
176
     1
290
     0
176
     1
290
     0
176
     1
290
     0
176
     1
290
     0
176
     1
 90
       50
176
     1
 40
0.0
176
     1
 40
1.0
176
     1
 90
        0
176
     1
 62
    18
420
        0
176
     1
 90
       50
176
     1
 90
        3
176
     1
 62
     5
420
      255
176
     1
290
     0
176
     1
 90
       50
176
     1
 90
       50
176
     1
 90
       50
176
     1
290
     0
176
     1
 90
       50
176
     1
 62
   256
176
     0
 40
1.0
176
     0
 90
        2
176
     1
  1
strokes_ogs.tif
176
     1
290
     0
176
     1
 40
1.0
176
     1
 40
1.0
176
     1
  0
VISUALSTYLE
  5
35
102
{ACAD_REACTORS
330
2A
102
}
330
2A
100
AcDbVisualStyle
  2
Dim
 70
    11
177
     3
291
     1
 70
    58
 90
        2
176
     1
 90
        2
176
     1
 90
        0
176
     1
 90
        0
176
     1
 40
0.6
176
     1
 40
30.0
176
     1
 62
     7
420
 16777215
176
     1
 90
        1
176
     1
 90
        4
176
     1
 62
     7
176
     1
 62
   257
176
     1
 90
        1
176
     1
 90
        1
176
     1
 40
1.0
176
     1
 90
        8
176
     1
 62
     7
176
     1
 40
1.0
176
     1
 90
        1
176
     1
 90
        6
176
     1
 90
        2
176
     1
 62
     7
176
     1
 90
        5
176
     1
 90
        0
176
     1
 90
        0
176
     1
290
     0
176
     1
 90
        1
176
     1
 40
-50.0
176
     1
 90
        0
176
     1
290
     0
176
     1
290
     1
176
     1
290
     1
176
     1
290
     0
176
     1
290
     0
176
     1
290
     0
176
     1
290
     0
176
     1
290
     0
176
     1
290
     0
176
     1
 90
       50
176
     1
 40
0.0
176
     1
 40
1.0
176
     1
 90
        0
176
     1
 62
    18
420
        0
176
     1
 90
       50
176
     1
 90
        3
176
     1
 62
     5
420
      255
176
     1
290
     0
176
     1
 90
       50
176
     1
 90
       50
176
     1
 90
       50
176
     1
290
     0
176
     1
 90
       50
176
     1
 62
   256
176
     0
 40
1.0
176
     0
 90
        2
176
     1
  1
strokes_ogs.tif
176
     1
290
     0
176
     1
 40
1.0
176
     1
 40
1.0
176
     1
  0
VISUALSTYLE
  5
3D
102
{ACAD_REACTORS
330
2A
102
}
330
2A
100
AcDbVisualStyle
  2
EdgeColorOff
 70
    22
177
     3
291
     1
 70
    58
 90
        2
176
     0
 90
        2
176
     0
 90
        0
176
     0
 90
        0
176
     0
 40
0.6
176
     0
 40
30.0
176
     0
 62
     7
420
 16777215
176
     0
 90
        1
176
     0
 90
        4
176
     0
 62
     7
176
     0
 62
   257
176
     0
 90
        1
176
     0
 90
        1
176
     0
 40
1.0
176
     0
 90
        8
176
     2
 62
     7
176
     0
 40
1.0
176
     0
 90
        1
176
     0
 90
        6
176
     0
 90
        2
176
     0
 62
     7
176
     0
 90
        5
176
     0
 90
        0
176
     0
 90
        0
176
     0
290
     0
176
     0
 90
        1
176
     0
 40
0.0
176
     0
 90
        0
176
     0
290
     0
176
     0
290
     1
176
     0
290
     1
176
     0
290
     0
176
     0
290
     0
176
     0
290
     0
176
     0
290
     0
176
     0
290
     0
176
     0
290
     0
176
     0
 90
       50
176
     0
 40
0.0
176
     0
 40
1.0
176
     0
 90
        0
176
     0
 62
    18
420
        0
176
     0
 90
       50
176
     0
 90
        3
176
     0
 62
     5
420
      255
176
     0
290
     0
176
     0
 90
       50
176
     0
 90
       50
176
     0
 90
       50
176
     0
290
     0
176
     0
 90
       50
176
     0
 62
   256
176
     0
 40
1.0
176
     0
 90
        2
176
     0
  1
strokes_ogs.tif
176
     0
290
     0
176
     0
 40
1.0
176
     0
 40
1.0
176
     0
  0
VISUALSTYLE
  5
39
102
{ACAD_REACTORS
330
2A
102
}
330
2A
100
AcDbVisualStyle
  2
Facepattern
 70
    15
177
     3
291
     1
 70
    58
 90
        2
176
     1
 90
        2
176
     1
 90
        0
176
     1
 90
        0
176
     1
 40
0.6
176
     1
 40
30.0
176
     1
 62
     7
420
 16777215
176
     1
 90
        1
176
     1
 90
        4
176
     1
 62
     7
176
     1
 62
   257
176
     1
 90
        1
176
     1
 90
        1
176
     1
 40
1.0
176
     1
 90
        8
176
     1
 62
     7
176
     1
 40
1.0
176
     1
 90
        1
176
     1
 90
        6
176
     1
 90
        2
176
     1
 62
     7
176
     1
 90
        5
176
     1
 90
        0
176
     1
 90
        0
176
     1
290
     0
176
     1
 90
        1
176
     1
 40
0.0
176
     1
 90
        0
176
     1
290
     0
176
     1
290
     1
176
     1
290
     1
176
     1
290
     0
176
     1
290
     0
176
     1
290
     0
176
     1
290
     0
176
     1
290
     0
176
     1
290
     0
176
     1
 90
       50
176
     1
 40
0.0
176
     1
 40
1.0
176
     1
 90
        0
176
     1
 62
    18
420
        0
176
     1
 90
       50
176
     1
 90
        3
176
     1
 62
     5
420
      255
176
     1
290
     0
176
     1
 90
       50
176
     1
 90
       50
176
     1
 90
       50
176
     1
290
     0
176
     1
 90
       50
176
     1
 62
   256
176
     0
 40
1.0
176
     0
 90
        2
176
     1
  1
strokes_ogs.tif
176
     1
290
     0
176
     1
 40
1.0
176
     1
 40
1.0
176
     1
  0
VISUALSTYLE
  5
2B
102
{ACAD_REACTORS
330
2A
102
}
330
2A
100
AcDbVisualStyle
  2
Flat
 70
     0
177
     3
291
     1
 70
    58
 90
        2
176
     1
 90
        1
176
     1
 90
        1
176
     1
 90
        2
176
     1
 40
0.6
176
     1
 40
30.0
176
     1
 62
     7
420
 16777215
176
     1
 90
        0
176
     1
 90
        0
176
     1
 62
     7
176
     1
 62
   257
176
     1
 90
        1
176
     1
 90
        1
176
     1
 40
1.0
176
     1
 90
        8
176
     1
 62
     7
176
     1
 40
1.0
176
     1
 90
        1
176
     1
 90
        6
176
     1
 90
        2
176
     1
 62
     7
176
     1
 90
        5
176
     1
 90
        0
176
     1
 90
        0
176
     1
290
     0
176
     1
 90
       13
176
     1
 40
0.0
176
     1
 90
        0
176
     1
290
     0
176
     1
290
     1
176
     1
290
     1
176
     1
290
     0
176
     1
290
     0
176
     1
290
     0
176
     1
290
     0
176
     1
290
     0
176
     1
290
     0
176
     1
 90
       50
176
     1
 40
0.0
176
     1
 40
1.0
176
     1
 90
        0
176
     1
 62
    18
420
        0
176
     1
 90
       50
176
     1
 90
        3
176
     1
 62
     5
420
      255
176
     1
290
     0
176
     1
 90
       50
176
     1
 90
       50
176
     1
 90
       50
176
     1
290
     0
176
     1
 90
       50
176
     1
 62
   256
176
     0
 40
1.0
176
     0
 90
        2
176
     1
  1
strokes_ogs.tif
176
     1
290
     0
176
     1
 40
1.0
176
     1
 40
1.0
176
     1
  0
VISUALSTYLE
  5
2C
102
{ACAD_REACTORS
330
2A
102
}
330
2A
100
AcDbVisualStyle
  2
FlatWithEdges
 70
     1
177
     3
291
     1
 70
    58
 90
        2
176
     1
 90
        1
176
     1
 90
        1
176
     1
 90
        2
176
     1
 40
0.6
176
     1
 40
30.0
176
     1
 62
     7
420
 16777215
176
     1
 90
        1
176
     1
 90
        0
176
     1
 62
     7
176
     1
 62
   257
176
     1
 90
        1
176
     1
 90
        1
176
     1
 40
1.0
176
     1
 90
        0
176
     1
 62
   257
176
     1
 40
1.0
176
     1
 90
        1
176
     1
 90
        6
176
     1
 90
        2
176
     1
 62
     7
176
     1
 90
        5
176
     1
 90
        0
176
     1
 90
        0
176
     1
290
     0
176
     1
 90
       13
176
     1
 40
0.0
176
     1
 90
        0
176
     1
290
     0
176
     1
290
     1
176
     1
290
     1
176
     1
290
     0
176
     1
290
     0
176
     1
290
     0
176
     1
290
     0
176
     1
290
     0
176
     1
290
     0
176
     1
 90
       50
176
     1
 40
0.0
176
     1
 40
1.0
176
     1
 90
        0
176
     1
 62
    18
420
        0
176
     1
 90
       50
176
     1
 90
        3
176
     1
 62
     5
420
      255
176
     1
290
     0
176
     1
 90
       50
176
     1
 90
       50
176
     1
 90
       50
176
     1
290
     0
176
     1
 90
       50
176
     1
 62
   256
176
     0
 40
1.0
176
     0
 90
        2
176
     1
  1
strokes_ogs.tif
176
     1
290
     0
176
     1
 40
1.0
176
     1
 40
1.0
176
     1
  0
VISUALSTYLE
  5
2D
102
{ACAD_REACTORS
330
2A
102
}
330
2A
100
AcDbVisualStyle
  2
Gouraud
 70
     2
177
     3
291
     1
 70
    58
 90
        2
176
     1
 90
        2
176
     1
 90
        1
176
     1
 90
        2
176
     1
 40
0.6
176
     1
 40
30.0
176
     1
 62
     7
420
 16777215
176
     1
 90
        0
176
     1
 90
        0
176
     1
 62
     7
176
     1
 62
   257
176
     1
 90
        1
176
     1
 90
        1
176
     1
 40
1.0
176
     1
 90
        0
176
     1
 62
     7
176
     1
 40
1.0
176
     1
 90
        1
176
     1
 90
        6
176
     1
 90
        2
176
     1
 62
     7
176
     1
 90
        5
176
     1
 90
        0
176
     1
 90
        0
176
     1
290
     0
176
     1
 90
       13
176
     1
 40
0.0
176
     1
 90
        0
176
     1
290
     0
176
     1
290
     1
176
     1
290
     1
176
     1
290
     0
176
     1
290
     0
176
     1
290
     0
176
     1
290
     0
176
     1
290
     0
176
     1
290
     0
176
     1
 90
       50
176
     1
 40
0.0
176
     1
 40
1.0
176
     1
 90
        0
176
     1
 62
    18
420
        0
176
     1
 90
       50
176
     1
 90
        3
176
     1
 62
     5
420
      255
176
     1
290
     0
176
     1
 90
       50
176
     1
 90
       50
176
     1
 90
       50
176
     1
290
     0
176
     1
 90
       50
176
     1
 62
   256
176
     0
 40
1.0
176
     0
 90
        2
176
     1
  1
strokes_ogs.tif
176
     1
290
     0
176
     1
 40
1.0
176
     1
 40
1.0
176
     1
  0
VISUALSTYLE
  5
2E
102
{ACAD_REACTORS
330
2A
102
}
330
2A
100
AcDbVisualStyle
  2
GouraudWithEdges
 70
     3
177
     3
291
     1
 70
    58
 90
        2
176
     1
 90
        2
176
     1
 90
        1
176
     1
 90
        2
176
     1
 40
0.6
176
     1
 40
30.0
176
     1
 62
     7
420
 16777215
176
     1
 90
        1
176
     1
 90
        0
176
     1
 62
     7
176
     1
 62
   257
176
     1
 90
        1
176
     1
 90
        1
176
     1
 40
1.0
176
     1
 90
        0
176
     1
 62
   257
176
     1
 40
1.0
176
     1
 90
        1
176
     1
 90
        6
176
     1
 90
        2
176
     1
 62
     7
176
     1
 90
        5
176
     1
 90
        0
176
     1
 90
        0
176
     1
290
     0
176
     1
 90
       13
176
     1
 40
0.0
176
     1
 90
        0
176
     1
290
     0
176
     1
290
     1
176
     1
290
     1
176
     1
290
     0
176
     1
290
     0
176
     1
290
     0
176
     1
290
     0
176
     1
290
     0
176
     1
290
     0
176
     1
 90
       50
176
     1
 40
0.0
176
     1
 40
1.0
176
     1
 90
        0
176
     1
 62
    18
420
        0
176
     1
 90
       50
176
     1
 90
        3
176
     1
 62
     5
420
      255
176
     1
290
     0
176
     1
 90
       50
176
     1
 90
       50
176
     1
 90
       50
176
     1
290
     0
176
     1
 90
       50
176
     1
 62
   256
176
     0
 40
1.0
176
     0
 90
        2
176
     1
  1
strokes_ogs.tif
176
     1
290
     0
176
     1
 40
1.0
176
     1
 40
1.0
176
     1
  0
VISUALSTYLE
  5
31
102
{ACAD_REACTORS
330
2A
102
}
330
2A
100
AcDbVisualStyle
  2
Hidden
 70
     6
177
     3
291
     0
 70
    58
 90
        1
176
     1
 90
        2
176
     1
 90
        2
176
     1
 90
        0
176
     1
 40
0.6
176
     1
 40
30.0
176
     1
 62
     7
420
 16777215
176
     1
 90
        2
176
     1
 90
        2
176
     1
 62
     7
176
     1
 62
   257
176
     1
 90
        2
176
     1
 90
        1
176
     1
 40
40.0
176
     1
 90
        0
176
     1
 62
   257
176
     1
 40
1.0
176
     1
 90
        1
176
     1
 90
        6
176
     1
 90
        2
176
     1
 62
     7
176
     1
 90
        3
176
     1
 90
        0
176
     1
 90
        0
176
     1
290
     0
176
     1
 90
        1
176
     1
 40
0.0
176
     1
 90
        0
176
     1
290
     0
176
     1
290
     1
176
     1
290
     1
176
     1
290
     0
176
     1
290
     0
176
     1
290
     0
176
     1
290
     0
176
     1
290
     0
176
     1
290
     0
176
     1
 90
       50
176
     1
 40
0.0
176
     1
 40
1.0
176
     1
 90
        0
176
     1
 62
    18
420
        0
176
     1
 90
       50
176
     1
 90
        3
176
     1
 62
     5
420
      255
176
     1
290
     0
176
     1
 90
       50
176
     1
 90
       50
176
     1
 90
       50
176
     1
290
     0
176
     1
 90
       50
176
     1
 62
   256
176
     0
 40
1.0
176
     0
 90
        2
176
     1
  1
strokes_ogs.tif
176
     1
290
     0
176
     1
 40
1.0
176
     1
 40
1.0
176
     1
  0
VISUALSTYLE
  5
3B
102
{ACAD_REACTORS
330
2A
102
}
330
2A
100
AcDbVisualStyle
  2
JitterOff
 70
    20
177
     3
291
     1
 70
    58
 90
        2
176
     0
 90
        2
176
     0
 90
        0
176
     0
 90
        0
176
     0
 40
0.6
176
     0
 40
30.0
176
     0
 62
     7
420
 16777215
176
     0
 90
        1
176
     0
 90
        4
176
     0
 62
     7
176
     0
 62
   257
176
     0
 90
        1
176
     0
 90
        1
176
     0
 40
1.0
176
     0
 90
       10
176
     2
 62
     7
176
     0
 40
1.0
176
     0
 90
        1
176
     0
 90
        6
176
     0
 90
        2
176
     0
 62
     7
176
     0
 90
        5
176
     0
 90
        0
176
     0
 90
        0
176
     0
290
     0
176
     0
 90
        1
176
     0
 40
0.0
176
     0
 90
        0
176
     0
290
     0
176
     0
290
     1
176
     0
290
     1
176
     0
290
     0
176
     0
290
     0
176
     0
290
     0
176
     0
290
     0
176
     0
290
     0
176
     0
290
     0
176
     0
 90
       50
176
     0
 40
0.0
176
     0
 40
1.0
176
     0
 90
        0
176
     0
 62
    18
420
        0
176
     0
 90
       50
176
     0
 90
        3
176
     0
 62
     5
420
      255
176
     0
290
     0
176
     0
 90
       50
176
     0
 90
       50
176
     0
 90
       50
176
     0
290
     0
176
     0
 90
       50
176
     0
 62
   256
176
     0
 40
1.0
176
     0
 90
        2
176
     0
  1
strokes_ogs.tif
176
     0
290
     0
176
     0
 40
1.0
176
     0
 40
1.0
176
     0
  0
VISUALSTYLE
  5
38
102
{ACAD_REACTORS
330
2A
102
}
330
2A
100
AcDbVisualStyle
  2
Linepattern
 70
    14
177
     3
291
     1
 70
    58
 90
        2
176
     1
 90
        2
176
     1
 90
        0
176
     1
 90
        0
176
     1
 40
0.6
176
     1
 40
30.0
176
     1
 62
     7
420
 16777215
176
     1
 90
        1
176
     1
 90
        4
176
     1
 62
     7
176
     1
 62
   257
176
     1
 90
        7
176
     1
 90
        7
176
     1
 40
1.0
176
     1
 90
        8
176
     1
 62
     7
176
     1
 40
1.0
176
     1
 90
        1
176
     1
 90
        6
176
     1
 90
        2
176
     1
 62
     7
176
     1
 90
        5
176
     1
 90
        0
176
     1
 90
        0
176
     1
290
     0
176
     1
 90
        1
176
     1
 40
0.0
176
     1
 90
        0
176
     1
290
     0
176
     1
290
     1
176
     1
290
     1
176
     1
290
     0
176
     1
290
     0
176
     1
290
     0
176
     1
290
     0
176
     1
290
     0
176
     1
290
     0
176
     1
 90
       50
176
     1
 40
0.0
176
     1
 40
1.0
176
     1
 90
        0
176
     1
 62
    18
420
        0
176
     1
 90
       50
176
     1
 90
        3
176
     1
 62
     5
420
      255
176
     1
290
     0
176
     1
 90
       50
176
     1
 90
       50
176
     1
 90
       50
176
     1
290
     0
176
     1
 90
       50
176
     1
 62
   256
176
     0
 40
1.0
176
     0
 90
        2
176
     1
  1
strokes_ogs.tif
176
     1
290
     0
176
     1
 40
1.0
176
     1
 40
1.0
176
     1
  0
VISUALSTYLE
  5
3C
102
{ACAD_REACTORS
330
2A
102
}
330
2A
100
AcDbVisualStyle
  2
OverhangOff
 70
    21
177
     3
291
     1
 70
    58
 90
        2
176
     0
 90
        2
176
     0
 90
        0
176
     0
 90
        0
176
     0
 40
0.6
176
     0
 40
30.0
176
     0
 62
     7
420
 16777215
176
     0
 90
        1
176
     0
 90
        4
176
     0
 62
     7
176
     0
 62
   257
176
     0
 90
        1
176
     0
 90
        1
176
     0
 40
1.0
176
     0
 90
        9
176
     2
 62
     7
176
     0
 40
1.0
176
     0
 90
        1
176
     0
 90
        6
176
     0
 90
        2
176
     0
 62
     7
176
     0
 90
        5
176
     0
 90
        0
176
     0
 90
        0
176
     0
290
     0
176
     0
 90
        1
176
     0
 40
0.0
176
     0
 90
        0
176
     0
290
     0
176
     0
290
     1
176
     0
290
     1
176
     0
290
     0
176
     0
290
     0
176
     0
290
     0
176
     0
290
     0
176
     0
290
     0
176
     0
290
     0
176
     0
 90
       50
176
     0
 40
0.0
176
     0
 40
1.0
176
     0
 90
        0
176
     0
 62
    18
420
        0
176
     0
 90
       50
176
     0
 90
        3
176
     0
 62
     5
420
      255
176
     0
290
     0
176
     0
 90
       50
176
     0
 90
       50
176
     0
 90
       50
176
     0
290
     0
176
     0
 90
       50
176
     0
 62
   256
176
     0
 40
1.0
176
     0
 90
        2
176
     0
  1
strokes_ogs.tif
176
     0
290
     0
176
     0
 40
1.0
176
     0
 40
1.0
176
     0
  0
VISUALSTYLE
  5
33
102
{ACAD_REACTORS
330
2A
102
}
330
2A
100
AcDbVisualStyle
  2
Realistic
 70
     8
177
     3
291
     0
 70
    58
 90
        2
176
     1
 90
        3
176
     1
 90
        0
176
     1
 90
        2
176
     1
 40
0.6
176
     1
 40
30.0
176
     1
 62
     7
420
 16777215
176
     1
 90
        0
176
     1
 90
        0
176
     1
 62
     7
176
     1
 62
   257
176
     1
 90
        1
176
     1
 90
        1
176
     1
 40
1.0
176
     1
 90
        8
176
     1
 62
   257
176
     1
 40
1.0
176
     1
 90
        1
176
     1
 90
        6
176
     1
 90
        2
176
     1
 62
     7
176
     1
 90
        3
176
     1
 90
        0
176
     1
 90
        0
176
     1
290
     0
176
     1
 90
       13
176
     1
 40
0.0
176
     1
 90
        0
176
     1
290
     0
176
     1
290
     1
176
     1
290
     1
176
     1
290
     0
176
     1
290
     0
176
     1
290
     0
176
     1
290
     0
176
     1
290
     0
176
     1
290
     0
176
     1
 90
       50
176
     1
 40
0.0
176
     1
 40
1.0
176
     1
 90
        0
176
     1
 62
    18
420
        0
176
     1
 90
       50
176
     1
 90
        3
176
     1
 62
     5
420
      255
176
     1
290
     0
176
     1
 90
       50
176
     1
 90
       50
176
     1
 90
       50
176
     1
290
     0
176
     1
 90
       50
176
     1
 62
   256
176
     0
 40
1.0
176
     0
 90
        2
176
     1
  1
strokes_ogs.tif
176
     1
290
     0
176
     1
 40
1.0
176
     1
 40
1.0
176
     1
  0
VISUALSTYLE
  5
42
102
{ACAD_REACTORS
330
2A
102
}
330
2A
100
AcDbVisualStyle
  2
Shaded
 70
    27
177
     3
291
     0
 70
    58
 90
        2
176
     1
 90
        2
176
     1
 90
        1
176
     1
 90
        2
176
     1
 40
0.6
176
     1
 40
30.0
176
     1
 62
     7
420
 16777215
176
     1
 90
        0
176
     1
 90
        4
176
     1
 62
     7
176
     1
 62
   257
176
     1
 90
        1
176
     1
 90
        1
176
     1
 40
1.0
176
     1
 90
        8
176
     1
 62
   257
176
     1
 40
1.0
176
     1
 90
        1
176
     1
 90
        6
176
     1
 90
        2
176
     1
 62
     8
420
  7895160
176
     1
 90
        3
176
     1
 90
        0
176
     1
 90
        0
176
     1
290
     0
176
     1
 90
        5
176
     1
 40
0.0
176
     1
 90
        0
176
     1
290
     0
176
     1
290
     1
176
     1
290
     1
176
     1
290
     0
176
     1
290
     0
176
     1
290
     0
176
     1
290
     0
176
     1
290
     0
176
     1
290
     0
176
     1
 90
       50
176
     1
 40
0.0
176
     1
 40
1.0
176
     1
 90
        0
176
     1
 62
    18
420
        0
176
     1
 90
       50
176
     1
 90
        3
176
     1
 62
     5
420
      255
176
     1
290
     0
176
     1
 90
       50
176
     1
 90
       50
176
     1
 90
       50
176
     1
290
     0
176
     1
 90
       50
176
     1
 62
   256
176
     0
 40
1.0
176
     0
 90
        2
176
     1
  1
strokes_ogs.tif
176
     1
290
     0
176
     1
 40
1.0
176
     1
 40
1.0
176
     1
  0
VISUALSTYLE
  5
41
102
{ACAD_REACTORS
330
2A
102
}
330
2A
100
AcDbVisualStyle
  2
Shaded with edges
 70
    26
177
     3
291
     0
 70
    58
 90
        2
176
     1
 90
        2
176
     1
 90
        1
176
     1
 90
        2
176
     1
 40
0.6
176
     1
 40
30.0
176
     1
 62
     7
420
 16777215
176
     1
 90
        1
176
     1
 90
       10
176
     1
 62
     7
176
     1
 62
   257
176
     1
 90
        2
176
     1
 90
        1
176
     1
 40
1.0
176
     1
 90
        8
176
     1
 62
   257
176
     1
 40
1.0
176
     1
 90
        1
176
     1
 90
        6
176
     1
 90
        2
176
     1
 62
     7
176
     1
 90
        3
176
     1
 90
        0
176
     1
 90
        0
176
     1
290
     0
176
     1
 90
        5
176
     1
 40
0.0
176
     1
 90
        0
176
     1
290
     0
176
     1
290
     1
176
     1
290
     1
176
     1
290
     0
176
     1
290
     0
176
     1
290
     0
176
     1
290
     0
176
     1
290
     0
176
     1
290
     0
176
     1
 90
       50
176
     1
 40
0.0
176
     1
 40
1.0
176
     1
 90
        0
176
     1
 62
    18
420
        0
176
     1
 90
       50
176
     1
 90
        3
176
     1
 62
     5
420
      255
176
     1
290
     0
176
     1
 90
       50
176
     1
 90
       50
176
     1
 90
       50
176
     1
290
     0
176
     1
 90
       50
176
     1
 62
   256
176
     0
 40
1.0
176
     0
 90
        2
176
     1
  1
strokes_ogs.tif
176
     1
290
     0
176
     1
 40
1.0
176
     1
 40
1.0
176
     1
  0
VISUALSTYLE
  5
3E
102
{ACAD_REACTORS
330
2A
102
}
330
2A
100
AcDbVisualStyle
  2
Shades of Gray
 70
    23
177
     3
291
     0
 70
    58
 90
        2
176
     1
 90
        2
176
     1
 90
        3
176
     1
 90
        0
176
     1
 40
0.6
176
     1
 40
30.0
176
     1
 62
     7
420
 16777215
176
     1
 90
        2
176
     1
 90
        2
176
     1
 62
     7
176
     1
 62
     7
176
     1
 90
        1
176
     1
 90
        1
176
     1
 40
40.0
176
     1
 90
        8
176
     1
 62
     7
176
     1
 40
1.0
176
     1
 90
        1
176
     1
 90
        6
176
     1
 90
        2
176
     1
 62
     7
176
     1
 90
        3
176
     1
 90
        0
176
     1
 90
        0
176
     1
290
     0
176
     1
 90
        1
176
     1
 40
0.0
176
     1
 90
        0
176
     1
290
     0
176
     1
290
     1
176
     1
290
     1
176
     1
290
     0
176
     1
290
     0
176
     1
290
     0
176
     1
290
     0
176
     1
290
     0
176
     1
290
     0
176
     1
 90
       50
176
     1
 40
0.0
176
     1
 40
1.0
176
     1
 90
        0
176
     1
 62
    18
420
        0
176
     1
 90
       50
176
     1
 90
        3
176
     1
 62
     5
420
      255
176
     1
290
     0
176
     1
 90
       50
176
     1
 90
       50
176
     1
 90
       50
176
     1
290
     0
176
     1
 90
       50
176
     1
 62
   256
176
     0
 40
1.0
176
     0
 90
        2
176
     1
  1
strokes_ogs.tif
176
     1
290
     0
176
     1
 40
1.0
176
     1
 40
1.0
176
     1
  0
VISUALSTYLE
  5
3F
102
{ACAD_REACTORS
330
2A
102
}
330
2A
100
AcDbVisualStyle
  2
Sketchy
 70
    24
177
     3
291
     0
 70
    58
 90
        1
176
     1
 90
        2
176
     1
 90
        2
176
     1
 90
        0
176
     1
 40
0.6
176
     1
 40
30.0
176
     1
 62
     7
420
 16777215
176
     1
 90
        2
176
     1
 90
        2
176
     1
 62
     7
176
     1
 62
     7
176
     1
 90
        1
176
     1
 90
        1
176
     1
 40
40.0
176
     1
 90
       11
176
     1
 62
     7
176
     1
 40
1.0
176
     1
 90
        1
176
     1
 90
        6
176
     1
 90
        2
176
     1
 62
     7
176
     1
 90
        6
176
     1
 90
        0
176
     1
 90
        0
176
     1
290
     0
176
     1
 90
        1
176
     1
 40
0.0
176
     1
 90
        0
176
     1
290
     0
176
     1
290
     1
176
     1
290
     1
176
     1
290
     0
176
     1
290
     0
176
     1
290
     0
176
     1
290
     0
176
     1
290
     0
176
     1
290
     0
176
     1
 90
       50
176
     1
 40
0.0
176
     1
 40
1.0
176
     1
 90
        0
176
     1
 62
    18
420
        0
176
     1
 90
       50
176
     1
 90
        3
176
     1
 62
     5
420
      255
176
     1
290
     0
176
     1
 90
       50
176
     1
 90
       50
176
     1
 90
       50
176
     1
290
     0
176
     1
 90
       50
176
     1
 62
   256
176
     0
 40
1.0
176
     0
 90
        2
176
     1
  1
strokes_ogs.tif
176
     1
290
     0
176
     1
 40
1.0
176
     1
 40
1.0
176
     1
  0
VISUALSTYLE
  5
37
102
{ACAD_REACTORS
330
2A
102
}
330
2A
100
AcDbVisualStyle
  2
Thicken
 70
    13
177
     3
291
     1
 70
    58
 90
        2
176
     1
 90
        2
176
     1
 90
        0
176
     1
 90
        0
176
     1
 40
0.6
176
     1
 40
30.0
176
     1
 62
     7
420
 16777215
176
     1
 90
        1
176
     1
 90
        4
176
     1
 62
     7
176
     1
 62
   257
176
     1
 90
        1
176
     1
 90
        1
176
     1
 40
1.0
176
     1
 90
       12
176
     1
 62
     7
176
     1
 40
1.0
176
     1
 90
        1
176
     1
 90
        6
176
     1
 90
        2
176
     1
 62
     7
176
     1
 90
        5
176
     1
 90
        0
176
     1
 90
        0
176
     1
290
     0
176
     1
 90
        1
176
     1
 40
0.0
176
     1
 90
        0
176
     1
290
     0
176
     1
290
     1
176
     1
290
     1
176
     1
290
     0
176
     1
290
     0
176
     1
290
     0
176
     1
290
     0
176
     1
290
     0
176
     1
290
     0
176
     1
 90
       50
176
     1
 40
0.0
176
     1
 40
1.0
176
     1
 90
        0
176
     1
 62
    18
420
        0
176
     1
 90
       50
176
     1
 90
        3
176
     1
 62
     5
420
      255
176
     1
290
     0
176
     1
 90
       50
176
     1
 90
       50
176
     1
 90
       50
176
     1
290
     0
176
     1
 90
       50
176
     1
 62
   256
176
     0
 40
1.0
176
     0
 90
        2
176
     1
  1
strokes_ogs.tif
176
     1
290
     0
176
     1
 40
1.0
176
     1
 40
1.0
176
     1
  0
VISUALSTYLE
  5
30
102
{ACAD_REACTORS
330
2A
102
}
330
2A
100
AcDbVisualStyle
  2
Wireframe
 70
     5
177
     3
291
     0
 70
    58
 90
        0
176
     1
 90
        2
176
     1
 90
        0
176
     1
 90
        0
176
     1
 40
0.6
176
     1
 40
30.0
176
     1
 62
     7
420
 16777215
176
     1
 90
        1
176
     1
 90
        4
176
     1
 62
     7
176
     1
 62
   257
176
     1
 90
        1
176
     1
 90
        1
176
     1
 40
1.0
176
     1
 90
        0
176
     1
 62
   257
176
     1
 40
1.0
176
     1
 90
        1
176
     1
 90
        6
176
     1
 90
        2
176
     1
 62
     7
176
     1
 90
        3
176
     1
 90
        0
176
     1
 90
        0
176
     1
290
     0
176
     1
 90
        1
176
     1
 40
0.0
176
     1
 90
        0
176
     1
290
     0
176
     1
290
     1
176
     1
290
     1
176
     1
290
     0
176
     1
290
     0
176
     1
290
     0
176
     1
290
     0
176
     1
290
     0
176
     1
290
     0
176
     1
 90
       50
176
     1
 40
0.0
176
     1
 40
1.0
176
     1
 90
        0
176
     1
 62
    18
420
        0
176
     1
 90
       50
176
     1
 90
        3
176
     1
 62
     5
420
      255
176
     1
290
     0
176
     1
 90
       50
176
     1
 90
       50
176
     1
 90
       50
176
     1
290
     0
176
     1
 90
       50
176
     1
 62
   256
176
     0
 40
1.0
176
     0
 90
        2
176
     1
  1
strokes_ogs.tif
176
     1
290
     0
176
     1
 40
1.0
176
     1
 40
1.0
176
     1
  0
VISUALSTYLE
  5
40
102
{ACAD_REACTORS
330
2A
102
}
330
2A
100
AcDbVisualStyle
  2
X-Ray
 70
    25
177
     3
291
     0
 70
    58
 90
        2
176
     1
 90
        2
176
     1
 90
        1
176
     1
 90
        1
176
     1
 40
0.5
176
     1
 40
30.0
176
     1
 62
     7
420
 16777215
176
     1
 90
        1
176
     1
 90
        0
176
     1
 62
     7
176
     1
 62
   257
176
     1
 90
        1
176
     1
 90
        1
176
     1
 40
1.0
176
     1
 90
        8
176
     1
 62
     7
176
     1
 40
1.0
176
     1
 90
        1
176
     1
 90
        6
176
     1
 90
        2
176
     1
 62
     7
176
     1
 90
        3
176
     1
 90
        0
176
     1
 90
        0
176
     1
290
     0
176
     1
 90
       13
176
     1
 40
0.0
176
     1
 90
        0
176
     1
290
     0
176
     1
290
     1
176
     1
290
     1
176
     1
290
     0
176
     1
290
     0
176
     1
290
     0
176
     1
290
     0
176
     1
290
     0
176
     1
290
     0
176
     1
 90
       50
176
     1
 40
0.0
176
     1
 40
1.0
176
     1
 90
        0
176
     1
 62
    18
420
        0
176
     1
 90
       50
176
     1
 90
        3
176
     1
 62
     5
420
      255
176
     1
290
     0
176
     1
 90
       50
176
     1
 90
       50
176
     1
 90
       50
176
     1
290
     0
176
     1
 90
       50
176
     1
 62
   256
176
     0
 40
1.0
176
     0
 90
        2
176
     1
  1
strokes_ogs.tif
176
     1
290
     0
176
     1
 40
1.0
176
     1
 40
1.0
176
     1
  0
DICTIONARYVAR
  5
208
102
{ACAD_REACTORS
330
207
102
}
330
207
100
DictionaryVariables
280
     0
  1
1:1
  0
DICTIONARYVAR
  5
20D
102
{ACAD_REACTORS
330
207
102
}
330
207
100
DictionaryVariables
280
     0
  1
Standard
  0
DICTIONARYVAR
  5
20C
102
{ACAD_REACTORS
330
207
102
}
330
207
100
DictionaryVariables
280
     0
  1
Standard
  0
DICTIONARY
  5
209
330
5A
100
AcDbDictionary
280
     1
281
     1
  3
ACAD_ROUNDTRIP_2008_TABLESTYLE_CELLSTYLEMAP
360
20A
  0
CELLSTYLEMAP
  5
20A
102
{ACAD_REACTORS
330
209
102
}
330
209
100
AcDbCellStyleMap
 90
        3
300
CELLSTYLE
  1
TABLEFORMAT_BEGIN
 90
        5
170
     1
 91
        0
 92
    32768
 62
   257
 93
        1
300
CONTENTFORMAT
  1
CONTENTFORMAT_BEGIN
 90
        0
 91
        0
 92
        4
 93
        0
300

 40
0.0
140
1.0
 94
        5
 62
     0
340
11
144
0.25
309
CONTENTFORMAT_END
171
     1
301
MARGIN
  1
CELLMARGIN_BEGIN
 40
0.06
 40
0.06
 40
0.06
 40
0.06
 40
0.06
 40
0.06
309
CELLMARGIN_END
 94
        6
 95
        1
302
GRIDFORMAT
  1
GRIDFORMAT_BEGIN
 90
        0
 91
        1
 62
     0
 92
       -2
340
14
 93
        0
 40
0.045
309
GRIDFORMAT_END
 95
        2
302
GRIDFORMAT
  1
GRIDFORMAT_BEGIN
 90
        0
 91
        1
 62
     0
 92
       -2
340
14
 93
        0
 40
0.045
309
GRIDFORMAT_END
 95
        4
302
GRIDFORMAT
  1
GRIDFORMAT_BEGIN
 90
        0
 91
        1
 62
     0
 92
       -2
340
14
 93
        0
 40
0.045
309
GRIDFORMAT_END
 95
        8
302
GRIDFORMAT
  1
GRIDFORMAT_BEGIN
 90
        0
 91
        1
 62
     0
 92
       -2
340
14
 93
        0
 40
0.045
309
GRIDFORMAT_END
 95
       16
302
GRIDFORMAT
  1
GRIDFORMAT_BEGIN
 90
        0
 91
        1
 62
     0
 92
       -2
340
14
 93
        0
 40
0.045
309
GRIDFORMAT_END
 95
       32
302
GRIDFORMAT
  1
GRIDFORMAT_BEGIN
 90
        0
 91
        1
 62
     0
 92
       -2
340
14
 93
        0
 40
0.045
309
GRIDFORMAT_END
309
TABLEFORMAT_END
  1
CELLSTYLE_BEGIN
 90
        1
 91
        1
300
_TITLE
309
CELLSTYLE_END
300
CELLSTYLE
  1
TABLEFORMAT_BEGIN
 90
        5
170
     1
 91
        0
 92
        0
 62
   257
 93
        1
300
CONTENTFORMAT
  1
CONTENTFORMAT_BEGIN
 90
        0
 91
        0
 92
        4
 93
        0
300

 40
0.0
140
1.0
 94
        5
 62
     0
340
11
144
0.18
309
CONTENTFORMAT_END
171
     1
301
MARGIN
  1
CELLMARGIN_BEGIN
 40
0.06
 40
0.06
 40
0.06
 40
0.06
 40
0.06
 40
0.06
309
CELLMARGIN_END
 94
        6
 95
        1
302
GRIDFORMAT
  1
GRIDFORMAT_BEGIN
 90
        0
 91
        1
 62
     0
 92
       -2
340
14
 93
        0
 40
0.045
309
GRIDFORMAT_END
 95
        2
302
GRIDFORMAT
  1
GRIDFORMAT_BEGIN
 90
        0
 91
        1
 62
     0
 92
       -2
340
14
 93
        0
 40
0.045
309
GRIDFORMAT_END
 95
        4
302
GRIDFORMAT
  1
GRIDFORMAT_BEGIN
 90
        0
 91
        1
 62
     0
 92
       -2
340
14
 93
        0
 40
0.045
309
GRIDFORMAT_END
 95
        8
302
GRIDFORMAT
  1
GRIDFORMAT_BEGIN
 90
        0
 91
        1
 62
     0
 92
       -2
340
14
 93
        0
 40
0.045
309
GRIDFORMAT_END
 95
       16
302
GRIDFORMAT
  1
GRIDFORMAT_BEGIN
 90
        0
 91
        1
 62
     0
 92
       -2
340
14
 93
        0
 40
0.045
309
GRIDFORMAT_END
 95
       32
302
GRIDFORMAT
  1
GRIDFORMAT_BEGIN
 90
        0
 91
        1
 62
     0
 92
       -2
340
14
 93
        0
 40
0.045
309
GRIDFORMAT_END
309
TABLEFORMAT_END
  1
CELLSTYLE_BEGIN
 90
        2
 91
        1
300
_HEADER
309
CELLSTYLE_END
300
CELLSTYLE
  1
TABLEFORMAT_BEGIN
 90
        5
170
     1
 91
        0
 92
        0
 62
   257
 93
        1
300
CONTENTFORMAT
  1
CONTENTFORMAT_BEGIN
 90
        0
 91
        0
 92
        4
 93
        0
300

 40
0.0
140
1.0
 94
        2
 62
     0
340
11
144
0.18
309
CONTENTFORMAT_END
171
     1
301
MARGIN
  1
CELLMARGIN_BEGIN
 40
0.06
 40
0.06
 40
0.06
 40
0.06
 40
0.06
 40
0.06
309
CELLMARGIN_END
 94
        6
 95
        1
302
GRIDFORMAT
  1
GRIDFORMAT_BEGIN
 90
        0
 91
        1
 62
     0
 92
       -2
340
14
 93
        0
 40
0.045
309
GRIDFORMAT_END
 95
        2
302
GRIDFORMAT
  1
GRIDFORMAT_BEGIN
 90
        0
 91
        1
 62
     0
 92
       -2
340
14
 93
        0
 40
0.045
309
GRIDFORMAT_END
 95
        4
302
GRIDFORMAT
  1
GRIDFORMAT_BEGIN
 90
        0
 91
        1
 62
     0
 92
       -2
340
14
 93
        0
 40
0.045
309
GRIDFORMAT_END
 95
        8
302
GRIDFORMAT
  1
GRIDFORMAT_BEGIN
 90
        0
 91
        1
 62
     0
 92
       -2
340
14
 93
        0
 40
0.045
309
GRIDFORMAT_END
 95
       16
302
GRIDFORMAT
  1
GRIDFORMAT_BEGIN
 90
        0
 91
        1
 62
     0
 92
       -2
340
14
 93
        0
 40
0.045
309
GRIDFORMAT_END
 95
       32
302
GRIDFORMAT
  1
GRIDFORMAT_BEGIN
 90
        0
 91
        1
 62
     0
 92
       -2
340
14
 93
        0
 40
0.045
309
GRIDFORMAT_END
309
TABLEFORMAT_END
  1
CELLSTYLE_BEGIN
 90
        3
 91
        2
300
_DATA
309
CELLSTYLE_END
  0
ENDSEC
  0
EOF
