  0
SECTION
  2
HEADER
  9
$ACADVER
  1
AC1015
  9
$ACADMAINTVER
 70
     6
  9
$DWGCODEPAGE
  3
ANSI_1252
  9
$INSBASE
 10
0.0
 20
0.0
 30
0.0
  9
$EXTMIN
 10
26.7880474938
 20
91.8596474454
 30
0.0
  9
$EXTMAX
 10
401.2880455944001
 20
505.858033495978
 30
0.0
  9
$LIMMIN
 10
0.0
 20
0.0
  9
$LIMMAX
 10
12.0
 20
9.0
  9
$ORTHOMODE
 70
     0
  9
$REGENMODE
 70
     1
  9
$FILLMODE
 70
     1
  9
$QTEXTMODE
 70
     0
  9
$MIRRTEXT
 70
     1
  9
$LTSCALE
 40
1.0
  9
$ATTMODE
 70
     1
  9
$TEXTSIZE
 40
0.2
  9
$TRACEWID
 40
0.05
  9
$TEXTSTYLE
  7
Standard
  9
$CLAYER
  8
0
  9
$CELTYPE
  6
ByLayer
  9
$CECOLOR
 62
   256
  9
$CELTSCALE
 40
1.0
  9
$DISPSILH
 70
     0
  9
$DIMSCALE
 40
1.0
  9
$DIMASZ
 40
0.18
  9
$DIMEXO
 40
0.0625
  9
$DIMDLI
 40
0.38
  9
$DIMRND
 40
0.0
  9
$DIMDLE
 40
0.0
  9
$DIMEXE
 40
0.18
  9
$DIMTP
 40
0.0
  9
$DIMTM
 40
0.0
  9
$DIMTXT
 40
0.18
  9
$DIMCEN
 40
0.09
  9
$DIMTSZ
 40
0.0
  9
$DIMTOL
 70
     0
  9
$DIMLIM
 70
     0
  9
$DIMTIH
 70
     1
  9
$DIMTOH
 70
     1
  9
$DIMSE1
 70
     0
  9
$DIMSE2
 70
     0
  9
$DIMTAD
 70
     0
  9
$DIMZIN
 70
     0
  9
$DIMBLK
  1

  9
$DIMASO
 70
     1
  9
$DIMSHO
 70
     1
  9
$DIMPOST
  1

  9
$DIMAPOST
  1

  9
$DIMALT
 70
     0
  9
$DIMALTD
 70
     2
  9
$DIMALTF
 40
25.4
  9
$DIMLFAC
 40
1.0
  9
$DIMTOFL
 70
     0
  9
$DIMTVP
 40
0.0
  9
$DIMTIX
 70
     0
  9
$DIMSOXD
 70
     0
  9
$DIMSAH
 70
     0
  9
$DIMBLK1
  1

  9
$DIMBLK2
  1

  9
$DIMSTYLE
  2
Standard
  9
$DIMCLRD
 70
     0
  9
$DIMCLRE
 70
     0
  9
$DIMCLRT
 70
     0
  9
$DIMTFAC
 40
1.0
  9
$DIMGAP
 40
0.09
  9
$DIMJUST
 70
     0
  9
$DIMSD1
 70
     0
  9
$DIMSD2
 70
     0
  9
$DIMTOLJ
 70
     1
  9
$DIMTZIN
 70
     0
  9
$DIMALTZ
 70
     0
  9
$DIMALTTZ
 70
     0
  9
$DIMUPT
 70
     0
  9
$DIMDEC
 70
     4
  9
$DIMTDEC
 70
     4
  9
$DIMALTU
 70
     2
  9
$DIMALTTD
 70
     2
  9
$DIMTXSTY
  7
Standard
  9
$DIMAUNIT
 70
     0
  9
$DIMADEC
 70
     0
  9
$DIMALTRND
 40
0.0
  9
$DIMAZIN
 70
     0
  9
$DIMDSEP
 70
    46
  9
$DIMATFIT
 70
     3
  9
$DIMFRAC
 70
     0
  9
$DIMLDRBLK
  1

  9
$DIMLUNIT
 70
     2
  9
$DIMLWD
 70
    -2
  9
$DIMLWE
 70
    -2
  9
$DIMTMOVE
 70
     0
  9
$LUNITS
 70
     2
  9
$LUPREC
 70
     4
  9
$SKETCHINC
 40
0.1
  9
$FILLETRAD
 40
0.5
  9
$AUNITS
 70
     0
  9
$AUPREC
 70
     0
  9
$MENU
  1
.
  9
$ELEVATION
 40
0.0
  9
$PELEVATION
 40
0.0
  9
$THICKNESS
 40
0.0
  9
$LIMCHECK
 70
     0
  9
$CHAMFERA
 40
0.5
  9
$CHAMFERB
 40
0.5
  9
$CHAMFERC
 40
1.0
  9
$CHAMFERD
 40
0.0
  9
$SKPOLY
 70
     0
  9
$TDCREATE
 40
2455386.306097419
  9
$TDUCREATE
 40
2455386.222764086
  9
$TDUPDATE
 40
2455386.306097431
  9
$TDUUPDATE
 40
2455386.222764097
  9
$TDINDWG
 40
0.0000000116
  9
$TDUSRTIMER
 40
0.0000000116
  9
$USRTIMER
 70
     1
  9
$ANGBASE
 50
0.0
  9
$ANGDIR
 70
     0
  9
$PDMODE
 70
     0
  9
$PDSIZE
 40
0.0
  9
$PLINEWID
 40
0.0
  9
$SPLFRAME
 70
     0
  9
$SPLINETYPE
 70
     6
  9
$SPLINESEGS
 70
     8
  9
$HANDSEED
  5
10E
  9
$SURFTAB1
 70
     6
  9
$SURFTAB2
 70
     6
  9
$SURFTYPE
 70
     6
  9
$SURFU
 70
     6
  9
$SURFV
 70
     6
  9
$UCSBASE
  2

  9
$UCSNAME
  2

  9
$UCSORG
 10
0.0
 20
0.0
 30
0.0
  9
$UCSXDIR
 10
1.0
 20
0.0
 30
0.0
  9
$UCSYDIR
 10
0.0
 20
1.0
 30
0.0
  9
$UCSORTHOREF
  2

  9
$UCSORTHOVIEW
 70
     0
  9
$UCSORGTOP
 10
0.0
 20
0.0
 30
0.0
  9
$UCSORGBOTTOM
 10
0.0
 20
0.0
 30
0.0
  9
$UCSORGLEFT
 10
0.0
 20
0.0
 30
0.0
  9
$UCSORGRIGHT
 10
0.0
 20
0.0
 30
0.0
  9
$UCSORGFRONT
 10
0.0
 20
0.0
 30
0.0
  9
$UCSORGBACK
 10
0.0
 20
0.0
 30
0.0
  9
$PUCSBASE
  2

  9
$PUCSNAME
  2

  9
$PUCSORG
 10
0.0
 20
0.0
 30
0.0
  9
$PUCSXDIR
 10
1.0
 20
0.0
 30
0.0
  9
$PUCSYDIR
 10
0.0
 20
1.0
 30
0.0
  9
$PUCSORTHOREF
  2

  9
$PUCSORTHOVIEW
 70
     0
  9
$PUCSORGTOP
 10
0.0
 20
0.0
 30
0.0
  9
$PUCSORGBOTTOM
 10
0.0
 20
0.0
 30
0.0
  9
$PUCSORGLEFT
 10
0.0
 20
0.0
 30
0.0
  9
$PUCSORGRIGHT
 10
0.0
 20
0.0
 30
0.0
  9
$PUCSORGFRONT
 10
0.0
 20
0.0
 30
0.0
  9
$PUCSORGBACK
 10
0.0
 20
0.0
 30
0.0
  9
$USERI1
 70
     0
  9
$USERI2
 70
     0
  9
$USERI3
 70
     0
  9
$USERI4
 70
     0
  9
$USERI5
 70
     0
  9
$USERR1
 40
16.5
  9
$USERR2
 40
0.0
  9
$USERR3
 40
0.0
  9
$USERR4
 40
0.0
  9
$USERR5
 40
0.0
  9
$WORLDVIEW
 70
     1
  9
$SHADEDGE
 70
     3
  9
$SHADEDIF
 70
    70
  9
$TILEMODE
 70
     1
  9
$MAXACTVP
 70
    64
  9
$PINSBASE
 10
0.0
 20
0.0
 30
0.0
  9
$PLIMCHECK
 70
     0
  9
$PEXTMIN
 10
1.00000000000000E+20
 20
1.00000000000000E+20
 30
1.00000000000000E+20
  9
$PEXTMAX
 10
-1.00000000000000E+20
 20
-1.00000000000000E+20
 30
-1.00000000000000E+20
  9
$PLIMMIN
 10
0.0
 20
0.0
  9
$PLIMMAX
 10
12.0
 20
9.0
  9
$UNITMODE
 70
     0
  9
$VISRETAIN
 70
     1
  9
$PLINEGEN
 70
     0
  9
$PSLTSCALE
 70
     1
  9
$TREEDEPTH
 70
  3020
  9
$CMLSTYLE
  2
Standard
  9
$CMLJUST
 70
     0
  9
$CMLSCALE
 40
1.0
  9
$PROXYGRAPHICS
 70
     1
  9
$MEASUREMENT
 70
     1
  9
$CELWEIGHT
370
    -1
  9
$ENDCAPS
280
     0
  9
$JOINSTYLE
280
     0
  9
$LWDISPLAY
290
     0
  9
$INSUNITS
 70
     1
  9
$HYPERLINKBASE
  1

  9
$STYLESHEET
  1

  9
$XEDIT
290
     1
  9
$CEPSNTYPE
380
     0
  9
$PSTYLEMODE
290
     1
  9
$FINGERPRINTGUID
  2
{40B0E2B2-C59B-4BFA-A9CF-3E4F0D35FB07}
  9
$VERSIONGUID
  2
{FAEB1C32-E019-11D5-929B-00C0DF256EC4}
  9
$EXTNAMES
290
     1
  9
$PSVPSCALE
 40
0.0
  9
$OLESTARTUP
290
     0
  0
ENDSEC
  0
SECTION
  2
CLASSES
  0
CLASS
  1
ACDBDICTIONARYWDFLT
  2
AcDbDictionaryWithDefault
  3
ObjectDBX Classes
 90
        0
280
     0
281
     0
  0
CLASS
  1
VISUALSTYLE
  2
AcDbVisualStyle
  3
ObjectDBX Classes
 90
     4095
280
     0
281
     0
  0
CLASS
  1
SCALE
  2
AcDbScale
  3
ObjectDBX Classes
 90
     1153
280
     0
281
     0
  0
CLASS
  1

  2
exOdDbPolyline
  3

 90
        0
280
     0
281
     1
  0
CLASS
  1
DICTIONARYVAR
  2
AcDbDictionaryVar
  3
ObjectDBX Classes
 90
        0
280
     0
281
     0
  0
CLASS
  1
ACDBPLACEHOLDER
  2
AcDbPlaceHolder
  3
ObjectDBX Classes
 90
        0
280
     0
281
     0
  0
CLASS
  1
LAYOUT
  2
AcDbLayout
  3
ObjectDBX Classes
 90
        0
280
     0
281
     0
  0
ENDSEC
  0
SECTION
  2
TABLES
  0
TABLE
  2
VPORT
  5
8
330
0
100
AcDbSymbolTable
 70
     1
  0
VPORT
  5
29
330
8
100
AcDbSymbolTableRecord
100
AcDbViewportTableRecord
  2
*Active
 70
     0
 10
0.0
 20
0.0
 11
1.0
 21
1.0
 12
214.0380465441
 22
298.858840470689
 13
0.0
 23
0.0
 14
0.5
 24
0.5
 15
0.5
 25
0.5
 16
0.0
 26
0.0
 36
1.0
 17
0.0
 27
0.0
 37
0.0
 40
455.3982246556358
 41
1.60267857142857
 42
50.0
 43
0.0
 44
0.0
 50
0.0
 51
0.0
 71
     0
 72
   100
 73
     1
 74
     3
 75
     0
 76
     0
 77
     0
 78
     0
281
     0
 65
     1
110
0.0
120
0.0
130
0.0
111
1.0
121
0.0
131
0.0
112
0.0
122
1.0
132
0.0
 79
     0
146
0.0
  0
ENDTAB
  0
TABLE
  2
LTYPE
  5
5
330
0
100
AcDbSymbolTable
 70
     9
  0
LTYPE
  5
14
330
5
100
AcDbSymbolTableRecord
100
AcDbLinetypeTableRecord
  2
ByBlock
 70
     0
  3

 72
    65
 73
     0
 40
0.0
  0
LTYPE
  5
15
330
5
100
AcDbSymbolTableRecord
100
AcDbLinetypeTableRecord
  2
ByLayer
 70
     0
  3

 72
    65
 73
     0
 40
0.0
  0
LTYPE
  5
16
330
5
100
AcDbSymbolTableRecord
100
AcDbLinetypeTableRecord
  2
Continuous
 70
     0
  3
Solid line
 72
    65
 73
     0
 40
0.0
  0
LTYPE
  5
3B
330
5
100
AcDbSymbolTableRecord
100
AcDbLinetypeTableRecord
  2
DASHED
 70
     0
  3
Dashed
 72
    65
 73
     2
 40
15.0
 49
7.0
 74
     0
 49
-8.0
 74
     0
  0
LTYPE
  5
3C
330
5
100
AcDbSymbolTableRecord
100
AcDbLinetypeTableRecord
  2
DOTTED
 70
     0
  3
Dotted
 72
    65
 73
     2
 40
1.0
 49
0.0
 74
     0
 49
-1.0
 74
     0
  0
LTYPE
  5
3D
330
5
100
AcDbSymbolTableRecord
100
AcDbLinetypeTableRecord
  2
DOT_CENTER
 70
     0
  3
Dot_Center
 72
    65
 73
     4
 40
14.0
 49
12.0
 74
     0
 49
-1.0
 74
     0
 49
0.0
 74
     0
 49
-1.0
 74
     0
  0
LTYPE
  5
3E
330
5
100
AcDbSymbolTableRecord
100
AcDbLinetypeTableRecord
  2
LONG_DASHED
 70
     0
  3
Long_Dashed
 72
    65
 73
     2
 40
15.0
 49
10.0
 74
     0
 49
-5.0
 74
     0
  0
LTYPE
  5
3F
330
5
100
AcDbSymbolTableRecord
100
AcDbLinetypeTableRecord
  2
DASH_CENTER
 70
     0
  3
Dash_Center
 72
    65
 73
     4
 40
14.0
 49
11.0
 74
     0
 49
-1.0
 74
     0
 49
1.0
 74
     0
 49
-1.0
 74
     0
  0
LTYPE
  5
40
330
5
100
AcDbSymbolTableRecord
100
AcDbLinetypeTableRecord
  2
PHANTOM
 70
     0
  3
Phantom
 72
    65
 73
     6
 40
13.0
 49
10.0
 74
     0
 49
-1.0
 74
     0
 49
0.0
 74
     0
 49
-1.0
 74
     0
 49
0.0
 74
     0
 49
-1.0
 74
     0
  0
LTYPE
  5
41
330
5
100
AcDbSymbolTableRecord
100
AcDbLinetypeTableRecord
  2
CENTER_DASH_DASH
 70
     0
  3
Center_Dash_Dash
 72
    65
 73
     6
 40
14.0
 49
9.0
 74
     0
 49
-1.0
 74
     0
 49
1.0
 74
     0
 49
-1.0
 74
     0
 49
1.0
 74
     0
 49
-1.0
 74
     0
  0
LTYPE
  5
42
330
5
100
AcDbSymbolTableRecord
100
AcDbLinetypeTableRecord
  2
CENTERX2
 70
     0
  3
CENTERX2
 72
    65
 73
     4
 40
22.0
 49
13.0
 74
     0
 49
-3.0
 74
     0
 49
3.0
 74
     0
 49
-3.0
 74
     0
  0
ENDTAB
  0
TABLE
  2
LAYER
  5
2
330
0
100
AcDbSymbolTable
 70
     2
  0
LAYER
  5
10
330
2
100
AcDbSymbolTableRecord
100
AcDbLayerTableRecord
  2
0
 70
     0
 62
     7
  6
Continuous
370
    -3
390
F
  0
LAYER
  5
43
330
2
100
AcDbSymbolTableRecord
100
AcDbLayerTableRecord
  2
1
 70
     0
 62
     7
  6
Continuous
370
    -3
390
F
  0
ENDTAB
  0
TABLE
  2
STYLE
  5
3
330
0
100
AcDbSymbolTable
 70
     2
  0
STYLE
  5
11
330
3
100
AcDbSymbolTableRecord
100
AcDbTextStyleTableRecord
  2
Standard
 70
     0
 40
0.0
 41
1.0
 50
0.0
 71
     0
 42
0.2
  3
txt
  4

  0
STYLE
  5
DF
330
3
100
AcDbSymbolTableRecord
100
AcDbTextStyleTableRecord
  2
CONVERTER_11
 70
     0
 40
0.0
 41
0.9
 50
0.0
 71
     0
 42
0.2
  3
txt.shx
  4

  0
ENDTAB
  0
TABLE
  2
VIEW
  5
6
330
0
100
AcDbSymbolTable
 70
     0
  0
ENDTAB
  0
TABLE
  2
UCS
  5
7
330
0
100
AcDbSymbolTable
 70
     0
  0
ENDTAB
  0
TABLE
  2
APPID
  5
9
330
0
100
AcDbSymbolTable
 70
     1
  0
APPID
  5
12
330
9
100
AcDbSymbolTableRecord
100
AcDbRegAppTableRecord
  2
ACAD
 70
     0
  0
ENDTAB
  0
TABLE
  2
DIMSTYLE
  5
A
330
0
100
AcDbSymbolTable
 70
     5
100
AcDbDimStyleTable
  0
DIMSTYLE
105
27
330
A
100
AcDbSymbolTableRecord
100
AcDbDimStyleTableRecord
  2
Standard
 70
     0
340
11
  0
DIMSTYLE
105
E3
102
{ACAD_REACTORS
330
E4
102
}
330
A
100
AcDbSymbolTableRecord
100
AcDbDimStyleTableRecord
  2
ME10_DIM_10
 70
     0
  3
Ø<>
 41
10.0
 42
0.0
 44
2.0
 73
     0
 74
     0
 77
     1
 78
     8
140
10.0
147
2.0
172
     1
173
     1
176
     4
177
     4
178
     1
271
     2
340
DF
  0
DIMSTYLE
105
EE
102
{ACAD_REACTORS
330
EF
102
}
330
A
100
AcDbSymbolTableRecord
100
AcDbDimStyleTableRecord
  2
ME10_DIM_11
 70
     0
 41
10.0
 42
0.0
 44
2.0
 73
     0
 74
     0
 77
     1
 78
     8
140
10.0
147
2.0
172
     1
173
     1
176
     4
177
     4
178
     1
271
     2
340
DF
  0
DIMSTYLE
105
F9
102
{ACAD_REACTORS
330
FA
102
}
330
A
100
AcDbSymbolTableRecord
100
AcDbDimStyleTableRecord
  2
ME10_DIM_12
 70
     0
 41
10.0
 42
0.0
 44
2.0
 73
     0
 74
     0
 77
     1
 78
     8
140
10.0
147
2.0
172
     1
173
     1
176
     4
177
     4
178
     1
271
     2
340
DF
  0
DIMSTYLE
105
104
102
{ACAD_REACTORS
330
105
102
}
330
A
100
AcDbSymbolTableRecord
100
AcDbDimStyleTableRecord
  2
ME10_DIM_13
 70
     0
  3
DN<>
 41
10.0
 42
0.0
 44
2.0
 73
     0
 74
     0
 77
     1
 78
     8
140
10.0
147
2.0
172
     1
173
     1
176
     4
177
     4
178
     1
271
     2
340
DF
  0
ENDTAB
  0
TABLE
  2
BLOCK_RECORD
  5
1
330
0
100
AcDbSymbolTable
 70
     6
  0
BLOCK_RECORD
  5
1F
330
1
100
AcDbSymbolTableRecord
100
AcDbBlockTableRecord
  2
*Model_Space
340
22
  0
BLOCK_RECORD
  5
1B
330
1
100
AcDbSymbolTableRecord
100
AcDbBlockTableRecord
  2
*Paper_Space
340
1E
  0
BLOCK_RECORD
  5
23
330
1
100
AcDbSymbolTableRecord
100
AcDbBlockTableRecord
  2
*Paper_Space0
340
26
  0
BLOCK_RECORD
  5
44
330
1
100
AcDbSymbolTableRecord
100
AcDbBlockTableRecord
  2
HL65P
340
0
102
{BLKREFS
331
69
102
}
  0
BLOCK_RECORD
  5
D9
330
1
100
AcDbSymbolTableRecord
100
AcDbBlockTableRecord
  2
*D2
340
0
  0
BLOCK_RECORD
  5
E5
330
1
100
AcDbSymbolTableRecord
100
AcDbBlockTableRecord
  2
*D3
340
0
  0
BLOCK_RECORD
  5
F0
330
1
100
AcDbSymbolTableRecord
100
AcDbBlockTableRecord
  2
*D4
340
0
  0
BLOCK_RECORD
  5
FB
330
1
100
AcDbSymbolTableRecord
100
AcDbBlockTableRecord
  2
*D5
340
0
  0
ENDTAB
  0
ENDSEC
  0
SECTION
  2
BLOCKS
  0
BLOCK
  5
20
330
1F
100
AcDbEntity
  8
0
100
AcDbBlockBegin
  2
*Model_Space
 70
     0
 10
0.0
 20
0.0
 30
0.0
  3
*Model_Space
  1

  0
ENDBLK
  5
21
330
1F
100
AcDbEntity
  8
0
100
AcDbBlockEnd
  0
BLOCK
  5
1C
330
1B
100
AcDbEntity
 67
     1
  8
0
100
AcDbBlockBegin
  2
*Paper_Space
 70
     0
 10
0.0
 20
0.0
 30
0.0
  3
*Paper_Space
  1

  0
ENDBLK
  5
1D
330
1B
100
AcDbEntity
 67
     1
  8
0
100
AcDbBlockEnd
  0
BLOCK
  5
24
330
23
100
AcDbEntity
  8
0
100
AcDbBlockBegin
  2
*Paper_Space0
 70
     0
 10
0.0
 20
0.0
 30
0.0
  3
*Paper_Space0
  1

  0
ENDBLK
  5
25
330
23
100
AcDbEntity
  8
0
100
AcDbBlockEnd
  0
BLOCK
  5
45
330
44
100
AcDbEntity
  8
0
100
AcDbBlockBegin
  2
HL65P
 70
     0
 10
214.0380465441
 20
298.858840470689
 30
0.0
  3
HL65P
  1

  0
POINT
  5
6A
330
44
100
AcDbEntity
  8
0
 62
     7
100
AcDbPoint
 10
162.3598423641
 20
125.3886333643
 30
0.0
  0
POINT
  5
6B
330
44
100
AcDbEntity
  8
0
 62
     7
100
AcDbPoint
 10
48.7880455944
 20
470.3886333643
 30
0.0
  0
POINT
  5
6C
330
44
100
AcDbEntity
  8
0
 62
     7
100
AcDbPoint
 10
286.2880455944
 20
129.3886333643
 30
0.0
  0
POINT
  5
6D
330
44
100
AcDbEntity
  8
0
 62
     7
100
AcDbPoint
 10
161.2880455944
 20
129.3886333643
 30
0.0
  0
POINT
  5
6E
330
44
100
AcDbEntity
  8
0
 62
     7
100
AcDbPoint
 10
401.2880455944
 20
466.3886333643
 30
0.0
  0
POINT
  5
6F
330
44
100
AcDbEntity
  8
0
 62
     7
100
AcDbPoint
 10
46.2880455944
 20
466.3886333643
 30
0.0
  0
LINE
  5
70
330
44
100
AcDbEntity
  8
0
  6
CENTERX2
 62
     7
100
AcDbLine
 10
223.7880455944
 20
473.0941657072
 30
0.0
 11
223.7880455944
 21
123.3886333643
 31
0.0
  0
LINE
  5
71
330
44
100
AcDbEntity
  8
0
  6
Continuous
 62
     7
100
AcDbLine
 10
147.2880459441
 20
431.8886337802
 30
0.0
 11
150.2880445732
 21
431.8886337802
 31
0.0
  0
LINE
  5
72
330
44
100
AcDbEntity
  8
0
  6
Continuous
 62
     7
100
AcDbLine
 10
46.288049878
 20
466.3886366412
 30
0.0
 11
141.038044454
 21
466.3886366412
 31
0.0
  0
LINE
  5
73
330
44
100
AcDbEntity
  8
0
  6
Continuous
 62
     7
100
AcDbLine
 10
145.0380451097
 20
470.3886298463
 30
0.0
 11
48.7880474938
 21
470.3886298463
 31
0.0
  0
LINE
  5
74
330
44
100
AcDbEntity
  8
0
  6
Continuous
 62
     7
100
AcDbLine
 10
154.2880452289
 20
435.8886344359
 30
0.0
 11
148.2880479707
 21
435.8886344359
 31
0.0
  0
LINE
  5
75
330
44
100
AcDbEntity
  8
0
  6
Continuous
 62
     7
100
AcDbLine
 10
165.2880451693
 20
408.8886318729
 30
0.0
 11
154.2880452289
 21
408.8886318729
 31
0.0
  0
LINE
  5
76
330
44
100
AcDbEntity
  8
0
  6
Continuous
 62
     7
100
AcDbLine
 10
162.3598403348
 20
125.3886310384
 30
0.0
 11
165.2880451693
 21
125.3886310384
 31
0.0
  0
LINE
  5
77
330
44
100
AcDbEntity
  8
0
  6
Continuous
 62
     7
100
AcDbLine
 10
153.2880432023
 20
404.8886312172
 30
0.0
 11
161.2880445136
 21
404.8886312172
 31
0.0
  0
LINE
  5
78
330
44
100
AcDbEntity
  8
0
  6
Continuous
 62
     7
100
AcDbLine
 10
297.288044454
 20
431.8886337802
 30
0.0
 11
300.2880468084
 21
431.8886337802
 31
0.0
  0
LINE
  5
79
330
44
100
AcDbEntity
  8
0
  6
Continuous
 62
     7
100
AcDbLine
 10
306.5380445732
 20
466.3886366412
 30
0.0
 11
401.2880391492
 21
466.3886366412
 31
0.0
  0
LINE
  5
7A
330
44
100
AcDbEntity
  8
0
  6
Continuous
 62
     7
100
AcDbLine
 10
398.7880415334
 20
470.3886298463
 30
0.0
 11
302.5380439176
 21
470.3886298463
 31
0.0
  0
LINE
  5
7B
330
44
100
AcDbEntity
  8
0
  6
Continuous
 62
     7
100
AcDbLine
 10
299.2880447818
 20
435.8886344359
 30
0.0
 11
293.2880437984
 21
435.8886344359
 31
0.0
  0
LINE
  5
7C
330
44
100
AcDbEntity
  8
0
  6
Continuous
 62
     7
100
AcDbLine
 10
293.2880437984
 20
408.8886318729
 30
0.0
 11
282.2880457206
 21
408.8886318729
 31
0.0
  0
LINE
  5
7D
330
44
100
AcDbEntity
  8
0
  6
Continuous
 62
     7
100
AcDbLine
 10
282.2880457206
 20
125.3886310384
 30
0.0
 11
285.2162486924
 21
125.3886310384
 31
0.0
  0
LINE
  5
7E
330
44
100
AcDbEntity
  8
0
  6
Continuous
 62
     7
100
AcDbLine
 10
286.2880445136
 20
404.8886312172
 30
0.0
 11
294.2880458249
 21
404.8886312172
 31
0.0
  0
LINE
  5
7F
330
44
100
AcDbEntity
  8
0
  6
Continuous
 62
     7
100
AcDbLine
 10
161.2880445136
 20
129.3886391446
 30
0.0
 11
162.3598403348
 21
125.3886310384
 31
0.0
  0
LINE
  5
80
330
44
100
AcDbEntity
  8
0
  6
Continuous
 62
     7
100
AcDbLine
 10
285.2162486924
 20
125.3886310384
 30
0.0
 11
286.2880445136
 21
129.3886391446
 31
0.0
  0
LINE
  5
81
330
44
100
AcDbEntity
  8
0
  6
Continuous
 62
     7
100
AcDbLine
 10
150.2880445732
 20
431.8886337802
 30
0.0
 11
150.2880445732
 21
407.8886298463
 31
0.0
  0
LINE
  5
82
330
44
100
AcDbEntity
  8
0
  6
Continuous
 62
     7
100
AcDbLine
 10
297.288044454
 20
407.8886298463
 30
0.0
 11
297.288044454
 21
431.8886337802
 31
0.0
  0
LINE
  5
83
330
44
100
AcDbEntity
  8
0
  6
Continuous
 62
     7
100
AcDbLine
 10
161.2880445136
 20
404.8886312172
 30
0.0
 11
161.2880445136
 21
129.3886391446
 31
0.0
  0
LINE
  5
84
330
44
100
AcDbEntity
  8
0
  6
Continuous
 62
     7
100
AcDbLine
 10
286.2880445136
 20
129.3886391446
 30
0.0
 11
286.2880445136
 21
404.8886312172
 31
0.0
  0
LINE
  5
85
330
44
100
AcDbEntity
  8
0
  6
Continuous
 62
     7
100
AcDbLine
 10
282.2880457206
 20
408.8886318729
 30
0.0
 11
165.2880451693
 21
408.8886318729
 31
0.0
  0
LINE
  5
86
330
44
100
AcDbEntity
  8
0
  6
Continuous
 62
     7
100
AcDbLine
 10
165.2880451693
 20
125.3886310384
 30
0.0
 11
165.2880451693
 21
408.8886318729
 31
0.0
  0
LINE
  5
87
330
44
100
AcDbEntity
  8
0
  6
Continuous
 62
     7
100
AcDbLine
 10
282.2880457206
 20
125.3886310384
 30
0.0
 11
165.2880451693
 21
125.3886310384
 31
0.0
  0
LINE
  5
88
330
44
100
AcDbEntity
  8
0
  6
Continuous
 62
     7
100
AcDbLine
 10
282.2880457206
 20
408.8886318729
 30
0.0
 11
282.2880457206
 21
125.3886310384
 31
0.0
  0
LINE
  5
89
330
44
100
AcDbEntity
  8
0
  6
Continuous
 62
     7
100
AcDbLine
 10
293.2880437984
 20
435.8886344359
 30
0.0
 11
154.2880452289
 21
435.8886344359
 31
0.0
  0
LINE
  5
8A
330
44
100
AcDbEntity
  8
0
  6
Continuous
 62
     7
100
AcDbLine
 10
154.2880452289
 20
408.8886318729
 30
0.0
 11
154.2880452289
 21
435.8886344359
 31
0.0
  0
LINE
  5
8B
330
44
100
AcDbEntity
  8
0
  6
Continuous
 62
     7
100
AcDbLine
 10
293.2880437984
 20
435.8886344359
 30
0.0
 11
293.2880437984
 21
408.8886318729
 31
0.0
  0
LINE
  5
8C
330
44
100
AcDbEntity
  8
0
  6
Continuous
 62
     7
100
AcDbLine
 10
148.2880479707
 20
435.8886344359
 30
0.0
 11
148.2880479707
 21
445.388638787
 31
0.0
  0
LINE
  5
8D
330
44
100
AcDbEntity
  8
0
  6
Continuous
 62
     7
100
AcDbLine
 10
299.2880447818
 20
445.388638787
 30
0.0
 11
299.2880447818
 21
435.8886344359
 31
0.0
  0
LINE
  5
8E
330
44
100
AcDbEntity
  8
0
  6
Continuous
 62
     7
100
AcDbLine
 10
298.7880437686
 20
445.6773040816
 30
0.0
 11
299.2880447818
 21
445.388638787
 31
0.0
  0
LINE
  5
8F
330
44
100
AcDbEntity
  8
0
  6
Continuous
 62
     7
100
AcDbLine
 10
148.2880479707
 20
445.388638787
 30
0.0
 11
148.788048984
 21
445.6773040816
 31
0.0
  0
LINE
  5
90
330
44
100
AcDbEntity
  8
0
  6
Continuous
 62
     7
100
AcDbLine
 10
299.2880447818
 20
445.388638787
 30
0.0
 11
148.2880479707
 21
445.388638787
 31
0.0
  0
LINE
  5
91
330
44
100
AcDbEntity
  8
0
  6
Continuous
 62
     7
100
AcDbLine
 10
298.7880437686
 20
445.6773040816
 30
0.0
 11
148.788048984
 21
445.6773040816
 31
0.0
  0
LINE
  5
92
330
44
100
AcDbEntity
  8
0
  6
Continuous
 62
     7
100
AcDbLine
 10
149.0380457653
 20
446.1103169248
 30
0.0
 11
149.0380457653
 21
446.9073204324
 31
0.0
  0
LINE
  5
93
330
44
100
AcDbEntity
  8
0
  6
Continuous
 62
     7
100
AcDbLine
 10
298.5380469872
 20
446.1103169248
 30
0.0
 11
149.0380457653
 21
446.1103169248
 31
0.0
  0
LINE
  5
94
330
44
100
AcDbEntity
  8
0
  6
Continuous
 62
     7
100
AcDbLine
 10
298.5380469872
 20
446.9073204324
 30
0.0
 11
298.5380469872
 21
446.1103169248
 31
0.0
  0
LINE
  5
95
330
44
100
AcDbEntity
  8
0
  6
Continuous
 62
     7
100
AcDbLine
 10
302.5380439176
 20
470.3886298463
 30
0.0
 11
145.0380451097
 21
470.3886298463
 31
0.0
  0
LINE
  5
96
330
44
100
AcDbEntity
  8
0
  6
Continuous
 62
     7
100
AcDbLine
 10
145.0380451097
 20
453.4347144887
 30
0.0
 11
145.0380451097
 21
470.3886298463
 31
0.0
  0
LINE
  5
97
330
44
100
AcDbEntity
  8
0
  6
Continuous
 62
     7
100
AcDbLine
 10
302.5380439176
 20
470.3886298463
 30
0.0
 11
302.5380439176
 21
453.4347144887
 31
0.0
  0
LINE
  5
98
330
44
100
AcDbEntity
  8
0
  6
Continuous
 62
     7
100
AcDbLine
 10
46.288049878
 20
467.8886322305
 30
0.0
 11
46.288049878
 21
466.3886366412
 31
0.0
  0
LINE
  5
99
330
44
100
AcDbEntity
  8
0
  6
Continuous
 62
     7
100
AcDbLine
 10
401.2880391492
 20
466.3886366412
 30
0.0
 11
401.2880391492
 21
467.8886322305
 31
0.0
  0
LINE
  5
9A
330
44
100
AcDbEntity
  8
0
  6
Continuous
 62
     7
100
AcDbLine
 10
141.038044454
 20
466.3886366412
 30
0.0
 11
141.038044454
 21
452.3066071794
 31
0.0
  0
LINE
  5
9B
330
44
100
AcDbEntity
  8
0
  6
Continuous
 62
     7
100
AcDbLine
 10
306.5380445732
 20
452.3066071794
 30
0.0
 11
306.5380445732
 21
466.3886366412
 31
0.0
  0
LINE
  5
9C
330
44
100
AcDbEntity
  8
0
  6
Continuous
 62
     7
100
AcDbLine
 10
141.038044454
 20
452.3066071794
 30
0.0
 11
144.288047315
 21
447.0030901954
 31
0.0
  0
LINE
  5
9D
330
44
100
AcDbEntity
  8
0
  6
Continuous
 62
     7
100
AcDbLine
 10
303.2880454375
 20
447.0030901954
 30
0.0
 11
306.5380445732
 21
452.3066071794
 31
0.0
  0
LINE
  5
9E
330
44
100
AcDbEntity
  8
0
  6
Continuous
 62
     7
100
AcDbLine
 10
144.288047315
 20
447.0030901954
 30
0.0
 11
144.288047315
 21
434.8886324093
 31
0.0
  0
LINE
  5
9F
330
44
100
AcDbEntity
  8
0
  6
Continuous
 62
     7
100
AcDbLine
 10
303.2880454375
 20
434.8886324093
 30
0.0
 11
303.2880454375
 21
447.0030901954
 31
0.0
  0
LINE
  5
A0
330
44
100
AcDbEntity
  8
0
  6
Continuous
 62
     7
100
AcDbLine
 10
149.0380457653
 20
446.9073204324
 30
0.0
 11
145.0380451097
 21
453.4347144887
 31
0.0
  0
LINE
  5
A1
330
44
100
AcDbEntity
  8
0
  6
Continuous
 62
     7
100
AcDbLine
 10
298.5380469872
 20
446.9073204324
 30
0.0
 11
149.0380457653
 21
446.9073204324
 31
0.0
  0
LINE
  5
A2
330
44
100
AcDbEntity
  8
0
  6
Continuous
 62
     7
100
AcDbLine
 10
302.5380439176
 20
453.4347144887
 30
0.0
 11
298.5380469872
 21
446.9073204324
 31
0.0
  0
LINE
  5
A3
330
44
100
AcDbEntity
  8
0
  6
Continuous
 62
     7
100
AcDbLine
 10
302.5380439176
 20
453.4347144887
 30
0.0
 11
145.0380451097
 21
453.4347144887
 31
0.0
  0
LINE
  5
A4
330
44
100
AcDbEntity
  8
0
  6
Continuous
 62
     7
100
AcDbLine
 10
155.7880482687
 20
91.8596474454
 30
0.0
 11
157.7880448712
 21
91.8596474454
 31
0.0
  0
LINE
  5
A5
330
44
100
AcDbEntity
  8
0
  6
Continuous
 62
     7
100
AcDbLine
 10
158.1700137867
 20
101.8596528098
 30
0.0
 11
155.7880482687
 21
101.8596528098
 31
0.0
  0
LINE
  5
A6
330
44
100
AcDbEntity
  8
0
  6
Continuous
 62
     7
100
AcDbLine
 10
289.788044156
 20
91.8596474454
 30
0.0
 11
291.7880444838
 21
91.8596474454
 31
0.0
  0
LINE
  5
A7
330
44
100
AcDbEntity
  8
0
  6
Continuous
 62
     7
100
AcDbLine
 10
291.7880444838
 20
101.8596528098
 30
0.0
 11
289.4060789658
 21
101.8596528098
 31
0.0
  0
LINE
  5
A8
330
44
100
AcDbEntity
  8
0
  6
Continuous
 62
     7
100
AcDbLine
 10
154.2880452289
 20
97.3596511409
 30
0.0
 11
154.2880452289
 21
96.3596491143
 31
0.0
  0
LINE
  5
A9
330
44
100
AcDbEntity
  8
0
  6
Continuous
 62
     7
100
AcDbLine
 10
293.2880437984
 20
96.3596491143
 30
0.0
 11
293.2880437984
 21
97.3596511409
 31
0.0
  0
LINE
  5
AA
330
44
100
AcDbEntity
  8
0
  6
Continuous
 62
     7
100
AcDbLine
 10
153.7880442156
 20
97.8596447036
 30
0.0
 11
154.2880452289
 21
97.3596511409
 31
0.0
  0
LINE
  5
AB
330
44
100
AcDbEntity
  8
0
  6
Continuous
 62
     7
100
AcDbLine
 10
293.2880437984
 20
97.3596511409
 30
0.0
 11
293.7880448116
 21
97.8596447036
 31
0.0
  0
LINE
  5
AC
330
44
100
AcDbEntity
  8
0
  6
Continuous
 62
     7
100
AcDbLine
 10
293.7880448116
 20
97.8596447036
 30
0.0
 11
293.2880437984
 21
98.3596531674
 31
0.0
  0
LINE
  5
AD
330
44
100
AcDbEntity
  8
0
  6
Continuous
 62
     7
100
AcDbLine
 10
154.2880452289
 20
98.3596531674
 30
0.0
 11
153.7880442156
 21
97.8596447036
 31
0.0
  0
LINE
  5
AE
330
44
100
AcDbEntity
  8
0
  6
Continuous
 62
     7
100
AcDbLine
 10
154.2880452289
 20
99.359655194
 30
0.0
 11
154.2880452289
 21
98.3596531674
 31
0.0
  0
LINE
  5
AF
330
44
100
AcDbEntity
  8
0
  6
Continuous
 62
     7
100
AcDbLine
 10
293.2880437984
 20
98.3596531674
 30
0.0
 11
293.2880437984
 21
99.359655194
 31
0.0
  0
LINE
  5
B0
330
44
100
AcDbEntity
  8
0
  6
Continuous
 62
     7
100
AcDbLine
 10
153.7880442156
 20
99.8596487567
 30
0.0
 11
154.2880452289
 21
99.359655194
 31
0.0
  0
LINE
  5
B1
330
44
100
AcDbEntity
  8
0
  6
Continuous
 62
     7
100
AcDbLine
 10
293.2880437984
 20
99.359655194
 30
0.0
 11
293.7880448116
 21
99.8596487567
 31
0.0
  0
LINE
  5
B2
330
44
100
AcDbEntity
  8
0
  6
Continuous
 62
     7
100
AcDbLine
 10
289.4060789658
 20
101.8596528098
 30
0.0
 11
158.1700137867
 21
101.8596528098
 31
0.0
  0
LINE
  5
B3
330
44
100
AcDbEntity
  8
0
  6
Continuous
 62
     7
100
AcDbLine
 10
162.2880465402
 20
94.8596535251
 30
0.0
 11
159.0644410862
 21
101.306864433
 31
0.0
  0
LINE
  5
B4
330
44
100
AcDbEntity
  8
0
  6
Continuous
 62
     7
100
AcDbLine
 10
288.5116516663
 20
101.306864433
 30
0.0
 11
285.2880462123
 21
94.8596535251
 31
0.0
  0
LINE
  5
B5
330
44
100
AcDbEntity
  8
0
  6
Continuous
 62
     7
100
AcDbLine
 10
288.5116516663
 20
101.306864433
 30
0.0
 11
159.0644410862
 21
101.306864433
 31
0.0
  0
LINE
  5
B6
330
44
100
AcDbEntity
  8
0
  6
Continuous
 62
     7
100
AcDbLine
 10
158.7880468978
 20
97.8596447036
 30
0.0
 11
162.2880465402
 21
94.8596535251
 31
0.0
  0
LINE
  5
B7
330
44
100
AcDbEntity
  8
0
  6
Continuous
 62
     7
100
AcDbLine
 10
285.2880462123
 20
94.8596535251
 30
0.0
 11
288.7880458547
 21
97.8596447036
 31
0.0
  0
LINE
  5
B8
330
44
100
AcDbEntity
  8
0
  6
Continuous
 62
     7
100
AcDbLine
 10
285.2880462123
 20
94.8596535251
 30
0.0
 11
162.2880465402
 21
94.8596535251
 31
0.0
  0
LINE
  5
B9
330
44
100
AcDbEntity
  8
0
  6
Continuous
 62
     7
100
AcDbLine
 10
158.7880468978
 20
92.859649472
 30
0.0
 11
158.7880468978
 21
97.8596447036
 31
0.0
  0
LINE
  5
BA
330
44
100
AcDbEntity
  8
0
  6
Continuous
 62
     7
100
AcDbLine
 10
288.7880458547
 20
97.8596447036
 30
0.0
 11
288.7880458547
 21
92.859649472
 31
0.0
  0
LINE
  5
BB
330
44
100
AcDbEntity
  8
0
  6
Continuous
 62
     7
100
AcDbLine
 10
289.788044156
 20
91.8596474454
 30
0.0
 11
157.7880448712
 21
91.8596474454
 31
0.0
  0
LINE
  5
BC
330
44
100
AcDbEntity
  8
0
  6
Continuous
 62
     7
100
AcDbLine
 10
288.7880458547
 20
92.859649472
 30
0.0
 11
158.7880468978
 21
92.859649472
 31
0.0
  0
LINE
  5
BD
330
44
100
AcDbEntity
  8
0
  6
Continuous
 62
     7
100
AcDbLine
 10
293.7880448116
 20
93.8596514985
 30
0.0
 11
293.2880437984
 21
94.3596450612
 31
0.0
  0
LINE
  5
BE
330
44
100
AcDbEntity
  8
0
  6
Continuous
 62
     7
100
AcDbLine
 10
154.2880452289
 20
94.3596450612
 30
0.0
 11
153.7880442156
 21
93.8596514985
 31
0.0
  0
LINE
  5
BF
330
44
100
AcDbEntity
  8
0
  6
Continuous
 62
     7
100
AcDbLine
 10
154.2880452289
 20
95.3596470878
 30
0.0
 11
154.2880452289
 21
94.3596450612
 31
0.0
  0
LINE
  5
C0
330
44
100
AcDbEntity
  8
0
  6
Continuous
 62
     7
100
AcDbLine
 10
293.2880437984
 20
94.3596450612
 30
0.0
 11
293.2880437984
 21
95.3596470878
 31
0.0
  0
LINE
  5
C1
330
44
100
AcDbEntity
  8
0
  6
Continuous
 62
     7
100
AcDbLine
 10
153.7880442156
 20
95.8596555516
 30
0.0
 11
154.2880452289
 21
95.3596470878
 31
0.0
  0
LINE
  5
C2
330
44
100
AcDbEntity
  8
0
  6
Continuous
 62
     7
100
AcDbLine
 10
293.2880437984
 20
95.3596470878
 30
0.0
 11
293.7880448116
 21
95.8596555516
 31
0.0
  0
LINE
  5
C3
330
44
100
AcDbEntity
  8
0
  6
Continuous
 62
     7
100
AcDbLine
 10
293.7880448116
 20
95.8596555516
 30
0.0
 11
293.2880437984
 21
96.3596491143
 31
0.0
  0
LINE
  5
C4
330
44
100
AcDbEntity
  8
0
  6
Continuous
 62
     7
100
AcDbLine
 10
154.2880452289
 20
96.3596491143
 30
0.0
 11
153.7880442156
 21
95.8596555516
 31
0.0
  0
ARC
  5
C5
330
44
100
AcDbEntity
  8
0
  6
Continuous
 62
     7
100
AcDbCircle
 10
147.2880455944
 20
434.8886333643
 30
0.0
 40
3.0
100
AcDbArc
 50
180.0
 51
270.0
  0
ARC
  5
C6
330
44
100
AcDbEntity
  8
0
  6
Continuous
 62
     7
100
AcDbCircle
 10
300.2880455944
 20
434.8886333643
 30
0.0
 40
3.0
100
AcDbArc
 50
270.0
 51
0.0
  0
ARC
  5
C7
330
44
100
AcDbEntity
  8
0
  6
Continuous
 62
     7
100
AcDbCircle
 10
294.2880455944
 20
407.8886333643
 30
0.0
 40
3.0
100
AcDbArc
 50
270.0
 51
0.0
  0
ARC
  5
C8
330
44
100
AcDbEntity
  8
0
  6
Continuous
 62
     7
100
AcDbCircle
 10
153.2880455944
 20
407.8886333643
 30
0.0
 40
3.0
100
AcDbArc
 50
180.0
 51
270.0
  0
ARC
  5
C9
330
44
100
AcDbEntity
  8
0
  6
Continuous
 62
     7
100
AcDbCircle
 10
48.7880455944
 20
467.8886333643
 30
0.0
 40
2.5
100
AcDbArc
 50
90.0
 51
180.0
  0
ARC
  5
CA
330
44
100
AcDbEntity
  8
0
  6
Continuous
 62
     7
100
AcDbCircle
 10
398.7880455944
 20
467.8886333643
 30
0.0
 40
2.5
100
AcDbArc
 50
0.0
 51
90.0
  0
ARC
  5
CB
330
44
100
AcDbEntity
  8
0
  6
Continuous
 62
     7
100
AcDbCircle
 10
148.5380455944
 20
446.1103212008
 30
0.0
 40
0.4999999999997949
100
AcDbArc
 50
300.0000000000136
 51
0.0
  0
ARC
  5
CC
330
44
100
AcDbEntity
  8
0
  6
Continuous
 62
     7
100
AcDbCircle
 10
299.0380455944
 20
446.1103212008
 30
0.0
 40
0.5
100
AcDbArc
 50
180.0
 51
239.9999999999864
  0
ARC
  5
CD
330
44
100
AcDbEntity
  8
0
  6
Continuous
 62
     7
100
AcDbCircle
 10
155.7880455944
 20
99.8596483264
 30
0.0
 40
2.0
100
AcDbArc
 50
90.0
 51
180.0
  0
ARC
  5
CE
330
44
100
AcDbEntity
  8
0
  6
Continuous
 62
     7
100
AcDbCircle
 10
291.7880455944
 20
99.8596483264
 30
0.0
 40
2.0
100
AcDbArc
 50
0.0
 51
90.0
  0
ARC
  5
CF
330
44
100
AcDbEntity
  8
0
  6
Continuous
 62
     7
100
AcDbCircle
 10
158.1700116056
 20
100.8596483264
 30
0.0
 40
1.000000000000202
100
AcDbArc
 50
26.56507708879246
 51
90.00000064457721
  0
ARC
  5
D0
330
44
100
AcDbEntity
  8
0
  6
Continuous
 62
     7
100
AcDbCircle
 10
289.4060795831
 20
100.8596483264
 30
0.0
 40
1.0
100
AcDbArc
 50
89.99999935542277
 51
153.4349229112076
  0
ARC
  5
D1
330
44
100
AcDbEntity
  8
0
  6
Continuous
 62
     7
100
AcDbCircle
 10
157.7880455944
 20
92.8596483264
 30
0.0
 40
1.0
100
AcDbArc
 50
270.0
 51
0.0
  0
ARC
  5
D2
330
44
100
AcDbEntity
  8
0
  6
Continuous
 62
     7
100
AcDbCircle
 10
289.7880455944
 20
92.8596483264
 30
0.0
 40
1.0
100
AcDbArc
 50
180.0
 51
270.0
  0
ARC
  5
D3
330
44
100
AcDbEntity
  8
0
  6
Continuous
 62
     7
100
AcDbCircle
 10
155.7880455944
 20
93.8596483264
 30
0.0
 40
2.0
100
AcDbArc
 50
180.0
 51
270.0
  0
ARC
  5
D4
330
44
100
AcDbEntity
  8
0
  6
Continuous
 62
     7
100
AcDbCircle
 10
291.7880455944
 20
93.8596483264
 30
0.0
 40
2.0
100
AcDbArc
 50
270.0
 51
0.0
  0
DIMENSION
  5
E4
330
44
100
AcDbEntity
  8
1
100
AcDbDimension
  2
*D2
 10
46.28804987800001
 20
493.858033495978
 30
0.0
 11
223.565548995953
 21
500.858033495978
 31
0.0
 70
    32
  1
<>
 71
     5
 42
-1.0
 53
0.00013888888889
  3
ME10_DIM_10
100
AcDbAlignedDimension
 13
401.2880455944
 23
467.8886333643
 33
0.0
 14
46.288049878
 24
467.8886322305
 34
0.0
100
AcDbRotatedDimension
  0
DIMENSION
  5
EF
330
44
100
AcDbEntity
  8
1
100
AcDbDimension
  2
*D3
 10
38.7880474938
 20
125.3886310384
 30
0.0
 11
31.7880474938
 21
299.663288853178
 31
0.0
 70
    32
  1
<>
 71
     5
 42
-1.0
 53
90.0
  3
ME10_DIM_11
100
AcDbAlignedDimension
 13
48.7880474938
 23
470.3886298463
 33
0.0
 14
165.2880451693
 24
125.3886310384
 34
0.0
 50
90.0
100
AcDbRotatedDimension
  0
DIMENSION
  5
FA
330
44
100
AcDbEntity
  8
1
100
AcDbDimension
  2
*D4
 10
93.9686489686201
 20
125.3886310384
 30
0.0
 11
86.4686489686201
 21
260.043049446898
 31
0.0
 70
    32
  1
<>
 71
     5
 42
-1.0
 53
90.0
  3
ME10_DIM_12
100
AcDbAlignedDimension
 13
153.2880432023
 23
404.8886312172
 33
0.0
 14
165.2880451693
 24
125.3886310384
 34
0.0
 50
90.0
100
AcDbRotatedDimension
  0
DIMENSION
  5
105
330
44
100
AcDbEntity
  8
1
100
AcDbDimension
  2
*D5
 10
161.2880445136
 20
107.713216333929
 30
0.0
 11
224.274674418124
 21
114.713216333929
 31
0.0
 70
    33
  1
<>
 71
     5
 42
-1.0
 53
0.00013888888889
  3
ME10_DIM_13
100
AcDbAlignedDimension
 13
286.2880445136
 23
129.3886391446
 33
0.0
 14
161.2880445136
 24
129.3886391446
 34
0.0
  0
HATCH
  5
106
330
44
100
AcDbEntity
  8
0
  6
Continuous
 62
     7
100
AcDbHatch
 10
0.0
 20
0.0
 30
0.0
210
0.0
220
0.0
230
1.0
  2
CUSTOM0
 70
     0
 71
     0
 91
        1
 92
        1
 93
       44
 72
     1
 10
154.28804559438
 20
97.3596483263887
 11
154.28804559438
 21
96.3596483263887
 72
     1
 10
154.28804559438
 20
96.3596483263887
 11
153.78804559438
 21
95.8596483263887
 72
     1
 10
153.78804559438
 20
95.8596483263887
 11
154.28804559438
 21
95.3596483263887
 72
     1
 10
154.28804559438
 20
95.3596483263887
 11
154.28804559438
 21
94.3596483263887
 72
     1
 10
154.28804559438
 20
94.3596483263887
 11
153.7880455944
 21
93.8596483264
 72
     1
 10
153.7880455944
 20
93.8596483264
 11
153.827912438697
 21
93.4623096647985
 72
     1
 10
153.827912438697
 20
93.4623096647985
 11
153.945923606374
 21
93.0808116417713
 72
     1
 10
153.945923606374
 20
93.0808116417713
 11
154.13737436456
 21
92.7303633795986
 72
     1
 10
154.13737436456
 20
92.7303633795986
 11
154.394632175685
 21
92.4249361445896
 72
     1
 10
154.394632175685
 20
92.4249361445896
 11
154.707440982643
 21
92.1767063567729
 72
     1
 10
154.707440982643
 20
92.1767063567729
 11
155.063330085426
 21
91.9955701544542
 72
     1
 10
155.063330085426
 20
91.9955701544542
 11
155.448111308579
 21
91.8887488664117
 72
     1
 10
155.448111308579
 20
91.8887488664117
 11
155.7880455944
 21
91.8596483264
 72
     1
 10
155.7880455944
 20
91.8596483264
 11
157.7880455944
 21
91.8596483264
 72
     1
 10
157.7880455944
 20
91.8596483264
 11
157.986714925175
 21
91.8795817485474
 72
     1
 10
157.986714925175
 20
91.8795817485474
 11
158.177463936688
 21
91.9385873323858
 72
     1
 10
158.177463936688
 20
91.9385873323858
 11
158.352688067775
 21
92.034312711479
 72
     1
 10
158.352688067775
 20
92.034312711479
 11
158.505401685279
 21
92.1629416170415
 72
     1
 10
158.505401685279
 20
92.1629416170415
 11
158.629516579187
 21
92.3193460205205
 72
     1
 10
158.629516579187
 20
92.3193460205205
 11
158.720084680347
 21
92.497290571912
 72
     1
 10
158.720084680347
 20
92.497290571912
 11
158.773495324368
 21
92.6896811834884
 72
     1
 10
158.773495324368
 20
92.6896811834884
 11
158.7880455944
 21
92.8596483264
 72
     1
 10
158.7880455944
 20
92.8596483264
 11
158.78804559438
 21
97.8596483263887
 72
     1
 10
158.78804559438
 20
97.8596483263887
 11
162.28804559438
 21
94.8596483263887
 72
     1
 10
162.28804559438
 20
94.8596483263887
 11
159.06443859435
 21
101.3068623264
 72
     1
 10
159.06443859435
 20
101.3068623264
 11
158.95776189752
 21
101.475643032231
 72
     1
 10
158.95776189752
 20
101.475643032231
 11
158.819680082413
 21
101.619865973036
 72
     1
 10
158.819680082413
 20
101.619865973036
 11
158.655698035285
 21
101.733781435274
 72
     1
 10
158.655698035285
 20
101.733781435274
 11
158.472353202877
 21
101.812847968947
 72
     1
 10
158.472353202877
 20
101.812847968947
 11
158.276954965082
 21
101.853913440867
 72
     1
 10
158.276954965082
 20
101.853913440867
 11
158.17001159435
 21
101.8596483264
 72
     1
 10
158.17001159435
 20
101.8596483264
 11
155.7880455944
 21
101.8596483264
 72
     1
 10
155.7880455944
 20
101.8596483264
 11
155.390706932789
 21
101.819781482071
 72
     1
 10
155.390706932789
 20
101.819781482071
 11
155.009208909762
 21
101.701770314394
 72
     1
 10
155.009208909762
 20
101.701770314394
 11
154.658760647589
 21
101.510319556208
 72
     1
 10
154.658760647589
 20
101.510319556208
 11
154.35333341258
 21
101.253061745083
 72
     1
 10
154.35333341258
 20
101.253061745083
 11
154.105103624764
 21
100.940252938125
 72
     1
 10
154.105103624764
 20
100.940252938125
 11
153.923967422445
 21
100.584363835342
 72
     1
 10
153.923967422445
 20
100.584363835342
 11
153.817146134403
 21
100.199582612189
 72
     1
 10
153.817146134403
 20
100.199582612189
 11
153.7880455944
 21
99.8596483264
 72
     1
 10
153.7880455944
 20
99.8596483264
 11
154.28804559438
 21
99.3596483263887
 72
     1
 10
154.28804559438
 20
99.3596483263887
 11
154.28804559438
 21
98.3596483263887
 72
     1
 10
154.28804559438
 20
98.3596483263887
 11
153.78804559438
 21
97.8596483263887
 72
     1
 10
153.78804559438
 20
97.8596483263887
 11
154.28804559438
 21
97.3596483263887
 97
        0
 75
     1
 76
     2
 52
0.0
 41
1.0
 77
     0
 78
     1
 53
44.99999999999998
 43
0.0
 44
0.0
 45
-4.490128060534577
 46
0.0000000000000018
 79
     0
 98
        1
 10
0.0
 20
0.0
  0
HATCH
  5
107
330
44
100
AcDbEntity
  8
0
  6
Continuous
 62
     7
100
AcDbHatch
 10
0.0
 20
0.0
 30
0.0
210
0.0
220
0.0
230
1.0
  2
CUSTOM1
 70
     0
 71
     0
 91
        1
 92
        1
 93
       44
 72
     1
 10
293.28804559438
 20
95.3596483263887
 11
293.78804559438
 21
95.8596483263887
 72
     1
 10
293.78804559438
 20
95.8596483263887
 11
293.28804559438
 21
96.3596483263887
 72
     1
 10
293.28804559438
 20
96.3596483263887
 11
293.28804559438
 21
97.3596483263887
 72
     1
 10
293.28804559438
 20
97.3596483263887
 11
293.78804559438
 21
97.8596483263887
 72
     1
 10
293.78804559438
 20
97.8596483263887
 11
293.28804559438
 21
98.3596483263887
 72
     1
 10
293.28804559438
 20
98.3596483263887
 11
293.28804559438
 21
99.3596483263887
 72
     1
 10
293.28804559438
 20
99.3596483263887
 11
293.7880455944
 21
99.8596483264
 72
     1
 10
293.7880455944
 20
99.8596483264
 11
293.748178750062
 21
100.256986987979
 72
     1
 10
293.748178750062
 20
100.256986987979
 11
293.630167582385
 21
100.638485011006
 72
     1
 10
293.630167582385
 20
100.638485011006
 11
293.438716824199
 21
100.988933273179
 72
     1
 10
293.438716824199
 20
100.988933273179
 11
293.181459013074
 21
101.294360508188
 72
     1
 10
293.181459013074
 20
101.294360508188
 11
292.868650206116
 21
101.542590296004
 72
     1
 10
292.868650206116
 20
101.542590296004
 11
292.512761103333
 21
101.723726498323
 72
     1
 10
292.512761103333
 20
101.723726498323
 11
292.12797988018
 21
101.830547786366
 72
     1
 10
292.12797988018
 20
101.830547786366
 11
291.7880455944
 21
101.8596483264
 72
     1
 10
291.7880455944
 20
101.8596483264
 11
289.40607959435
 21
101.8596483264
 72
     1
 10
289.40607959435
 20
101.8596483264
 11
289.20741026336
 21
101.839714906465
 72
     1
 10
289.20741026336
 20
101.839714906465
 11
289.016661251183
 21
101.780709324773
 72
     1
 10
289.016661251183
 20
101.780709324773
 11
288.841437119019
 21
101.684983947651
 72
     1
 10
288.841437119019
 20
101.684983947651
 11
288.688723500068
 21
101.556355043806
 72
     1
 10
288.688723500068
 20
101.556355043806
 11
288.5646086044
 21
101.399950641723
 72
     1
 10
288.5646086044
 20
101.399950641723
 11
288.51165259435
 21
101.3068623264
 72
     1
 10
288.51165259435
 20
101.3068623264
 11
285.28804559438
 21
94.8596483263887
 72
     1
 10
285.28804559438
 20
94.8596483263887
 11
288.78804559438
 21
97.8596483263887
 72
     1
 10
288.78804559438
 20
97.8596483263887
 11
288.7880455944
 21
92.8596483264
 72
     1
 10
288.7880455944
 20
92.8596483264
 11
288.807979016538
 21
92.6609789955936
 72
     1
 10
288.807979016538
 20
92.6609789955936
 11
288.866984600377
 21
92.47022998408
 72
     1
 10
288.866984600377
 20
92.47022998408
 11
288.96270997947
 21
92.2950058529936
 72
     1
 10
288.96270997947
 20
92.2950058529936
 11
289.091338885032
 21
92.1422922354891
 72
     1
 10
289.091338885032
 20
92.1422922354891
 11
289.247743288511
 21
92.0181773415808
 72
     1
 10
289.247743288511
 20
92.0181773415808
 11
289.425687839903
 21
91.9276092404214
 72
     1
 10
289.425687839903
 20
91.9276092404214
 11
289.618078451479
 21
91.8741985964002
 72
     1
 10
289.618078451479
 20
91.8741985964002
 11
289.7880455944
 21
91.8596483264
 72
     1
 10
289.7880455944
 20
91.8596483264
 11
291.7880455944
 21
91.8596483264
 72
     1
 10
291.7880455944
 20
91.8596483264
 11
292.18538425597
 21
91.8995151707062
 72
     1
 10
292.18538425597
 20
91.8995151707062
 11
292.566882278997
 21
92.0175263383829
 72
     1
 10
292.566882278997
 20
92.0175263383829
 11
292.91733054117
 21
92.2089770965693
 72
     1
 10
292.91733054117
 20
92.2089770965693
 11
293.222757776179
 21
92.4662349076943
 72
     1
 10
293.222757776179
 20
92.4662349076943
 11
293.470987563995
 21
92.7790437146524
 72
     1
 10
293.470987563995
 20
92.7790437146524
 11
293.652123766314
 21
93.1349328174353
 72
     1
 10
293.652123766314
 20
93.1349328174353
 11
293.758945054356
 21
93.5197140405882
 72
     1
 10
293.758945054356
 20
93.5197140405882
 11
293.7880455944
 21
93.8596483264
 72
     1
 10
293.7880455944
 20
93.8596483264
 11
293.28804559438
 21
94.3596483263887
 72
     1
 10
293.28804559438
 20
94.3596483263887
 11
293.28804559438
 21
95.3596483263887
 97
        0
 75
     1
 76
     2
 52
0.0
 41
1.0
 77
     0
 78
     1
 53
44.99999999999998
 43
0.0
 44
0.0
 45
-4.490128060534577
 46
0.0000000000000018
 79
     0
 98
        1
 10
0.0
 20
0.0
  0
HATCH
  5
108
330
44
100
AcDbEntity
  8
0
  6
Continuous
 62
     7
100
AcDbHatch
 10
0.0
 20
0.0
 30
0.0
210
0.0
220
0.0
230
1.0
  2
CUSTOM2
 70
     0
 71
     0
 91
        1
 92
        1
 93
       51
 72
     1
 10
303.28804559438
 20
447.003086207946
 11
306.53804559438
 21
452.306604191114
 72
     1
 10
306.53804559438
 20
452.306604191114
 11
306.53804559438
 21
466.388633364323
 72
     1
 10
306.53804559438
 20
466.388633364323
 11
401.2880455944
 21
466.3886333643
 72
     1
 10
401.2880455944
 20
466.3886333643
 11
401.2880455944
 21
467.8886333643
 72
     1
 10
401.2880455944
 20
467.8886333643
 11
401.238212038983
 21
468.38530669131
 72
     1
 10
401.238212038983
 20
468.38530669131
 11
401.090698079387
 21
468.862179220094
 72
     1
 10
401.090698079387
 20
468.862179220094
 11
400.851384631654
 21
469.30023954781
 72
     1
 10
400.851384631654
 20
469.30023954781
 11
400.529812367748
 21
469.682023591571
 72
     1
 10
400.529812367748
 20
469.682023591571
 11
400.13880135905
 21
469.992310826342
 72
     1
 10
400.13880135905
 20
469.992310826342
 11
399.693939980571
 21
470.218731079241
 72
     1
 10
399.693939980571
 20
470.218731079241
 11
399.21296345163
 21
470.352257689294
 72
     1
 10
399.21296345163
 20
470.352257689294
 11
398.7880455944
 21
470.3886333643
 72
     1
 10
398.7880455944
 20
470.3886333643
 11
302.53804559438
 21
470.388633364323
 72
     1
 10
302.53804559438
 20
470.388633364323
 11
302.53804559438
 21
453.434720864323
 72
     1
 10
302.53804559438
 20
453.434720864323
 11
298.53804559438
 21
446.907314115808
 72
     1
 10
298.53804559438
 20
446.907314115808
 11
298.5380455944
 21
446.1103212008
 72
     1
 10
298.5380455944
 20
446.1103212008
 11
298.548012305459
 21
446.010986535412
 72
     1
 10
298.548012305459
 20
446.010986535412
 11
298.577515097378
 21
445.915612029656
 72
     1
 10
298.577515097378
 20
445.915612029656
 11
298.625377786925
 21
445.827999964112
 72
     1
 10
298.625377786925
 20
445.827999964112
 11
298.689692239706
 21
445.75164315536
 72
     1
 10
298.689692239706
 20
445.75164315536
 11
298.767894441445
 21
445.689585708406
 72
     1
 10
298.767894441445
 20
445.689585708406
 11
298.7880455944
 21
445.677308498908
 72
     1
 10
298.7880455944
 20
445.677308498908
 11
299.28804559438
 21
445.388633364323
 72
     1
 10
299.28804559438
 20
445.388633364323
 11
299.28804559438
 21
435.888633364323
 72
     1
 10
299.28804559438
 20
435.888633364323
 11
293.28804559438
 21
435.888633364323
 72
     1
 10
293.28804559438
 20
435.888633364323
 11
293.28804559438
 21
408.888633364323
 72
     1
 10
293.28804559438
 20
408.888633364323
 11
282.28804559438
 21
408.888633364323
 72
     1
 10
282.28804559438
 20
408.888633364323
 11
282.28804559438
 21
125.388633364323
 72
     1
 10
282.28804559438
 20
125.388633364323
 11
285.216248824655
 21
125.388633364323
 72
     1
 10
285.216248824655
 20
125.388633364323
 11
286.2880455944
 21
129.3886333643
 72
     1
 10
286.2880455944
 20
129.3886333643
 11
286.28804559438
 21
404.888633364323
 72
     1
 10
286.28804559438
 20
404.888633364323
 11
294.2880455944
 21
404.8886333643
 72
     1
 10
294.2880455944
 20
404.8886333643
 11
294.884053586765
 21
404.948433630799
 72
     1
 10
294.884053586765
 20
404.948433630799
 11
295.456300621306
 21
405.125450382314
 72
     1
 10
295.456300621306
 20
405.125450382314
 11
295.981973014565
 21
405.412626519594
 72
     1
 10
295.981973014565
 20
405.412626519594
 11
296.440113867078
 21
405.798513236281
 72
     1
 10
296.440113867078
 20
405.798513236281
 11
296.812458548803
 21
406.267726446719
 72
     1
 10
296.812458548803
 20
406.267726446719
 11
297.084162852281
 21
406.801560100893
 72
     1
 10
297.084162852281
 20
406.801560100893
 11
297.244394784345
 21
407.378731935622
 72
     1
 10
297.244394784345
 20
407.378731935622
 11
297.2880455944
 21
407.8886333643
 72
     1
 10
297.2880455944
 20
407.8886333643
 11
297.28804559438
 21
431.888633364323
 72
     1
 10
297.28804559438
 20
431.888633364323
 11
300.2880455944
 21
431.8886333643
 72
     1
 10
300.2880455944
 20
431.8886333643
 11
300.884053586765
 21
431.948433630799
 72
     1
 10
300.884053586765
 20
431.948433630799
 11
301.456300621306
 21
432.125450382314
 72
     1
 10
301.456300621306
 20
432.125450382314
 11
301.981973014565
 21
432.412626519594
 72
     1
 10
301.981973014565
 20
432.412626519594
 11
302.440113867078
 21
432.798513236281
 72
     1
 10
302.440113867078
 20
432.798513236281
 11
302.812458548803
 21
433.267726446719
 72
     1
 10
302.812458548803
 20
433.267726446719
 11
303.084162852281
 21
433.801560100893
 72
     1
 10
303.084162852281
 20
433.801560100893
 11
303.244394784345
 21
434.378731935622
 72
     1
 10
303.244394784345
 20
434.378731935622
 11
303.2880455944
 21
434.8886333643
 72
     1
 10
303.2880455944
 20
434.8886333643
 11
303.28804559438
 21
447.003086207946
 97
        0
 75
     1
 76
     2
 52
0.0
 41
1.0
 77
     0
 78
     1
 53
44.99999999999998
 43
0.0
 44
0.0
 45
-4.490128060534577
 46
0.0000000000000018
 79
     0
 98
        1
 10
0.0
 20
0.0
  0
HATCH
  5
109
330
44
100
AcDbEntity
  8
0
  6
Continuous
 62
     7
100
AcDbHatch
 10
0.0
 20
0.0
 30
0.0
210
0.0
220
0.0
230
1.0
  2
CUSTOM3
 70
     0
 71
     0
 91
        1
 92
        1
 93
       51
 72
     1
 10
46.2880455944
 20
466.3886333643
 11
141.03804559438
 21
466.388633364323
 72
     1
 10
141.03804559438
 20
466.388633364323
 11
141.03804559438
 21
452.306604191114
 72
     1
 10
141.03804559438
 20
452.306604191114
 11
144.28804559438
 21
447.003086207946
 72
     1
 10
144.28804559438
 20
447.003086207946
 11
144.2880455944
 21
434.8886333643
 72
     1
 10
144.2880455944
 20
434.8886333643
 11
144.347845860856
 21
434.292625371938
 72
     1
 10
144.347845860856
 20
434.292625371938
 11
144.524862612371
 21
433.720378337397
 72
     1
 10
144.524862612371
 20
433.720378337397
 11
144.81203874965
 21
433.194705944138
 72
     1
 10
144.81203874965
 20
433.194705944138
 11
145.197925466338
 21
432.736565091624
 72
     1
 10
145.197925466338
 20
432.736565091624
 11
145.667138676775
 21
432.364220409899
 72
     1
 10
145.667138676775
 20
432.364220409899
 11
146.200972330949
 21
432.092516106421
 72
     1
 10
146.200972330949
 20
432.092516106421
 11
146.778144165679
 21
431.932284174358
 72
     1
 10
146.778144165679
 20
431.932284174358
 11
147.2880455944
 21
431.8886333643
 72
     1
 10
147.2880455944
 20
431.8886333643
 11
150.28804559438
 21
431.888633364323
 72
     1
 10
150.28804559438
 20
431.888633364323
 11
150.2880455944
 21
407.8886333643
 72
     1
 10
150.2880455944
 20
407.8886333643
 11
150.347845860856
 21
407.292625371938
 72
     1
 10
150.347845860856
 20
407.292625371938
 11
150.524862612371
 21
406.720378337397
 72
     1
 10
150.524862612371
 20
406.720378337397
 11
150.81203874965
 21
406.194705944138
 72
     1
 10
150.81203874965
 20
406.194705944138
 11
151.197925466338
 21
405.736565091624
 72
     1
 10
151.197925466338
 20
405.736565091624
 11
151.667138676775
 21
405.364220409899
 72
     1
 10
151.667138676775
 20
405.364220409899
 11
152.200972330949
 21
405.092516106421
 72
     1
 10
152.200972330949
 20
405.092516106421
 11
152.778144165679
 21
404.932284174358
 72
     1
 10
152.778144165679
 20
404.932284174358
 11
153.2880455944
 21
404.8886333643
 72
     1
 10
153.2880455944
 20
404.8886333643
 11
161.28804559438
 21
404.888633364323
 72
     1
 10
161.28804559438
 20
404.888633364323
 11
161.2880455944
 21
129.3886333643
 72
     1
 10
161.2880455944
 20
129.3886333643
 11
162.3598423641
 21
125.3886333643
 72
     1
 10
162.3598423641
 20
125.3886333643
 11
165.28804559438
 21
125.388633364323
 72
     1
 10
165.28804559438
 20
125.388633364323
 11
165.28804559438
 21
408.888633364323
 72
     1
 10
165.28804559438
 20
408.888633364323
 11
154.28804559438
 21
408.888633364323
 72
     1
 10
154.28804559438
 20
408.888633364323
 11
154.28804559438
 21
435.888633364323
 72
     1
 10
154.28804559438
 20
435.888633364323
 11
148.28804559438
 21
435.888633364323
 72
     1
 10
148.28804559438
 20
435.888633364323
 11
148.28804559438
 21
445.388633364323
 72
     1
 10
148.28804559438
 20
445.388633364323
 11
148.7880455944
 21
445.677308498908
 72
     1
 10
148.7880455944
 20
445.677308498908
 11
148.869088582551
 21
445.735607256603
 72
     1
 10
148.869088582551
 20
445.735607256603
 11
148.93693393145
 21
445.808844676766
 72
     1
 10
148.93693393145
 20
445.808844676766
 11
148.988876861115
 21
445.894101014579
 72
     1
 10
148.988876861115
 20
445.894101014579
 11
149.022846570856
 21
445.987977368894
 72
     1
 10
149.022846570856
 20
445.987977368894
 11
149.037488795542
 21
446.086731185709
 72
     1
 10
149.037488795542
 20
446.086731185709
 11
149.0380455944
 21
446.1103212008
 72
     1
 10
149.0380455944
 20
446.1103212008
 11
149.03804559438
 21
446.907314115808
 72
     1
 10
149.03804559438
 20
446.907314115808
 11
145.03804559438
 21
453.434720864323
 72
     1
 10
145.03804559438
 20
453.434720864323
 11
145.038045594379
 21
470.388633364323
 72
     1
 10
145.038045594379
 20
470.388633364323
 11
48.7880455944
 21
470.3886333643
 72
     1
 10
48.7880455944
 20
470.3886333643
 11
48.2913722673916
 21
470.338799808926
 72
     1
 10
48.2913722673916
 20
470.338799808926
 11
47.8144997386076
 21
470.19128584933
 72
     1
 10
47.8144997386076
 20
470.19128584933
 11
47.3764394108917
 21
469.951972401597
 72
     1
 10
47.3764394108917
 20
469.951972401597
 11
46.9946553671305
 21
469.63040013769
 72
     1
 10
46.9946553671305
 20
469.63040013769
 11
46.6843681323595
 21
469.239389128993
 72
     1
 10
46.6843681323595
 20
469.239389128993
 11
46.4579478794612
 21
468.794527750514
 72
     1
 10
46.4579478794612
 20
468.794527750514
 11
46.3244212694081
 21
468.313551221573
 72
     1
 10
46.3244212694081
 20
468.313551221573
 11
46.2880455944
 21
467.8886333643
 72
     1
 10
46.2880455944
 20
467.8886333643
 11
46.2880455944
 21
466.3886333643
 97
        0
 75
     1
 76
     2
 52
0.0
 41
1.0
 77
     0
 78
     1
 53
44.99999999999998
 43
0.0
 44
0.0
 45
-4.490128060534577
 46
0.0000000000000018
 79
     0
 98
        1
 10
0.0
 20
0.0
  0
ENDBLK
  5
46
330
44
100
AcDbEntity
  8
0
100
AcDbBlockEnd
  0
BLOCK
  5
E1
330
D9
100
AcDbEntity
  8
0
100
AcDbBlockBegin
  2
*D2
 70
     1
 10
0.0
 20
0.0
 30
0.0
  3
*D2
  1

  0
LINE
  5
DA
330
D9
100
AcDbEntity
  8
1
  6
Continuous
 62
     4
100
AcDbLine
 10
46.28804987800001
 20
493.858033495978
 30
0.0
 11
401.2880455944
 21
493.858033495978
 31
0.0
  0
LINE
  5
DB
330
D9
100
AcDbEntity
  8
1
  6
Continuous
 62
     4
100
AcDbLine
 10
46.28804987800001
 20
467.8886322305
 30
0.0
 11
46.28804987800001
 21
495.858033495978
 31
0.0
  0
LINE
  5
DC
330
D9
100
AcDbEntity
  8
1
  6
Continuous
 62
     4
100
AcDbLine
 10
401.2880455944
 20
467.8886333643
 30
0.0
 11
401.2880455944
 21
495.858033495978
 31
0.0
  0
SOLID
  5
DD
330
D9
100
AcDbEntity
  8
1
 62
     4
100
AcDbTrace
 10
56.28804987800001
 20
495.174558471852
 30
0.0
 11
56.28804987800001
 21
492.5415085201041
 31
0.0
 12
46.28804987800001
 22
493.858033495978
 32
0.0
 13
46.28804987800001
 23
493.858033495978
 33
0.0
  0
SOLID
  5
DE
330
D9
100
AcDbEntity
  8
1
 62
     4
100
AcDbTrace
 10
391.2880455944
 20
492.5415085201041
 30
0.0
 11
391.2880455944
 21
495.174558471852
 31
0.0
 12
401.2880455944
 22
493.858033495978
 32
0.0
 13
401.2880455944
 23
493.858033495978
 33
0.0
  0
MTEXT
  5
E0
330
D9
100
AcDbEntity
  8
1
 62
     1
100
AcDbMText
 10
201.1655489960012
 20
495.8579937412562
 30
0.0
 40
10.0
 41
0.0
 71
     7
 72
     1
  1
\C1;%%c\C1;355
  7
CONVERTER_11
 11
0.9999999999970619
 21
2.424068405545306E-6
 31
0.0
 73
     1
 44
0.60024009603842
  0
ENDBLK
  5
E2
330
D9
100
AcDbEntity
  8
0
100
AcDbBlockEnd
  0
BLOCK
  5
EC
330
E5
100
AcDbEntity
  8
0
100
AcDbBlockBegin
  2
*D3
 70
     1
 10
0.0
 20
0.0
 30
0.0
  3
*D3
  1

  0
LINE
  5
E6
330
E5
100
AcDbEntity
  8
1
  6
Continuous
 62
     4
100
AcDbLine
 10
38.7880474938
 20
125.3886310384
 30
0.0
 11
38.7880474938
 21
470.3886298463
 31
0.0
  0
LINE
  5
E7
330
E5
100
AcDbEntity
  8
1
  6
Continuous
 62
     4
100
AcDbLine
 10
165.2880451693
 20
125.3886310384
 30
0.0
 11
36.7880474938
 21
125.3886310384
 31
0.0
  0
LINE
  5
E8
330
E5
100
AcDbEntity
  8
1
  6
Continuous
 62
     4
100
AcDbLine
 10
48.7880474938
 20
470.3886298463
 30
0.0
 11
36.7880474938
 21
470.3886298463
 31
0.0
  0
SOLID
  5
E9
330
E5
100
AcDbEntity
  8
1
 62
     4
100
AcDbTrace
 10
37.47152251792604
 20
135.3886310384
 30
0.0
 11
40.10457246967396
 21
135.3886310384
 31
0.0
 12
38.7880474938
 22
125.3886310384
 32
0.0
 13
38.7880474938
 23
125.3886310384
 33
0.0
  0
SOLID
  5
EA
330
E5
100
AcDbEntity
  8
1
 62
     4
100
AcDbTrace
 10
40.10457246967395
 20
460.3886298463
 30
0.0
 11
37.47152251792604
 21
460.3886298463
 31
0.0
 12
38.7880474938
 22
470.3886298463
 32
0.0
 13
38.7880474938
 23
470.3886298463
 33
0.0
  0
MTEXT
  5
EB
330
E5
100
AcDbEntity
  8
1
 62
     1
100
AcDbMText
 10
36.7880474938
 20
287.663288853178
 30
0.0
 40
10.0
 41
0.0
 71
     7
 72
     1
  1
345
  7
CONVERTER_11
 11
0.0
 21
1.0
 31
0.0
 73
     1
 44
0.60024009603842
  0
ENDBLK
  5
ED
330
E5
100
AcDbEntity
  8
0
100
AcDbBlockEnd
  0
BLOCK
  5
F7
330
F0
100
AcDbEntity
  8
0
100
AcDbBlockBegin
  2
*D4
 70
     1
 10
0.0
 20
0.0
 30
0.0
  3
*D4
  1

  0
LINE
  5
F1
330
F0
100
AcDbEntity
  8
1
  6
Continuous
 62
     4
100
AcDbLine
 10
93.9686489686201
 20
125.3886310384
 30
0.0
 11
93.9686489686201
 21
404.8886312172
 31
0.0
  0
LINE
  5
F2
330
F0
100
AcDbEntity
  8
1
  6
Continuous
 62
     4
100
AcDbLine
 10
165.2880451693
 20
125.3886310384
 30
0.0
 11
91.9686489686201
 21
125.3886310384
 31
0.0
  0
LINE
  5
F3
330
F0
100
AcDbEntity
  8
1
  6
Continuous
 62
     4
100
AcDbLine
 10
153.2880432023
 20
404.8886312172
 30
0.0
 11
91.9686489686201
 21
404.8886312172
 31
0.0
  0
SOLID
  5
F4
330
F0
100
AcDbEntity
  8
1
 62
     4
100
AcDbTrace
 10
92.65212399274614
 20
135.3886310384
 30
0.0
 11
95.28517394449406
 21
135.3886310384
 31
0.0
 12
93.9686489686201
 22
125.3886310384
 32
0.0
 13
93.9686489686201
 23
125.3886310384
 33
0.0
  0
SOLID
  5
F5
330
F0
100
AcDbEntity
  8
1
 62
     4
100
AcDbTrace
 10
95.28517394449406
 20
394.8886312172
 30
0.0
 11
92.65212399274614
 21
394.8886312172
 31
0.0
 12
93.9686489686201
 22
404.8886312172
 32
0.0
 13
93.9686489686201
 23
404.8886312172
 33
0.0
  0
MTEXT
  5
F6
330
F0
100
AcDbEntity
  8
1
 62
     1
100
AcDbMText
 10
90.9686489686201
 20
241.793049446898
 30
0.0
 40
10.0
 41
0.0
 71
     7
 72
     1
  1
279,5
  7
CONVERTER_11
 11
0.0
 21
1.0
 31
0.0
 73
     1
 44
0.60024009603842
  0
ENDBLK
  5
F8
330
F0
100
AcDbEntity
  8
0
100
AcDbBlockEnd
  0
BLOCK
  5
102
330
FB
100
AcDbEntity
  8
0
100
AcDbBlockBegin
  2
*D5
 70
     1
 10
0.0
 20
0.0
 30
0.0
  3
*D5
  1

  0
LINE
  5
FC
330
FB
100
AcDbEntity
  8
1
  6
Continuous
 62
     4
100
AcDbLine
 10
161.2880445136
 20
107.713216333929
 30
0.0
 11
286.2880445136
 21
107.713216333929
 31
0.0
  0
LINE
  5
FD
330
FB
100
AcDbEntity
  8
1
  6
Continuous
 62
     4
100
AcDbLine
 10
161.2880445136
 20
129.3886391446
 30
0.0
 11
161.2880445136
 21
105.713216333929
 31
0.0
  0
LINE
  5
FE
330
FB
100
AcDbEntity
  8
1
  6
Continuous
 62
     4
100
AcDbLine
 10
286.2880445136
 20
129.3886391446
 30
0.0
 11
286.2880445136
 21
105.713216333929
 31
0.0
  0
SOLID
  5
FF
330
FB
100
AcDbEntity
  8
1
 62
     4
100
AcDbTrace
 10
171.2880445136
 20
109.029741309803
 30
0.0
 11
171.2880445136
 21
106.396691358055
 31
0.0
 12
161.2880445136
 22
107.713216333929
 32
0.0
 13
161.2880445136
 23
107.713216333929
 33
0.0
  0
SOLID
  5
100
330
FB
100
AcDbEntity
  8
1
 62
     4
100
AcDbTrace
 10
276.2880445136
 20
106.396691358055
 30
0.0
 11
276.2880445136
 21
109.029741309803
 31
0.0
 12
286.2880445136
 22
107.713216333929
 32
0.0
 13
286.2880445136
 23
107.713216333929
 33
0.0
  0
MTEXT
  5
101
330
FB
100
AcDbEntity
  8
1
 62
     1
100
AcDbMText
 10
208.3746744181722
 20
109.7131765792071
 30
0.0
 40
10.0
 41
0.0
 71
     7
 72
     1
  1
\C1;DN\C1;125
  7
CONVERTER_11
 11
0.9999999999970619
 21
2.424068405545306E-6
 31
0.0
 73
     1
 44
0.60024009603842
  0
ENDBLK
  5
103
330
FB
100
AcDbEntity
  8
0
100
AcDbBlockEnd
  0
ENDSEC
  0
SECTION
  2
ENTITIES
  0
INSERT
  5
69
330
1F
100
AcDbEntity
  8
0
100
AcDbBlockReference
  2
HL65P
 10
214.0380465441
 20
298.858840470689
 30
0.0
  0
ENDSEC
  0
SECTION
  2
OBJECTS
  0
DICTIONARY
  5
C
330
0
100
AcDbDictionary
281
     1
  3
ACAD_GROUP
350
D
  3
ACAD_LAYOUT
350
1A
  3
ACAD_MLEADERSTYLE
350
10C
  3
ACAD_MLINESTYLE
350
17
  3
ACAD_PLOTSETTINGS
350
19
  3
ACAD_PLOTSTYLENAME
350
E
  3
ACAD_SCALELIST
350
47
  3
ACAD_VISUALSTYLE
350
2A
  3
AcDbVariableDictionary
350
10A
  0
DICTIONARY
  5
D
102
{ACAD_REACTORS
330
C
102
}
330
C
100
AcDbDictionary
281
     1
  0
DICTIONARY
  5
1A
102
{ACAD_REACTORS
330
C
102
}
330
C
100
AcDbDictionary
281
     1
  3
Layout1
350
1E
  3
Layout2
350
26
  3
Model
350
22
  0
DICTIONARY
  5
10C
102
{ACAD_REACTORS
330
C
102
}
330
C
100
AcDbDictionary
281
     1
  0
DICTIONARY
  5
17
102
{ACAD_REACTORS
330
C
102
}
330
C
100
AcDbDictionary
281
     1
  3
Standard
350
18
  0
DICTIONARY
  5
19
102
{ACAD_REACTORS
330
C
102
}
330
C
100
AcDbDictionary
281
     1
  0
ACDBDICTIONARYWDFLT
  5
E
102
{ACAD_REACTORS
330
C
102
}
330
C
100
AcDbDictionary
281
     1
  3
Normal
350
F
100
AcDbDictionaryWithDefault
340
F
  0
DICTIONARY
  5
47
102
{ACAD_REACTORS
330
C
102
}
330
C
100
AcDbDictionary
281
     1
  3
A0
350
48
  3
A1
350
49
  3
A2
350
4A
  3
A3
350
4B
  3
A4
350
4C
  3
A5
350
4D
  3
A6
350
4E
  3
A7
350
4F
  3
A8
350
50
  3
A9
350
51
  3
B0
350
52
  3
B1
350
53
  3
B2
350
54
  3
B3
350
55
  3
B4
350
56
  3
B5
350
57
  3
B6
350
58
  3
B7
350
59
  3
B8
350
5A
  3
B9
350
5B
  3
C0
350
5C
  3
C1
350
5D
  3
C2
350
5E
  3
C3
350
5F
  3
C4
350
60
  3
C5
350
61
  3
C6
350
62
  3
C7
350
63
  3
C8
350
64
  3
C9
350
65
  3
D0
350
66
  3
D1
350
67
  3
D2
350
68
  0
DICTIONARY
  5
2A
102
{ACAD_REACTORS
330
C
102
}
330
C
100
AcDbDictionary
281
     1
  3
2dWireframe
350
2F
  3
3D Hidden
350
31
  3
3dWireframe
350
30
  3
Basic
350
32
  3
Brighten
350
36
  3
ColorChange
350
3A
  3
Conceptual
350
34
  3
Dim
350
35
  3
Facepattern
350
39
  3
Flat
350
2B
  3
FlatWithEdges
350
2C
  3
Gouraud
350
2D
  3
GouraudWithEdges
350
2E
  3
Linepattern
350
38
  3
Realistic
350
33
  3
Thicken
350
37
  0
DICTIONARY
  5
10A
102
{ACAD_REACTORS
330
C
102
}
330
C
100
AcDbDictionary
281
     1
  3
CANNOSCALE
350
10D
  0
LAYOUT
  5
1E
102
{ACAD_REACTORS
330
1A
102
}
330
1A
100
AcDbPlotSettings
  1

  2
none_device
  4

  6

 40
0.0
 41
0.0
 42
0.0
 43
0.0
 44
0.0
 45
0.0
 46
0.0
 47
0.0
 48
0.0
 49
0.0
140
0.0
141
0.0
142
1.0
143
1.0
 70
   688
 72
     0
 73
     0
 74
     5
  7

 75
    16
147
1.0
148
0.0
149
0.0
100
AcDbLayout
  1
Layout1
 70
     1
 71
     1
 10
0.0
 20
0.0
 11
12.0
 21
9.0
 12
0.0
 22
0.0
 32
0.0
 14
1.00000000000000E+20
 24
1.00000000000000E+20
 34
1.00000000000000E+20
 15
-1.00000000000000E+20
 25
-1.00000000000000E+20
 35
-1.00000000000000E+20
146
0.0
 13
0.0
 23
0.0
 33
0.0
 16
1.0
 26
0.0
 36
0.0
 17
0.0
 27
1.0
 37
0.0
 76
     0
330
1B
  0
LAYOUT
  5
26
102
{ACAD_REACTORS
330
1A
102
}
330
1A
100
AcDbPlotSettings
  1

  2
none_device
  4

  6

 40
0.0
 41
0.0
 42
0.0
 43
0.0
 44
0.0
 45
0.0
 46
0.0
 47
0.0
 48
0.0
 49
0.0
140
0.0
141
0.0
142
1.0
143
1.0
 70
   688
 72
     0
 73
     0
 74
     5
  7

 75
    16
147
1.0
148
0.0
149
0.0
100
AcDbLayout
  1
Layout2
 70
     1
 71
     2
 10
0.0
 20
0.0
 11
0.0
 21
0.0
 12
0.0
 22
0.0
 32
0.0
 14
0.0
 24
0.0
 34
0.0
 15
0.0
 25
0.0
 35
0.0
146
0.0
 13
0.0
 23
0.0
 33
0.0
 16
1.0
 26
0.0
 36
0.0
 17
0.0
 27
1.0
 37
0.0
 76
     0
330
23
  0
LAYOUT
  5
22
102
{ACAD_REACTORS
330
1A
102
}
330
1A
100
AcDbPlotSettings
  1

  2
none_device
  4

  6

 40
0.0
 41
0.0
 42
0.0
 43
0.0
 44
0.0
 45
0.0
 46
0.0
 47
0.0
 48
0.0
 49
0.0
140
0.0
141
0.0
142
1.0
143
1.0
 70
  1712
 72
     0
 73
     0
 74
     0
  7

 75
     0
147
1.0
148
0.0
149
0.0
100
AcDbLayout
  1
Model
 70
     1
 71
     0
 10
0.0
 20
0.0
 11
12.0
 21
9.0
 12
0.0
 22
0.0
 32
0.0
 14
26.7880474938
 24
91.8596474454
 34
0.0
 15
401.2880455944001
 25
505.858033495978
 35
0.0
146
0.0
 13
0.0
 23
0.0
 33
0.0
 16
1.0
 26
0.0
 36
0.0
 17
0.0
 27
1.0
 37
0.0
 76
     0
330
1F
331
29
  0
MLINESTYLE
  5
18
102
{ACAD_REACTORS
330
17
102
}
330
17
100
AcDbMlineStyle
  2
Standard
 70
     0
  3

 62
   256
 51
90.0
 52
90.0
 71
     2
 49
0.5
 62
   256
  6
BYLAYER
 49
-0.5
 62
   256
  6
BYLAYER
  0
ACDBPLACEHOLDER
  5
F
102
{ACAD_REACTORS
330
E
102
}
330
E
  0
SCALE
  5
48
102
{ACAD_REACTORS
330
47
102
}
330
47
100
AcDbScale
 70
     0
300
1:1
140
1.0
141
1.0
290
     1
  0
SCALE
  5
49
102
{ACAD_REACTORS
330
47
102
}
330
47
100
AcDbScale
 70
     0
300
1:2
140
1.0
141
2.0
290
     0
  0
SCALE
  5
4A
102
{ACAD_REACTORS
330
47
102
}
330
47
100
AcDbScale
 70
     0
300
1:4
140
1.0
141
4.0
290
     0
  0
SCALE
  5
4B
102
{ACAD_REACTORS
330
47
102
}
330
47
100
AcDbScale
 70
     0
300
1:5
140
1.0
141
5.0
290
     0
  0
SCALE
  5
4C
102
{ACAD_REACTORS
330
47
102
}
330
47
100
AcDbScale
 70
     0
300
1:8
140
1.0
141
8.0
290
     0
  0
SCALE
  5
4D
102
{ACAD_REACTORS
330
47
102
}
330
47
100
AcDbScale
 70
     0
300
1:10
140
1.0
141
10.0
290
     0
  0
SCALE
  5
4E
102
{ACAD_REACTORS
330
47
102
}
330
47
100
AcDbScale
 70
     0
300
1:16
140
1.0
141
16.0
290
     0
  0
SCALE
  5
4F
102
{ACAD_REACTORS
330
47
102
}
330
47
100
AcDbScale
 70
     0
300
1:20
140
1.0
141
20.0
290
     0
  0
SCALE
  5
50
102
{ACAD_REACTORS
330
47
102
}
330
47
100
AcDbScale
 70
     0
300
1:30
140
1.0
141
30.0
290
     0
  0
SCALE
  5
51
102
{ACAD_REACTORS
330
47
102
}
330
47
100
AcDbScale
 70
     0
300
1:40
140
1.0
141
40.0
290
     0
  0
SCALE
  5
52
102
{ACAD_REACTORS
330
47
102
}
330
47
100
AcDbScale
 70
     0
300
1:50
140
1.0
141
50.0
290
     0
  0
SCALE
  5
53
102
{ACAD_REACTORS
330
47
102
}
330
47
100
AcDbScale
 70
     0
300
1:100
140
1.0
141
100.0
290
     0
  0
SCALE
  5
54
102
{ACAD_REACTORS
330
47
102
}
330
47
100
AcDbScale
 70
     0
300
2:1
140
2.0
141
1.0
290
     0
  0
SCALE
  5
55
102
{ACAD_REACTORS
330
47
102
}
330
47
100
AcDbScale
 70
     0
300
4:1
140
4.0
141
1.0
290
     0
  0
SCALE
  5
56
102
{ACAD_REACTORS
330
47
102
}
330
47
100
AcDbScale
 70
     0
300
8:1
140
8.0
141
1.0
290
     0
  0
SCALE
  5
57
102
{ACAD_REACTORS
330
47
102
}
330
47
100
AcDbScale
 70
     0
300
10:1
140
10.0
141
1.0
290
     0
  0
SCALE
  5
58
102
{ACAD_REACTORS
330
47
102
}
330
47
100
AcDbScale
 70
     0
300
100:1
140
100.0
141
1.0
290
     0
  0
SCALE
  5
59
102
{ACAD_REACTORS
330
47
102
}
330
47
100
AcDbScale
 70
     0
300
1/128" = 1'-0"
140
0.0078125
141
12.0
290
     0
  0
SCALE
  5
5A
102
{ACAD_REACTORS
330
47
102
}
330
47
100
AcDbScale
 70
     0
300
1/64" = 1'-0"
140
0.015625
141
12.0
290
     0
  0
SCALE
  5
5B
102
{ACAD_REACTORS
330
47
102
}
330
47
100
AcDbScale
 70
     0
300
1/32" = 1'-0"
140
0.03125
141
12.0
290
     0
  0
SCALE
  5
5C
102
{ACAD_REACTORS
330
47
102
}
330
47
100
AcDbScale
 70
     0
300
1/16" = 1'-0"
140
0.0625
141
12.0
290
     0
  0
SCALE
  5
5D
102
{ACAD_REACTORS
330
47
102
}
330
47
100
AcDbScale
 70
     0
300
3/32" = 1'-0"
140
0.09375
141
12.0
290
     0
  0
SCALE
  5
5E
102
{ACAD_REACTORS
330
47
102
}
330
47
100
AcDbScale
 70
     0
300
1/8" = 1'-0"
140
0.125
141
12.0
290
     0
  0
SCALE
  5
5F
102
{ACAD_REACTORS
330
47
102
}
330
47
100
AcDbScale
 70
     0
300
3/16" = 1'-0"
140
0.1875
141
12.0
290
     0
  0
SCALE
  5
60
102
{ACAD_REACTORS
330
47
102
}
330
47
100
AcDbScale
 70
     0
300
1/4" = 1'-0"
140
0.25
141
12.0
290
     0
  0
SCALE
  5
61
102
{ACAD_REACTORS
330
47
102
}
330
47
100
AcDbScale
 70
     0
300
3/8" = 1'-0"
140
0.375
141
12.0
290
     0
  0
SCALE
  5
62
102
{ACAD_REACTORS
330
47
102
}
330
47
100
AcDbScale
 70
     0
300
1/2" = 1'-0"
140
0.5
141
12.0
290
     0
  0
SCALE
  5
63
102
{ACAD_REACTORS
330
47
102
}
330
47
100
AcDbScale
 70
     0
300
3/4" = 1'-0"
140
0.75
141
12.0
290
     0
  0
SCALE
  5
64
102
{ACAD_REACTORS
330
47
102
}
330
47
100
AcDbScale
 70
     0
300
1" = 1'-0"
140
1.0
141
12.0
290
     0
  0
SCALE
  5
65
102
{ACAD_REACTORS
330
47
102
}
330
47
100
AcDbScale
 70
     0
300
1-1/2" = 1'-0"
140
1.5
141
12.0
290
     0
  0
SCALE
  5
66
102
{ACAD_REACTORS
330
47
102
}
330
47
100
AcDbScale
 70
     0
300
3" = 1'-0"
140
3.0
141
12.0
290
     0
  0
SCALE
  5
67
102
{ACAD_REACTORS
330
47
102
}
330
47
100
AcDbScale
 70
     0
300
6" = 1'-0"
140
6.0
141
12.0
290
     0
  0
SCALE
  5
68
102
{ACAD_REACTORS
330
47
102
}
330
47
100
AcDbScale
 70
     0
300
1'-0" = 1'-0"
140
12.0
141
12.0
290
     0
  0
VISUALSTYLE
  5
2F
102
{ACAD_REACTORS
330
2A
102
}
330
2A
100
AcDbVisualStyle
  2
2dWireframe
 70
     4
 71
     0
 72
     2
 73
     0
 90
        0
 40
-0.6
 41
-30.0
 62
     5
 63
     7
 74
     1
 91
        4
 64
     7
 65
   257
 75
     1
175
     1
 42
1.0
 92
        0
 66
   257
 43
1.0
 76
     1
 77
     6
 78
     2
 67
     7
 79
     5
170
     0
171
     0
290
     0
174
     0
 93
        1
 44
0.0
173
     0
291
     0
 45
0.0
1001
ACAD
1000
AcDbSavedByObjectVersion
1070
     0
  0
VISUALSTYLE
  5
31
102
{ACAD_REACTORS
330
2A
102
}
330
2A
100
AcDbVisualStyle
  2
3D Hidden
 70
     6
 71
     1
 72
     2
 73
     2
 90
        0
 40
-0.6
 41
-30.0
 62
     5
 63
     7
 74
     2
 91
        2
 64
     7
 65
   257
 75
     2
175
     1
 42
40.0
 92
        0
 66
   257
 43
1.0
 76
     1
 77
     6
 78
     2
 67
     7
 79
     3
170
     0
171
     0
290
     0
174
     0
 93
        1
 44
0.0
173
     0
291
     0
 45
0.0
1001
ACAD
1000
AcDbSavedByObjectVersion
1070
     0
  0
VISUALSTYLE
  5
30
102
{ACAD_REACTORS
330
2A
102
}
330
2A
100
AcDbVisualStyle
  2
3dWireframe
 70
     5
 71
     0
 72
     2
 73
     0
 90
        0
 40
-0.6
 41
-30.0
 62
     5
 63
     7
 74
     1
 91
        4
 64
     7
 65
   257
 75
     1
175
     1
 42
1.0
 92
        0
 66
   257
 43
1.0
 76
     1
 77
     6
 78
     2
 67
     7
 79
     5
170
     0
171
     0
290
     0
174
     0
 93
        1
 44
0.0
173
     0
291
     0
 45
0.0
1001
ACAD
1000
AcDbSavedByObjectVersion
1070
     0
  0
VISUALSTYLE
  5
32
102
{ACAD_REACTORS
330
2A
102
}
330
2A
100
AcDbVisualStyle
  2
Basic
 70
     7
 71
     1
 72
     0
 73
     1
 90
        0
 40
-0.6
 41
-30.0
 62
     5
 63
     7
 74
     0
 91
        4
 64
     7
 65
   257
 75
     1
175
     1
 42
1.0
 92
        8
 66
     7
 43
1.0
 76
     1
 77
     6
 78
     2
 67
     7
 79
     5
170
     0
171
     0
290
     0
174
     0
 93
        1
 44
0.0
173
     0
291
     1
 45
0.0
1001
ACAD
1000
AcDbSavedByObjectVersion
1070
     0
  0
VISUALSTYLE
  5
36
102
{ACAD_REACTORS
330
2A
102
}
330
2A
100
AcDbVisualStyle
  2
Brighten
 70
    12
 71
     2
 72
     2
 73
     0
 90
        0
 40
-0.6
 41
-30.0
 62
     5
 63
     7
 74
     1
 91
        4
 64
     7
 65
   257
 75
     1
175
     1
 42
1.0
 92
        8
 66
     7
 43
1.0
 76
     1
 77
     6
 78
     2
 67
     7
 79
     5
170
     0
171
     0
290
     0
174
     0
 93
        1
 44
50.0
173
     0
291
     1
 45
0.0
1001
ACAD
1000
AcDbSavedByObjectVersion
1070
     0
  0
VISUALSTYLE
  5
3A
102
{ACAD_REACTORS
330
2A
102
}
330
2A
100
AcDbVisualStyle
  2
ColorChange
 70
    16
 71
     2
 72
     2
 73
     3
 90
        0
 40
-0.6
 41
-30.0
 62
     5
 63
     8
 74
     1
 91
        4
 64
     7
 65
   257
 75
     1
175
     1
 42
1.0
 92
        8
 66
     8
 43
1.0
 76
     1
 77
     6
 78
     2
 67
     7
 79
     5
170
     0
171
     0
290
     0
174
     0
 93
        1
 44
0.0
173
     0
291
     1
 45
0.0
1001
ACAD
1000
AcDbSavedByObjectVersion
1070
     0
  0
VISUALSTYLE
  5
34
102
{ACAD_REACTORS
330
2A
102
}
330
2A
100
AcDbVisualStyle
  2
Conceptual
 70
     9
 71
     3
 72
     2
 73
     0
 90
        0
 40
-0.6
 41
-30.0
 62
     5
 63
     7
 74
     2
 91
        2
 64
     7
 65
   257
 75
     1
175
     1
 42
40.0
 92
        8
 66
     7
 43
1.0
 76
     1
 77
     6
 78
     2
 67
     7
 79
     3
170
     0
171
     0
290
     0
174
     0
 93
        1
 44
0.0
173
     0
291
     0
 45
0.0
1001
ACAD
1000
AcDbSavedByObjectVersion
1070
     0
  0
VISUALSTYLE
  5
35
102
{ACAD_REACTORS
330
2A
102
}
330
2A
100
AcDbVisualStyle
  2
Dim
 70
    11
 71
     2
 72
     2
 73
     0
 90
        0
 40
-0.6
 41
-30.0
 62
     5
 63
     7
 74
     1
 91
        4
 64
     7
 65
   257
 75
     1
175
     1
 42
1.0
 92
        8
 66
     7
 43
1.0
 76
     1
 77
     6
 78
     2
 67
     7
 79
     5
170
     0
171
     0
290
     0
174
     0
 93
        1
 44
-50.0
173
     0
291
     1
 45
0.0
1001
ACAD
1000
AcDbSavedByObjectVersion
1070
     0
  0
VISUALSTYLE
  5
39
102
{ACAD_REACTORS
330
2A
102
}
330
2A
100
AcDbVisualStyle
  2
Facepattern
 70
    15
 71
     2
 72
     2
 73
     0
 90
        0
 40
-0.6
 41
-30.0
 62
     5
 63
     7
 74
     1
 91
        4
 64
     7
 65
   257
 75
     1
175
     1
 42
1.0
 92
        8
 66
     7
 43
1.0
 76
     1
 77
     6
 78
     2
 67
     7
 79
     5
170
     0
171
     0
290
     0
174
     0
 93
        1
 44
0.0
173
     0
291
     1
 45
0.0
1001
ACAD
1000
AcDbSavedByObjectVersion
1070
     0
  0
VISUALSTYLE
  5
2B
102
{ACAD_REACTORS
330
2A
102
}
330
2A
100
AcDbVisualStyle
  2
Flat
 70
     0
 71
     2
 72
     1
 73
     1
 90
        2
 40
-0.6
 41
30.0
 62
     5
 63
     7
 74
     0
 91
        4
 64
     7
 65
   257
 75
     1
175
     1
 42
1.0
 92
        8
 66
     7
 43
1.0
 76
     1
 77
     6
 78
     2
 67
     7
 79
     5
170
     0
171
     0
290
     0
174
     0
 93
       13
 44
0.0
173
     0
291
     1
 45
0.0
1001
ACAD
1000
AcDbSavedByObjectVersion
1070
     0
  0
VISUALSTYLE
  5
2C
102
{ACAD_REACTORS
330
2A
102
}
330
2A
100
AcDbVisualStyle
  2
FlatWithEdges
 70
     1
 71
     2
 72
     1
 73
     1
 90
        2
 40
-0.6
 41
30.0
 62
     5
 63
     7
 74
     1
 91
        4
 64
     7
 65
   257
 75
     1
175
     1
 42
1.0
 92
        0
 66
   257
 43
1.0
 76
     1
 77
     6
 78
     2
 67
     7
 79
     5
170
     0
171
     0
290
     0
174
     0
 93
       13
 44
0.0
173
     0
291
     1
 45
0.0
1001
ACAD
1000
AcDbSavedByObjectVersion
1070
     0
  0
VISUALSTYLE
  5
2D
102
{ACAD_REACTORS
330
2A
102
}
330
2A
100
AcDbVisualStyle
  2
Gouraud
 70
     2
 71
     2
 72
     2
 73
     1
 90
        2
 40
-0.6
 41
30.0
 62
     5
 63
     7
 74
     0
 91
        4
 64
     7
 65
   257
 75
     1
175
     1
 42
1.0
 92
        0
 66
     7
 43
1.0
 76
     1
 77
     6
 78
     2
 67
     7
 79
     5
170
     0
171
     0
290
     0
174
     0
 93
       13
 44
0.0
173
     0
291
     1
 45
0.0
1001
ACAD
1000
AcDbSavedByObjectVersion
1070
     0
  0
VISUALSTYLE
  5
2E
102
{ACAD_REACTORS
330
2A
102
}
330
2A
100
AcDbVisualStyle
  2
GouraudWithEdges
 70
     3
 71
     2
 72
     2
 73
     1
 90
        2
 40
-0.6
 41
30.0
 62
     5
 63
     7
 74
     1
 91
        4
 64
     7
 65
   257
 75
     1
175
     1
 42
1.0
 92
        0
 66
   257
 43
1.0
 76
     1
 77
     6
 78
     2
 67
     7
 79
     5
170
     0
171
     0
290
     0
174
     0
 93
       13
 44
0.0
173
     0
291
     1
 45
0.0
1001
ACAD
1000
AcDbSavedByObjectVersion
1070
     0
  0
VISUALSTYLE
  5
38
102
{ACAD_REACTORS
330
2A
102
}
330
2A
100
AcDbVisualStyle
  2
Linepattern
 70
    14
 71
     2
 72
     2
 73
     0
 90
        0
 40
-0.6
 41
-30.0
 62
     5
 63
     7
 74
     1
 91
        4
 64
     7
 65
   257
 75
     7
175
     7
 42
1.0
 92
        8
 66
     7
 43
1.0
 76
     1
 77
     6
 78
     2
 67
     7
 79
     5
170
     0
171
     0
290
     0
174
     0
 93
        1
 44
0.0
173
     0
291
     1
 45
0.0
1001
ACAD
1000
AcDbSavedByObjectVersion
1070
     0
  0
VISUALSTYLE
  5
33
102
{ACAD_REACTORS
330
2A
102
}
330
2A
100
AcDbVisualStyle
  2
Realistic
 70
     8
 71
     2
 72
     2
 73
     0
 90
        0
 40
-0.6
 41
-30.0
 62
     5
 63
     7
 74
     1
 91
        0
 64
     7
 65
   257
 75
     1
175
     1
 42
1.0
 92
        8
 66
     8
 43
1.0
 76
     1
 77
     6
 78
     2
 67
     7
 79
     5
170
     0
171
     0
290
     0
174
     0
 93
       13
 44
0.0
173
     0
291
     0
 45
0.0
1001
ACAD
1000
AcDbSavedByObjectVersion
1070
     0
  0
VISUALSTYLE
  5
37
102
{ACAD_REACTORS
330
2A
102
}
330
2A
100
AcDbVisualStyle
  2
Thicken
 70
    13
 71
     2
 72
     2
 73
     0
 90
        0
 40
-0.6
 41
-30.0
 62
     5
 63
     7
 74
     1
 91
        4
 64
     7
 65
   257
 75
     1
175
     1
 42
1.0
 92
       12
 66
     7
 43
1.0
 76
     1
 77
     6
 78
     2
 67
     7
 79
     5
170
     0
171
     0
290
     0
174
     0
 93
        1
 44
0.0
173
     0
291
     1
 45
0.0
1001
ACAD
1000
AcDbSavedByObjectVersion
1070
     0
  0
DICTIONARYVAR
  5
10D
102
{ACAD_REACTORS
330
10A
102
}
330
10A
100
DictionaryVariables
280
     0
  1
1:1
  0
ENDSEC
  0
EOF
